VERSION	0.00.00	1.04.00
FES_MODE	0
BPM_DEF	170.000	170.000	170.000	170.000
MET_DEF	4	4
RESOLUTION	384
CLK_DEF	384
COMPATIBLE_CODE	MA2

BPM	0	0	170.000
MET	0	0	4	4

NMTAP	2	0	2
NMTAP	2	0	4
NMTAP	2	192	3
NMTAP	2	192	5
NMTAP	3	0	2
NMTAP	3	0	4
NMTAP	3	96	0
NMTAP	3	192	1
NMTAP	3	288	2
NMTAP	4	0	1
NMTAP	4	0	3
NMTAP	4	192	4
NMTAP	4	192	5
NMTAP	5	0	2
NMTAP	5	0	3
NMTAP	5	192	5
NMTAP	5	288	4
NMTAP	6	0	3
NMTAP	6	0	5
NMTAP	6	192	2
NMTAP	6	192	4
NMTAP	7	0	3
NMTAP	7	0	5
NMTAP	7	96	7
NMTAP	7	192	6
NMTAP	7	288	5
NMTAP	8	0	4
NMTAP	8	0	6
NMTAP	8	192	3
NMTAP	8	192	5
NMTAP	9	0	2
NMTAP	9	0	3
NMTAP	9	96	2
NMTAP	9	96	3
NMTAP	9	192	2
NMTAP	9	192	3
NMTAP	9	288	2
NMTAP	9	288	3
NMTAP	10	0	4
NMTAP	10	0	5
NMTAP	10	96	4
NMTAP	10	96	5
NMTAP	10	192	4
NMTAP	10	192	5
NMTAP	10	288	4
NMTAP	10	288	5
EXTAP	11	0	3
EXTAP	11	48	4
EXTAP	11	96	3
EXTAP	11	144	4
EXTAP	11	192	3
EXTAP	11	240	4
EXTAP	11	288	3
NMTAP	12	0	2
NMTAP	12	96	1
NMTAP	12	192	0
NMTAP	12	192	7
NMSTR	12	288	6
NMSI_	12	288	6	96	48	4
NMHLD	13	192	2	192
NMTTP	14	0	3	B	0	M1
NMTTP	14	0	4	B	0	M1
NMTTP	14	0	4	E	0	M1
NMTTP	14	96	5	B	0	M1
NMTTP	14	96	6	B	0	M1
NMTTP	14	96	6	E	0	M1
NMTTP	14	192	0	B	0	M1
NMTTP	14	192	0	E	0	M1
NMTTP	14	192	7	B	0	M1
NMHLD	15	0	2	192
NMHLD	15	192	5	192
NMTTP	16	0	3	B	0	M1
NMTTP	16	0	4	B	0	M1
NMTTP	16	0	4	E	0	M1
NMTTP	16	96	1	B	0	M1
NMTTP	16	96	2	B	0	M1
NMTTP	16	96	2	E	0	M1
NMTTP	16	192	0	B	0	M1
NMTTP	16	192	0	E	0	M1
NMTTP	16	192	7	B	0	M1
NMHLD	17	0	4	192
NMTAP	17	0	5
NMHLD	17	192	3	192
NMHLD	18	0	2	192
NMHLD	18	192	3	192
NMHLD	19	0	4	192
NMTAP	19	192	5
NMTAP	19	288	5
NMTAP	20	0	4
NMTAP	20	192	3
NMTAP	20	192	4
NMTAP	21	0	2
NMHLD	21	0	3	192
NMHLD	21	192	4	192
NMHLD	22	0	5	192
NMHLD	22	192	4	192
NMHLD	23	0	3	192
NMTAP	23	192	2
NMTAP	23	288	2
NMTAP	23	288	3
NMTAP	24	0	3
NMTAP	24	0	4
NMTAP	24	192	6
NMTAP	24	288	7
NMTAP	25	0	0
NMTAP	25	0	6
NMTAP	25	96	0
NMTAP	25	96	6
NMTAP	25	192	1
NMTAP	25	192	7
NMTAP	25	288	1
NMTAP	25	288	7
NMTAP	26	0	0
NMTAP	26	0	6
NMTAP	26	96	0
NMTAP	26	96	6
NMTAP	26	192	0
NMTAP	26	192	7
NMTAP	27	0	6
NMTAP	27	0	7
NMTAP	27	96	6
NMTAP	27	96	7
NMTAP	27	192	0
NMTAP	27	192	1
NMTAP	27	288	0
NMTAP	27	288	1
NMTAP	28	0	6
NMTAP	28	0	7
NMTAP	28	96	6
NMTAP	28	96	7
NMTAP	28	192	0
NMTAP	28	192	7
NMTAP	29	0	2
NMTAP	29	0	3
NMTAP	29	96	2
NMTAP	29	96	3
NMTAP	29	192	4
NMTAP	29	192	5
NMTAP	29	288	4
NMTAP	29	288	5
NMTAP	30	0	2
NMTAP	30	0	3
NMTAP	30	96	2
NMTAP	30	96	3
NMTAP	30	192	3
NMTAP	30	192	4
NMTAP	31	0	2
NMTAP	31	0	3
NMTAP	31	96	3
NMTAP	31	96	4
EXTAP	31	192	3
EXTAP	31	240	4
EXTAP	31	288	5
NMTAP	32	0	6
NMTAP	32	0	7
NMTAP	32	96	0
NMTAP	32	96	7
NMTAP	32	192	0
NMTAP	32	192	1
NMHLD	32	288	7	96
NMTAP	33	0	0
NMTAP	33	96	0
NMTAP	33	96	1
NMTAP	33	192	2
NMTAP	33	240	2
NMHLD	33	288	2	96
EXTAP	34	0	3
NMTAP	34	96	4
NMHLD	34	96	5	96
EXTAP	34	192	6
NMTAP	34	288	4
NMHLD	34	288	5	96
EXTAP	35	0	6
NMSTR	35	96	7
NMSCL	35	96	7	96	96	4
NMTAP	36	0	2
NMTAP	36	0	3
NMTAP	36	96	1
NMTAP	36	192	0
NMTAP	36	192	1
NMHLD	36	288	0	96
NMTAP	37	0	7
NMTAP	37	96	6
NMTAP	37	96	7
NMTAP	37	192	5
NMTAP	37	240	5
NMHLD	37	288	5	96
EXTAP	38	0	4
NMHLD	38	96	2	96
NMTAP	38	96	3
EXTAP	38	192	1
NMHLD	38	288	2	96
NMTAP	38	288	3
EXTAP	39	0	1
NMSTR	39	96	0
NMSCR	39	96	0	96	96	3
NMTAP	40	0	4
NMTAP	40	0	5
EXTAP	40	96	3
EXTAP	40	96	4
EXTAP	40	144	3
EXTAP	40	144	4
EXTAP	40	192	3
EXTAP	40	192	4
BRTAP	40	288	0
BRTAP	40	288	1
NMTAP	41	0	2
NMTAP	41	0	3
NMTAP	41	96	6
NMTAP	41	96	7
EXTAP	41	192	5
EXTAP	41	240	4
EXTAP	41	288	3
NMTAP	42	0	2
NMTAP	42	0	4
NMTAP	42	96	1
NMTAP	42	96	3
NMTAP	42	192	0
NMTAP	42	192	2
EXTAP	42	288	0
EXTAP	42	336	1
NMTAP	43	0	2
NMTAP	43	0	3
NMTAP	43	96	0
NMTAP	43	96	1
EXTAP	43	144	0
EXTAP	43	144	1
EXTAP	43	240	5
EXTAP	43	240	6
EXHLD	43	336	2	144
EXHLD	43	336	3	144
NMTAP	44	192	4
NMTAP	44	192	5
NMTAP	44	288	6
NMTAP	44	288	7
NMTAP	45	0	2
NMHLD	45	0	3	192
EXTAP	45	96	1
EXTAP	45	192	0
NMHLD	45	288	4	192
NMTAP	45	288	5
EXTAP	46	0	6
EXTAP	46	96	7
NMTAP	46	192	2
NMTAP	46	192	3
BRSTR	46	288	6
NMSCL	46	288	6	96	96	3
BRTAP	46	288	7
CNSI_	47	96	3	0	192	0
EXTAP	47	336	2
EXTAP	48	0	2
EXTAP	48	144	1
EXTAP	48	192	1
NMTAP	48	288	0
NMTAP	48	288	7
NMTAP	49	0	2
NMTAP	49	0	3
NMTAP	49	96	6
NMTAP	49	96	7
EXTAP	49	192	5
EXTAP	49	240	4
EXTAP	49	288	3
NMTAP	50	0	2
NMTAP	50	0	4
NMTAP	50	96	1
NMTAP	50	96	3
NMTAP	50	192	0
BXTAP	50	288	6
BXTAP	50	288	7
NMTAP	51	0	4
NMTAP	51	0	5
BXTAP	51	96	0
BXTAP	51	96	1
NMTAP	51	192	2
NMTAP	51	192	3
BXTAP	51	288	6
BXTAP	51	288	7
NMTAP	52	0	4
NMTAP	52	0	5
NMHLD	52	96	2	96
NMTAP	52	192	3
EXTAP	52	288	2
EXTAP	52	336	3
EXTAP	53	0	4
NMHLD	53	96	5	96
NMTAP	53	192	4
NMHLD	53	288	2	96
NMHLD	54	0	3	96
NMHLD	54	96	4	96
NMTAP	54	192	5
BRTAP	54	288	6
BRTAP	54	288	7
NMTAP	55	0	4
NMTAP	55	0	5
NMTAP	55	96	2
NMTAP	55	96	3
NMTAP	55	192	0
NMTAP	55	192	1
NMTAP	55	288	6
NMTAP	55	288	7
NMTAP	56	0	4
NMTAP	56	0	5
NMHLD	56	96	3	96
NMHLD	56	192	2	96
NMTAP	56	288	1
NMTTP	57	0	0	E	0	M1
NMTTP	57	96	6	B	0	M1
NMTTP	57	192	5	A	0	M1
NMTTP	58	0	0	E	0	M1
NMTTP	58	96	1	B	0	M1
NMTTP	58	192	2	A	0	M1
NMTTP	59	0	6	A	0	M1
NMTTP	59	96	5	B	0	M1
NMTTP	59	192	4	E	0	M1
NMTTP	60	0	1	A	0	M1
NMTTP	60	96	2	B	0	M1
NMTTP	60	192	4	E	0	M1
NMTTP	61	0	6	B	0	M1
NMTTP	61	0	6	A	0	M1
NMTTP	61	96	5	B	0	M1
NMTTP	61	96	5	A	0	M1
NMTTP	61	192	4	B	0	M1
NMTTP	61	192	4	A	0	M1
NMTTP	62	0	1	B	0	M1
NMTTP	62	0	1	A	0	M1
NMTTP	62	96	2	B	0	M1
NMTTP	62	96	2	A	0	M1
NMTTP	62	192	3	B	0	M1
NMTTP	62	192	3	A	0	M1
NMTTP	63	0	0	B	0	M1
NMTTP	63	0	0	E	0	M1
NMTTP	63	0	7	B	0	M1
NMTTP	63	96	0	C	0	M1
NMTTP	63	96	2	B	0	M1
NMTTP	63	96	5	B	0	M1
NMTTP	63	192	3	B	0	M1
NMTTP	63	192	4	B	0	M1
NMTTP	63	192	4	E	0	M1
NMTTP	64	0	0	B	0	M1
NMTTP	64	0	0	A	0	M1
NMTTP	64	0	7	B	0	M1
NMTTP	64	0	7	A	0	M1
NMTTP	64	96	1	B	0	M1
NMTTP	64	96	1	A	0	M1
NMTTP	64	96	6	B	0	M1
NMTTP	64	96	6	A	0	M1
NMTTP	64	192	0	C	0	M1
NMTTP	64	192	2	B	0	M1
NMTTP	64	192	3	B	0	M1
NMTTP	64	192	4	B	0	M1
NMTTP	64	192	5	B	0	M1
NMHLD	65	0	7	192
NMTAP	65	192	1
NMTAP	65	288	2
NMTAP	66	0	3
NMSTR	66	96	4
NMSCR	66	96	4	96	384	3
NMTAP	68	0	3
NMTAP	68	96	3
NMTAP	68	192	4
NMTAP	68	288	4
NMHLD	69	0	4	192
NMTAP	69	192	2
NMTAP	69	288	1
NMTAP	70	0	0
NMSTR	70	96	7
NMSCL	70	96	7	96	384	0
NMTAP	72	0	0
NMTAP	72	96	0
NMTAP	72	192	7
NMTAP	72	288	7
NMHLD	73	0	0	96
NMTAP	73	96	7
NMTAP	73	192	1
NMTAP	73	288	2
NMTAP	74	0	3
NMHLD	74	96	4	96
NMTAP	74	192	3
NMTAP	74	288	2
NMTAP	74	288	3
NMTAP	75	0	1
NMTAP	75	0	3
NMTAP	75	96	4
NMTAP	75	96	5
NMTAP	75	192	4
NMTAP	75	192	6
NMTAP	75	288	2
NMTAP	75	288	3
NMTAP	76	0	1
NMTAP	76	0	3
NMHLD	76	96	0	96
NMTAP	76	192	7
NMTAP	76	288	6
NMTAP	77	0	5
NMHLD	77	96	4	96
NMTAP	77	192	3
NMTAP	77	288	3
NMTAP	77	288	4
EXTAP	78	0	3
EXTAP	78	0	4
EXTAP	78	48	3
EXTAP	78	48	4
EXTAP	78	96	3
EXTAP	78	96	4
EXTAP	78	144	3
EXTAP	78	144	4
EXTAP	78	192	3
EXTAP	78	192	4
BRTAP	78	288	6
BRTAP	78	288	7
NMTAP	79	0	4
NMTAP	79	0	5
NMTAP	79	96	0
NMTAP	79	96	1
EXTAP	79	192	2
EXTAP	79	240	3
EXTAP	79	288	4
NMTAP	80	0	3
NMTAP	80	0	5
NMTAP	80	96	4
NMTAP	80	96	6
NMTAP	80	192	5
NMTAP	80	192	7
EXTAP	80	288	7
EXTAP	80	336	6
NMTAP	81	0	4
NMTAP	81	0	5
NMTAP	81	96	6
NMTAP	81	96	7
EXTAP	81	144	6
EXTAP	81	144	7
EXTAP	81	240	1
EXTAP	81	240	2
EXHLD	81	336	4	144
EXHLD	81	336	5	144
NMTAP	82	192	2
NMTAP	82	192	3
NMTAP	82	288	0
NMTAP	82	288	1
NMHLD	83	0	4	192
NMTAP	83	0	5
EXTAP	83	96	7
EXTAP	83	144	7
EXTAP	83	192	7
NMTAP	83	288	2
NMHLD	83	288	3	192
EXTAP	84	0	0
EXTAP	84	48	0
EXTAP	84	96	0
NMTAP	84	192	4
NMTAP	84	192	5
BRTAP	84	288	0
BRSTR	84	288	1
NMSCR	84	288	1	96	96	4
CNSI_	85	96	4	0	192	7
EXTAP	85	336	5
EXTAP	86	0	5
EXTAP	86	144	6
EXTAP	86	192	6
NMTAP	86	288	0
NMTAP	86	288	7
NMTAP	87	0	4
NMTAP	87	0	5
NMTAP	87	96	0
NMTAP	87	96	1
EXTAP	87	192	2
EXTAP	87	240	3
EXTAP	87	288	4
NMTAP	88	0	3
NMTAP	88	0	5
NMTAP	88	96	4
NMTAP	88	96	6
NMTAP	88	192	7
BRTAP	88	288	0
BRTAP	88	288	1
NMTAP	89	0	2
NMTAP	89	0	3
BRTAP	89	96	6
BRTAP	89	96	7
NMTAP	89	192	4
NMTAP	89	192	5
BRTAP	89	288	0
BRTAP	89	288	1
NMTAP	90	0	2
NMTAP	90	0	3
NMHLD	90	96	5	96
NMTAP	90	192	4
EXTAP	90	288	5
EXTAP	90	336	4
EXTAP	91	0	3
NMHLD	91	96	2	96
NMTAP	91	192	3
NMHLD	91	288	5	96
NMHLD	92	0	4	96
NMHLD	92	96	3	96
NMTAP	92	192	2
BRTAP	92	288	0
BRTAP	92	288	1
NMTAP	93	0	4
NMTAP	93	0	5
NMTAP	93	96	4
NMTAP	93	96	5
NMTAP	93	192	2
NMTAP	93	192	3
NMTAP	93	288	2
NMTAP	93	288	3
NMTAP	94	0	4
NMTAP	94	0	5
NMHLD	94	96	2	96
NMHLD	94	192	3	96
NMHLD	94	288	4	96
NMTAP	95	0	5
NMHLD	95	96	5	96
NMTAP	95	192	4
NMHLD	95	288	2	96
NMTAP	96	0	3
NMHLD	96	96	4	96
NMTAP	96	192	3
NMSTR	96	288	1
NMSCR	96	288	1	96	96	3
NMSTR	96	288	6
NMSCL	96	288	6	96	96	4

T_REC_TAP	283
T_REC_BRK	16
T_REC_XTP	80
T_REC_BXX	6
T_REC_HLD	49
T_REC_XHO	4
T_REC_BHO	0
T_REC_BXH	0
T_REC_STR	7
T_REC_BST	2
T_REC_XST	0
T_REC_XBS	0
T_REC_TTP	64
T_REC_THO	0
T_REC_SLD	9
T_REC_BSL	0
T_REC_ALL	520
T_NUM_TAP	434
T_NUM_BRK	24
T_NUM_HLD	53
T_NUM_SLD	9
T_NUM_ALL	520
T_JUDGE_TAP	458
T_JUDGE_HLD	148
T_JUDGE_SLD	9
T_JUDGE_ALL	615
TTM_EACHPAIRS	144
TTM_SCR_TAP	217000
TTM_SCR_BRK	62400
TTM_SCR_HLD	53000
TTM_SCR_SLD	13500
TTM_SCR_ALL	345900
TTM_SCR_S	333200
TTM_SCR_SS	343500
TTM_RAT_ACV	10069

