VERSION	0.00.00	1.04.00
FES_MODE	0
BPM_DEF	128.000	128.000	128.000	128.000
MET_DEF	4	4
RESOLUTION	384
CLK_DEF	384
COMPATIBLE_CODE	MA2

BPM	0	0	128.000
MET	0	0	4	4

NMTAP	1	192	1
NMTAP	1	192	6
NMTAP	1	240	1
NMTAP	1	240	6
NMSTR	1	288	0
NMSV_	1	288	0	96	48	2
NMSTR	1	288	7
NMSI_	1	288	7	96	48	3
NMSTR	2	0	7
NMSXR	2	0	7	96	192	3
NMTTP	2	336	2	B	0	M1
NMTTP	2	336	2	E	0	M1
NMTTP	2	336	4	B	0	M1
NMTTP	2	336	5	E	0	M1
NMTAP	3	0	0
NMTTP	3	48	3	B	0	M1
NMTTP	3	48	3	E	0	M1
NMTTP	3	48	5	B	0	M1
NMTTP	3	48	6	E	0	M1
NMTAP	3	96	7
NMTAP	3	144	0
NMTAP	3	192	1
NMTAP	3	192	7
NMTAP	3	240	2
NMTAP	3	240	6
NMTAP	3	288	3
NMTAP	3	288	5
NMTAP	3	336	4
NMSTR	4	0	5
NMSUR	4	0	5	96	96	2
NMSTR	4	96	2
NMSUL	4	96	2	96	96	5
NMTAP	5	0	2
NMTAP	5	0	4
NMTAP	5	48	2
NMTAP	5	96	3
NMTAP	5	96	5
NMTAP	5	144	5
NMTAP	5	192	4
NMTAP	5	192	5
NMHLD	5	240	3	96
NMTAP	5	240	4
NMHLD	5	336	2	48
BRSTR	6	0	0
NMSXL	6	0	0	96	72	0
NMTAP	6	96	3
NMTAP	6	144	4
BRSTR	6	192	5
NMSCL	6	192	5	96	48	2
NMTTP	6	288	6	B	0	M1
NMTTP	6	336	1	B	0	M1
BXSTR	7	0	3
BRSXL	7	0	3	96	96	3
BRSXR	7	0	3	96	96	3
EXTAP	7	288	2
EXTAP	7	288	4
NMSTR	8	0	5
NMSLR	8	0	5	96	96	4
NMSTR	8	96	4
NMSXR	8	96	4	96	144	0
NMHLD	9	0	1	96
NMHLD	9	96	7	96
NMHLD	9	192	5	96
NMHLD	9	288	3	480
NMHLD	10	0	4	48
NMHLD	10	96	4	48
NMHLD	10	192	4	48
NMSTR	10	288	4
NMSI_	10	288	4	96	48	1
CNSI_	11	48	1	0	48	3
CNSI_	11	96	3	0	48	7
NMHLD	11	192	6	144
NMTTP	11	240	5	B	0	M1
NMTTP	11	256	4	B	0	M1
NMTTP	11	272	3	B	0	M1
NMTTP	11	288	2	B	0	M1
NMTAP	12	0	1
NMTAP	12	0	7
NMTAP	12	48	2
NMTAP	12	72	2
NMTAP	12	96	3
NMTAP	12	144	2
NMTAP	12	192	6
NMHLD	12	240	0	96
NMTAP	12	288	2
NMTAP	13	0	1
NMTAP	13	0	7
NMTAP	13	48	1
NMTAP	13	96	2
NMTAP	13	96	3
NMTAP	13	144	2
NMTAP	13	192	0
NMTAP	13	192	1
NMTAP	13	240	1
EXTAP	13	288	2
EXTAP	13	288	6
NMHLD	14	0	5	96
NMTAP	14	48	7
NMHLD	14	96	4	96
NMTAP	14	144	7
NMTAP	14	192	3
NMTAP	14	240	2
NMTAP	14	288	1
NMTAP	14	288	4
NMTAP	14	336	3
NMHLD	15	0	2	96
NMTAP	15	48	0
NMHLD	15	96	3	96
NMTAP	15	144	0
NMTAP	15	192	4
NMTAP	15	240	5
NMTAP	15	288	3
NMTAP	15	288	6
NMTAP	16	0	0
NMTAP	16	0	6
NMTAP	16	48	5
NMTTP	16	96	4	B	0	M1
NMTTP	16	96	4	E	0	M1
NMTAP	16	96	5
NMTAP	16	144	5
NMTAP	16	192	1
NMHLD	16	240	7	96
NMTTP	16	288	5	B	0	M1
NMTTP	16	288	6	E	0	M1
NMTAP	17	0	0
NMTAP	17	0	6
NMTAP	17	48	6
NMTTP	17	96	4	B	0	M1
NMTTP	17	96	4	E	0	M1
NMTAP	17	96	5
NMTAP	17	144	5
NMTAP	17	192	6
NMTAP	17	192	7
NMTAP	17	240	6
EXTAP	17	288	1
EXTAP	17	288	5
NMSTR	18	0	0
NMSXL	18	0	0	96	72	0
NMTAP	18	48	4
NMTAP	18	96	5
NMTAP	18	144	6
NMSTR	18	192	7
NMSI_	18	192	7	96	48	4
NMTAP	18	240	0
NMTAP	18	288	1
NMSTR	18	336	2
NMSSL	18	336	2	96	96	6
NMHLD	19	0	2	144
NMTAP	19	192	7
NMTAP	19	240	7
EXTAP	19	288	1
EXTAP	19	288	5
NMSTR	20	0	2
NMSCR	20	0	2	96	48	5
NMTAP	20	48	7
NMTAP	20	72	7
NMTAP	20	96	2
NMHLD	20	144	6	96
NMTAP	20	192	7
NMTAP	20	240	0
EXTAP	20	288	1
EXTAP	20	288	5
NMSTR	21	0	6
NMSCR	21	0	6	96	48	1
NMTAP	21	48	3
NMTAP	21	72	3
NMTAP	21	96	6
NMHLD	21	144	2	96
NMTAP	21	192	3
NMTAP	21	240	4
EXTAP	21	288	1
EXTAP	21	288	5
NMSTR	22	0	2
NMSI_	22	0	2	96	48	5
NMTAP	22	48	0
NMTAP	22	72	0
NMTAP	22	96	2
NMTAP	22	144	7
NMSTR	22	192	5
NMSI_	22	192	5	96	48	2
NMSTR	22	192	6
NMSI_	22	192	6	96	48	1
NMTAP	22	288	5
NMTAP	22	288	6
NMSTR	23	0	0
NMSF_	23	0	0	96	48	4
NMTAP	23	48	1
NMTAP	23	48	7
NMTAP	23	96	0
NMTAP	23	192	2
NMTAP	23	192	6
NMTAP	23	240	3
NMTAP	23	240	5
NMTTP	23	288	2	B	0	M1
NMTTP	23	288	2	E	0	M1
NMTTP	23	288	2	A	0	M1
NMTTP	23	288	3	E	0	M1
NMTTP	23	288	6	B	0	M1
NMTTP	23	288	6	E	0	M1
NMTTP	23	288	6	A	0	M1
NMTTP	23	288	7	E	0	M1
NMTAP	24	0	0
NMTAP	24	0	6
NMTAP	24	48	1
NMTAP	24	48	5
NMTAP	24	96	4
NMTAP	24	120	2
NMTAP	24	144	3
NMTAP	24	168	1
NMTAP	24	192	7
NMTAP	24	240	2
NMTAP	24	240	6
NMTAP	24	288	3
NMTAP	24	312	5
NMTAP	24	336	4
NMTAP	24	360	6
NMTAP	25	0	0
NMTAP	25	48	2
NMTAP	25	48	3
NMTAP	25	96	7
NMTAP	25	144	4
NMTAP	25	144	5
NMTAP	25	192	0
NMTAP	25	240	2
NMTAP	25	240	3
NMSTR	25	288	4
NMSCL	25	288	4	96	48	1
NMSTR	25	288	7
NMSCL	25	288	7	96	48	4
NMTTP	26	96	0	C	0	M1
NMTAP	26	144	0
NMTAP	26	192	0
NMTAP	26	264	3
NMTAP	26	288	4
NMTAP	26	336	6
NMSTR	27	0	4
NMSI_	27	0	4	96	48	0
NMSTR	27	0	5
NMSI_	27	0	5	96	48	1
NMTAP	27	48	3
NMTAP	27	48	6
NMTAP	27	96	4
NMTAP	27	96	5
NMTAP	27	192	2
NMTAP	27	192	7
NMTAP	27	240	4
NMTAP	27	240	5
NMSTR	27	288	2
NMSV_	27	288	2	96	48	0
NMSTR	27	288	7
NMSI_	27	288	7	96	48	3
BRTAP	28	0	2
BRSTR	28	0	7
NMSXR	28	0	7	96	192	3
EXTAP	28	96	7
NMTTP	28	336	2	B	0	M1
NMTTP	28	336	2	E	0	M1
NMTTP	28	336	4	B	0	M1
NMTTP	28	336	5	E	0	M1
NMTAP	29	0	0
NMTTP	29	48	3	B	0	M1
NMTTP	29	48	3	E	0	M1
NMTTP	29	48	5	B	0	M1
NMTTP	29	48	6	E	0	M1
NMTAP	29	96	7
NMTAP	29	144	0
NMTAP	29	192	1
NMTAP	29	192	7
NMTAP	29	240	2
NMTAP	29	240	6
NMTAP	29	288	3
NMTAP	29	288	5
NMTAP	29	336	2
NMTAP	29	336	4
NMSTR	30	0	1
NMSUR	30	0	1	96	96	6
NMTAP	30	0	3
NMHLD	30	96	7	192
CNSUL	30	192	6	0	96	1
NMTAP	31	0	3
NMTAP	31	0	5
NMTAP	31	48	5
NMTAP	31	96	2
NMTAP	31	96	4
NMTAP	31	144	2
NMTAP	31	192	2
NMTAP	31	192	3
NMTAP	31	240	3
NMHLD	31	240	4	96
NMHLD	31	336	5	48
BRSTR	32	0	7
NMSXR	32	0	7	96	72	7
NMTAP	32	96	4
NMTAP	32	144	3
BRSTR	32	192	2
NMSCR	32	192	2	96	48	5
NMTTP	32	288	1	B	0	M1
NMTTP	32	336	6	B	0	M1
BXSTR	33	0	4
BRSXL	33	0	4	96	96	4
BRSXR	33	0	4	96	96	4
NMTAP	33	288	2
NMTAP	33	288	3
EXSTR	34	0	0
NMSI_	34	0	0	96	48	4
EXSTR	34	0	4
NMSI_	34	0	4	96	48	7
EXTAP	34	96	0
EXSTR	34	96	4
NMSXR	34	96	4	96	144	0
CNSI_	34	144	7	0	48	5
NMHLD	35	0	5	96
NMHLD	35	96	3	96
NMHLD	35	192	1	96
NMHLD	35	288	7	144
NMHLD	36	0	5	240
NMTAP	36	96	4
NMTAP	36	144	4
NMHLD	36	192	4	240
NMTAP	36	288	3
NMTAP	36	336	3
NMHLD	37	0	3	240
NMTAP	37	96	2
NMTAP	37	144	2
NMHLD	37	192	2	192
NMTAP	37	288	1
NMTAP	37	336	1
NMHLD	38	0	1	48
NMHLD	38	48	0	48
NMHLD	38	96	7	48
NMHLD	38	144	6	48
NMHLD	38	192	5	48
NMHLD	38	240	4	48
NMTAP	38	288	3
EXTAP	38	336	2
EXTAP	38	336	3
NMTAP	39	0	1
NMTAP	39	0	4
NMTAP	39	32	1
NMTAP	39	32	4
NMTAP	39	64	2
NMTAP	39	64	5
NMTAP	39	96	3
NMTAP	39	96	6
EXTAP	39	144	6
EXTAP	39	160	5
EXTAP	39	176	4
EXTAP	39	192	1
EXTAP	39	192	3
NMTAP	39	240	0
NMTAP	39	240	7
BRTAP	39	288	2
BRSTR	39	288	6
NMSI_	39	288	6	96	48	2
NMSTR	40	0	1
NMSI_	40	0	1	96	48	4
NMTAP	40	0	6
NMTAP	40	48	0
NMTAP	40	96	1
NMSTR	40	96	7
NMSI_	40	96	7	96	48	3
NMTAP	40	144	6
NMSTR	40	192	0
NMSI_	40	192	0	96	48	4
NMTAP	40	192	7
NMTAP	40	240	1
NMTAP	40	288	0
NMSTR	40	288	5
NMSI_	40	288	5	96	48	1
NMTAP	40	336	6
NMSTR	41	0	2
NMSI_	41	0	2	96	48	7
NMTAP	41	0	5
NMTAP	41	48	3
NMTAP	41	96	2
NMSTR	41	96	5
NMSCR	41	96	5	96	96	2
NMTAP	41	144	4
NMTAP	41	192	3
NMTAP	41	192	5
NMTTP	41	288	0	C	1	M1
NMTAP	41	352	1
NMSTR	42	0	7
NMSF_	42	0	7	96	48	3
NMTAP	42	32	0
NMTAP	42	64	6
NMTAP	42	96	7
NMTAP	42	160	5
NMSTR	42	192	3
NMSF_	42	192	3	96	48	7
NMTAP	42	224	4
NMTAP	42	256	2
NMTAP	42	288	3
NMTAP	43	0	1
NMTAP	43	24	0
NMTAP	43	48	1
NMTAP	43	72	0
NMTAP	43	96	2
NMTAP	43	96	7
NMTAP	43	144	4
NMTAP	43	144	5
NMTAP	43	192	2
NMTAP	43	192	3
NMTAP	43	240	0
NMTAP	43	240	7
BRSTR	43	288	1
NMSI_	43	288	1	96	48	5
BRTAP	43	288	5
NMTAP	44	0	1
NMSTR	44	0	6
NMSI_	44	0	6	96	48	3
NMTAP	44	48	7
NMSTR	44	96	0
NMSI_	44	96	0	96	48	4
NMTAP	44	96	6
NMTAP	44	144	1
NMTAP	44	192	0
NMSTR	44	192	7
NMSI_	44	192	7	96	48	3
NMTAP	44	240	6
NMSTR	44	288	2
NMSI_	44	288	2	96	48	6
NMTAP	44	288	7
NMTAP	44	336	1
NMTAP	45	0	2
NMSTR	45	0	5
NMSI_	45	0	5	96	48	0
NMTAP	45	48	4
NMSTR	45	96	2
NMSCL	45	96	2	96	96	5
NMTAP	45	96	5
NMTAP	45	144	3
NMTAP	45	192	2
NMTAP	45	192	4
NMTTP	45	288	0	C	1	M1
NMTAP	45	352	6
NMSTR	46	0	0
NMSSR	46	0	0	96	96	4
NMTAP	46	32	7
NMTAP	46	64	1
NMTAP	46	96	0
NMTAP	46	192	3
NMTAP	46	224	3
NMTAP	46	256	3
NMTAP	46	288	2
NMTAP	46	288	4
NMSTR	47	0	1
NMSCL	47	0	1	96	48	6
NMSTR	47	48	6
NMSCR	47	48	6	96	96	4
NMSTR	47	96	1
NMSCR	47	96	1	96	96	7
EXHLD	47	192	3	192
BRTAP	48	0	0
NMTAP	48	96	1
NMTAP	48	96	3
NMTAP	48	144	2
NMTAP	48	168	4
NMTAP	48	192	1
NMTAP	48	216	3
NMTAP	48	240	0
NMHLD	48	288	1	96
NMTAP	48	288	2
NMTAP	49	0	2
NMTAP	49	24	1
NMTAP	49	48	3
NMTAP	49	96	4
NMTAP	49	96	6
NMTAP	49	144	5
NMTAP	49	168	3
NMTAP	49	192	6
NMTAP	49	216	4
NMTAP	49	240	7
NMTAP	49	288	5
NMHLD	49	288	6	96
NMTAP	50	0	7
NMTAP	50	24	7
NMTAP	50	48	6
NMTAP	50	72	6
NMTAP	50	96	5
NMTAP	50	120	5
NMTAP	50	144	4
NMTAP	50	168	4
NMTAP	50	192	3
NMTAP	50	240	2
NMTAP	50	240	4
NMTAP	50	288	1
NMTAP	50	288	3
NMTAP	50	336	0
NMTAP	50	336	2
NMTAP	51	0	0
NMTAP	51	24	0
NMTAP	51	48	1
NMTAP	51	72	1
NMTAP	51	96	2
NMTAP	51	120	2
NMTAP	51	144	3
NMTAP	51	168	3
NMTAP	51	192	4
NMTAP	51	240	3
NMTAP	51	240	5
NMTAP	51	288	3
NMTAP	51	288	4
BRTAP	52	0	1
BRTAP	52	0	6
NMTAP	52	48	3
NMTAP	52	96	5
NMTAP	52	120	4
NMTAP	52	144	5
NMTAP	52	168	4
NMHLD	52	192	5	48
BRHLD	52	240	7	48
NMTAP	52	288	6
BRHLD	52	312	0	48
NMTAP	52	360	7
BRTAP	53	0	1
NMTAP	53	48	0
NMTAP	53	96	2
NMTAP	53	120	3
NMTAP	53	144	2
NMTAP	53	168	3
NMHLD	53	192	2	48
BRHLD	53	240	0	48
NMTAP	53	288	1
BRHLD	53	312	7	48
NMTAP	53	360	0
BRTAP	54	0	6
NMTAP	54	24	6
NMTAP	54	48	5
NMTAP	54	72	5
NMTAP	54	96	4
NMTAP	54	120	4
NMTAP	54	144	3
NMTAP	54	168	3
NMTAP	54	192	5
EXTAP	54	240	5
BRHLD	54	240	7	48
EXTAP	54	288	6
BRHLD	54	312	0	48
EXTAP	54	336	7
BRTAP	55	0	1
NMTAP	55	24	1
NMTAP	55	48	2
NMTAP	55	72	2
NMTAP	55	96	3
NMTAP	55	120	3
NMTAP	55	144	4
NMTAP	55	168	4
NMTAP	55	192	5
BRTAP	55	240	0
BRTAP	55	240	7
EXTAP	55	288	1
EXTAP	55	288	6
NMTTP	56	0	0	B	0	M1
NMTTP	56	0	0	C	0	M1
NMTTP	56	96	0	C	0	M1
NMTTP	56	96	1	B	0	M1
NMTTP	56	192	0	C	0	M1
NMTTP	56	192	2	B	0	M1
NMTTP	56	288	0	C	0	M1
NMTTP	56	288	3	B	0	M1
NMTTP	57	0	0	C	0	M1
NMTTP	57	0	7	B	0	M1
NMTTP	57	96	0	C	0	M1
NMTTP	57	96	6	B	0	M1
NMTTP	57	192	0	C	0	M1
NMTTP	57	192	5	B	0	M1
NMTTP	57	288	0	C	0	M1
NMTTP	57	288	4	B	0	M1
NMTTP	58	0	0	B	0	M1
NMTTP	58	0	0	C	0	M1
NMTTP	58	0	0	A	0	M1
NMTTP	58	96	0	C	0	M1
NMTTP	58	96	1	B	0	M1
NMTTP	58	96	1	A	0	M1
NMTTP	58	192	0	C	0	M1
NMTTP	58	192	2	B	0	M1
NMTTP	58	192	2	A	0	M1
NMTTP	58	288	0	C	0	M1
NMTTP	58	288	3	B	0	M1
NMTTP	58	288	3	A	0	M1
NMTTP	59	0	0	C	0	M1
NMTTP	59	0	7	B	0	M1
NMTTP	59	0	7	A	0	M1
NMTTP	59	96	0	C	0	M1
NMTTP	59	96	6	B	0	M1
NMTTP	59	96	6	A	0	M1
NMTTP	59	192	0	C	0	M1
NMTTP	59	192	5	B	0	M1
NMTTP	59	192	5	A	0	M1
NMTTP	59	288	0	C	0	M1
NMTTP	59	288	4	B	0	M1
NMTTP	59	288	4	A	0	M1
NMTTP	60	0	0	B	0	M1
NMTTP	60	0	0	A	0	M1
NMTAP	60	0	7
NMTAP	60	48	7
NMTTP	60	96	1	B	0	M1
NMTTP	60	96	1	A	0	M1
NMTAP	60	96	6
NMTAP	60	144	6
NMTTP	60	192	2	B	0	M1
NMTTP	60	192	2	A	0	M1
NMTAP	60	192	5
NMTAP	60	240	5
NMTTP	60	288	3	B	0	M1
NMTTP	60	288	3	A	0	M1
NMTAP	60	288	4
NMTAP	60	336	4
NMTAP	61	0	3
NMTTP	61	0	7	B	0	M1
NMTTP	61	0	7	A	0	M1
NMTAP	61	48	3
NMTAP	61	96	2
NMTTP	61	96	6	B	0	M1
NMTTP	61	96	6	A	0	M1
NMTAP	61	144	2
NMTAP	61	192	1
NMTTP	61	192	5	B	0	M1
NMTTP	61	192	5	A	0	M1
NMTAP	61	240	1
NMTAP	61	288	0
NMHLD	61	288	4	288
EXSTR	61	336	0
BRSUL	61	336	0	96	72	0
BXTAP	62	240	6
BXTAP	62	240	7
BXTAP	62	288	0
BXTAP	62	288	1
BXTAP	62	336	2
BXTAP	62	336	3
BXTAP	63	0	4
BXTAP	63	0	5
BXTAP	63	48	0
BXTAP	63	48	7
BXHLD	63	96	3	144
BXHLD	63	96	4	144
NMTTP	63	240	3	B	0	M1
NMTTP	63	240	4	B	0	M1
NMTTP	63	240	4	E	0	M1
NMTTP	63	256	0	C	0	M1
NMTTP	63	256	1	B	0	M1
NMTTP	63	256	2	B	0	M1
NMTTP	63	256	5	B	0	M1
NMTTP	63	256	6	B	0	M1
NMTTP	63	272	0	B	0	M1
NMTTP	63	272	0	E	0	M1
NMTTP	63	272	0	D	1	M1
NMTTP	63	272	1	E	0	M1
NMTTP	63	272	1	D	0	M1
NMTTP	63	272	7	B	0	M1
NMTTP	63	272	7	E	0	M1
NMTTP	63	272	7	D	0	M1
BXSTR	63	288	0
BRSI_	63	288	0	96	480	3
BXSTR	63	288	7
BRSI_	63	288	7	96	480	4
NMTAP	65	192	3
BRSTR	65	192	4
BRSI_	65	192	4	96	48	7
NMTAP	65	264	3
BRTAP	65	288	4
EXTAP	65	352	1
NMSTR	66	0	0
BRSI_	66	0	0	96	48	5
NMTAP	66	32	2
NMTAP	66	64	3
BRTAP	66	96	0
NMTAP	66	160	1
NMSTR	66	192	0
BRSI_	66	192	0	96	48	5
NMTAP	66	224	2
NMTAP	66	256	3
BRTAP	66	288	0
NMTAP	67	0	6
NMTAP	67	24	7
NMTAP	67	48	6
NMTAP	67	72	7
NMTAP	67	96	0
NMTAP	67	96	5
NMTAP	67	144	2
NMTAP	67	144	3
NMTAP	67	192	4
NMTAP	67	192	5
NMTAP	67	240	0
NMTAP	67	240	7
BRTAP	67	288	2
BRSTR	67	288	6
NMSI_	67	288	6	96	48	2
NMSTR	68	0	1
BRSI_	68	0	1	96	48	6
NMTAP	68	48	0
NMTAP	68	96	1
NMSTR	68	96	5
NMSI_	68	96	5	96	48	0
NMTAP	68	144	4
NMSTR	68	192	2
BRSI_	68	192	2	96	48	5
NMTAP	68	192	5
NMTAP	68	240	3
NMTAP	68	288	2
NMSTR	68	288	7
NMSI_	68	288	7	96	48	3
NMTAP	68	336	6
NMSTR	69	0	1
BRSI_	69	0	1	96	48	6
NMTAP	69	0	7
NMTAP	69	48	2
NMTAP	69	96	1
NMSTR	69	96	4
NMSF_	69	96	4	96	48	0
NMTAP	69	144	5
NMTAP	69	192	4
BRTAP	69	288	2
BRTAP	69	288	6
NMTAP	69	352	1
NMSTR	70	0	7
NMSSL	70	0	7	96	96	3
NMTAP	70	32	0
NMTAP	70	64	6
NMTAP	70	96	7
NMTAP	70	192	4
NMTAP	70	224	4
NMTAP	70	256	4
NMTAP	70	288	3
NMTAP	70	288	5
NMSTR	71	0	6
NMSI_	71	0	6	96	48	2
NMSTR	71	0	7
NMSI_	71	0	7	96	48	3
NMTAP	71	48	0
NMTAP	71	48	5
NMSTR	71	96	6
BRSCR	71	96	6	96	96	5
NMTAP	71	96	7
NMTAP	71	192	6
BRSTR	71	288	1
BRSI_	71	288	1	96	48	5
NMTAP	72	0	1
NMSTR	72	0	7
NMSI_	72	0	7	96	48	3
NMTAP	72	48	6
NMSTR	72	96	1
BRSI_	72	96	1	96	48	4
NMTAP	72	96	7
NMTAP	72	144	0
NMTAP	72	192	1
NMSTR	72	192	6
NMSI_	72	192	6	96	48	1
NMTAP	72	240	5
NMSTR	72	288	3
BRSI_	72	288	3	96	48	6
NMTAP	72	288	6
NMTAP	72	336	2
NMTAP	73	0	3
NMSTR	73	0	5
NMSI_	73	0	5	96	48	0
NMTAP	73	48	4
NMSTR	73	96	2
BRSXR	73	96	2	96	144	7
NMTAP	73	96	5
NMTAP	73	144	3
NMTAP	73	192	2
NMSTR	73	192	6
NMSI_	73	192	6	96	48	3
BRTAP	73	288	6
NMTAP	74	0	0
NMTAP	74	0	6
NMTAP	74	48	1
NMTAP	74	72	1
NMTAP	74	96	0
NMTAP	74	144	2
NMTAP	74	144	3
NMTAP	74	192	4
NMTAP	74	192	5
NMTAP	74	240	0
NMTAP	74	288	2
NMTAP	74	288	3
BRTAP	74	336	7
BRSTR	75	0	7
BRSI_	75	0	7	96	48	5
NMSTR	75	48	7
BRSI_	75	48	7	96	48	1
EXSTR	75	96	7
NMSI_	75	96	7	96	48	4
EXSTR	75	144	7
NMSI_	75	144	7	96	48	2
EXSTR	75	192	7
BRSI_	75	192	7	96	48	3
EXTAP	75	240	7
BXTAP	75	288	7
EXSTR	76	0	1
BRSI_	76	0	1	96	48	4
NMTAP	76	0	7
NMTAP	76	48	2
NMTAP	76	96	1
NMSTR	76	96	5
NMSI_	76	96	5	96	48	0
NMTAP	76	144	6
NMSTR	76	192	2
BRSI_	76	192	2	96	48	7
NMTAP	76	192	5
NMTAP	76	240	3
NMTAP	76	288	2
NMSTR	76	288	6
NMSI_	76	288	6	96	48	1
NMTAP	76	336	5
NMSTR	77	0	3
BRSI_	77	0	3	96	48	7
NMTAP	77	0	6
NMTAP	77	48	2
NMTAP	77	96	3
NMSTR	77	96	4
NMSXL	77	96	4	96	144	0
NMTAP	77	144	5
NMSTR	77	192	1
BRSV_	77	192	1	96	48	3
NMTAP	77	192	4
BRTAP	77	288	1
NMTTP	77	312	0	C	1	M1
NMTAP	78	0	7
NMTAP	78	32	0
NMTAP	78	64	6
NMTAP	78	96	1
NMTAP	78	96	5
NMTAP	78	160	3
NMTAP	78	192	3
NMTAP	78	224	4
NMTAP	78	256	2
NMTAP	78	288	1
NMTAP	78	288	5
NMSTR	79	0	6
NMSCR	79	0	6	96	48	1
NMSTR	79	48	1
NMSCL	79	48	1	96	96	3
NMSTR	79	96	6
BRSCL	79	96	6	96	96	0
NMTTP	79	192	0	C	1	M1
CNSCL	79	288	0	0	48	5
BRSTR	80	0	0
NMSXL	80	0	0	96	384	4
EXTAP	81	192	7
NMTAP	81	240	2
NMTAP	81	256	4
NMTAP	81	272	3
NMTAP	81	288	5
EXTAP	81	336	2
EXTAP	81	336	6

T_REC_TAP	426
T_REC_BRK	20
T_REC_XTP	31
T_REC_BXX	11
T_REC_HLD	41
T_REC_XHO	1
T_REC_BHO	6
T_REC_BXH	2
T_REC_STR	71
T_REC_BST	12
T_REC_XST	8
T_REC_XBS	4
T_REC_TTP	113
T_REC_THO	0
T_REC_SLD	71
T_REC_BSL	26
T_REC_ALL	843
T_NUM_TAP	649
T_NUM_BRK	81
T_NUM_HLD	42
T_NUM_SLD	71
T_NUM_ALL	843
T_JUDGE_TAP	696
T_JUDGE_HLD	113
T_JUDGE_SLD	97
T_JUDGE_ALL	906
TTM_EACHPAIRS	142
TTM_SCR_TAP	324500
TTM_SCR_BRK	210600
TTM_SCR_HLD	42000
TTM_SCR_SLD	106500
TTM_SCR_ALL	683600
TTM_SCR_S	655250
TTM_SCR_SS	675500
TTM_RAT_ACV	10119

