VERSION	0.00.00	1.04.00
FES_MODE	0
BPM_DEF	128.000	128.000	128.000	128.000
MET_DEF	4	4
RESOLUTION	384
CLK_DEF	384
COMPATIBLE_CODE	MA2

BPM	0	0	128.000
MET	0	0	4	4

NMTAP	1	192	0
NMTAP	1	192	7
NMTAP	1	288	3
NMTAP	1	288	4
NMTAP	2	0	2
NMSTR	2	0	5
NMSCL	2	0	5	96	144	0
NMTAP	2	96	3
EXHLD	2	336	2	48
EXHLD	2	336	4	48
EXHLD	3	48	3	48
EXHLD	3	48	5	48
NMTAP	3	144	2
NMTAP	3	144	4
NMTAP	3	192	2
NMHLD	3	192	4	96
NMTAP	3	288	3
NMTAP	4	0	2
NMSTR	4	0	5
NMSCL	4	0	5	96	144	0
NMTAP	4	96	3
NMTAP	5	0	2
NMTAP	5	48	2
NMTAP	5	96	5
NMTAP	5	144	5
NMTAP	5	192	3
NMTAP	5	192	4
NMTAP	5	240	3
NMTAP	5	240	4
NMTAP	5	288	2
NMTAP	5	288	5
BXSTR	6	0	7
NMSI_	6	0	7	96	48	4
NMTAP	6	96	3
BXSTR	6	192	2
NMSCR	6	192	2	96	48	5
NMTAP	6	288	6
BXSTR	7	0	4
BRSXL	7	0	4	96	96	4
BRSXR	7	0	4	96	96	4
NMTAP	7	288	3
NMTAP	7	288	5
NMSTR	8	0	2
NMSCR	8	0	2	96	144	7
NMTAP	8	96	4
NMTAP	9	0	3
NMTAP	9	48	3
NMTAP	9	96	4
NMTAP	9	144	4
EXTAP	9	192	2
EXTAP	9	240	2
EXTAP	9	288	5
NMHLD	10	0	3	48
NMHLD	10	0	5	48
NMHLD	10	96	2	48
NMHLD	10	96	4	48
NMHLD	10	192	3	48
NMHLD	10	192	5	48
NMHLD	10	288	2	48
NMHLD	10	288	4	48
NMTTP	11	0	5	B	0	M1
NMTTP	11	0	5	E	0	M1
NMTTP	11	48	1	B	0	M1
NMTTP	11	48	2	B	0	M1
NMTTP	11	96	6	B	0	M1
NMTTP	11	96	7	E	0	M1
NMSTR	11	192	0
NMSI_	11	192	0	96	48	4
BRTAP	11	288	5
NMTAP	12	0	6
NMTAP	12	48	6
NMTAP	12	96	4
NMTAP	12	144	4
NMTAP	12	192	3
NMTAP	12	192	5
NMTAP	12	240	2
NMTAP	12	240	6
NMTAP	12	288	2
NMTAP	12	288	6
NMTAP	13	0	1
NMTAP	13	48	1
NMTAP	13	96	2
NMSTR	13	96	3
NMSCR	13	96	3	96	48	6
NMTAP	13	192	0
NMTAP	13	240	0
EXTAP	13	288	0
NMHLD	14	0	1	48
NMHLD	14	0	7	48
NMHLD	14	96	0	48
NMHLD	14	96	6	48
NMTAP	14	192	1
NMTAP	14	192	5
NMTAP	14	240	1
NMTAP	14	240	5
NMTAP	14	288	1
NMTAP	14	288	5
NMHLD	15	0	0	48
NMHLD	15	0	6	48
NMHLD	15	96	1	48
NMHLD	15	96	7	48
NMTAP	15	192	2
NMTAP	15	192	6
NMTAP	15	240	2
NMTAP	15	240	6
NMTAP	15	288	2
NMTAP	15	288	6
NMTAP	16	0	1
NMTAP	16	48	1
NMTAP	16	96	3
NMTAP	16	144	3
NMTAP	16	192	2
NMTAP	16	192	4
NMTAP	16	240	1
NMTAP	16	240	5
NMTAP	16	288	1
NMTAP	16	288	5
NMSTR	17	0	6
NMSI_	17	0	6	96	48	2
NMTAP	17	48	6
NMSTR	17	96	0
NMSI_	17	96	0	96	48	4
NMTAP	17	144	0
NMTAP	17	192	7
NMTAP	17	240	7
EXTAP	17	288	7
NMHLD	18	0	3	48
NMHLD	18	0	5	48
NMHLD	18	96	2	48
NMHLD	18	96	4	48
NMHLD	18	192	3	48
NMHLD	18	192	5	48
NMHLD	18	288	2	48
NMHLD	18	288	4	48
NMSTR	19	0	1
NMSI_	19	0	1	96	48	6
NMSTR	19	0	5
NMSI_	19	0	5	96	48	2
EXTAP	19	192	6
EXTAP	19	192	7
EXTAP	19	240	6
EXTAP	19	240	7
EXTAP	19	288	6
EXTAP	19	288	7
NMTAP	20	0	3
NMTAP	20	0	6
NMTAP	20	48	2
NMTAP	20	48	5
NMSTR	20	96	1
NMSCR	20	96	1	96	48	4
NMSTR	20	96	4
NMSCR	20	96	4	96	48	7
EXTAP	20	288	4
EXTAP	20	288	7
NMTAP	21	0	3
NMTAP	21	0	6
NMTAP	21	48	2
NMTAP	21	48	5
NMSTR	21	96	1
NMSCR	21	96	1	96	48	4
NMSTR	21	96	4
NMSCR	21	96	4	96	48	7
EXTAP	21	288	4
EXTAP	21	288	7
NMSTR	22	0	3
NMSI_	22	0	3	96	48	0
NMTAP	22	96	5
NMSTR	22	192	0
NMSI_	22	192	0	96	48	3
NMSTR	22	192	6
NMSI_	22	192	6	96	48	3
NMTAP	23	0	3
NMTAP	23	48	4
NMTAP	23	96	5
NMTAP	23	144	6
NMTAP	23	192	1
NMTAP	23	192	7
NMTAP	23	240	1
NMTAP	23	240	7
NMTAP	23	288	2
NMTAP	23	288	6
NMTAP	24	0	3
NMTAP	24	0	5
NMTAP	24	96	0
NMTAP	24	96	6
NMTAP	24	144	1
NMTAP	24	192	2
NMTAP	24	192	3
NMTAP	24	288	0
NMTAP	24	288	7
NMTAP	24	336	6
NMTAP	25	0	4
NMTAP	25	0	5
NMTAP	25	96	0
NMTAP	25	96	7
NMTAP	25	144	1
NMTAP	25	192	2
NMTAP	25	192	5
NMSTR	25	288	3
NMSI_	25	288	3	96	48	0
NMSTR	25	288	4
NMSI_	25	288	4	96	48	7
EXHLD	26	96	0	192
EXTAP	26	96	7
NMTAP	26	288	7
NMTAP	27	0	3
NMTAP	27	0	4
NMTAP	27	48	3
NMTAP	27	48	4
NMTAP	27	96	2
NMTAP	27	96	5
NMSTR	27	192	0
NMSV_	27	192	0	96	48	3
NMSTR	27	192	7
NMSI_	27	192	7	96	48	4
NMSTR	28	0	7
NMSCL	28	0	7	96	144	0
BRTAP	28	96	0
EXHLD	28	336	0	48
EXHLD	28	336	6	48
EXHLD	29	48	1	48
EXHLD	29	48	7	48
NMTAP	29	144	0
NMTAP	29	144	6
NMHLD	29	192	0	96
NMTAP	29	192	6
NMTAP	29	288	7
NMSTR	30	0	1
NMSCL	30	0	1	96	144	4
NMTAP	30	0	6
NMTAP	30	96	7
NMTAP	31	0	6
NMTAP	31	48	6
NMTAP	31	96	1
NMTAP	31	144	1
NMTAP	31	192	0
NMTAP	31	192	7
NMTAP	31	240	0
NMTAP	31	240	7
NMTAP	31	288	1
NMTAP	31	288	6
BXSTR	32	0	0
NMSI_	32	0	0	96	48	3
NMTAP	32	96	4
BXSTR	32	192	5
NMSCL	32	192	5	96	48	2
NMTAP	32	288	1
BXSTR	33	0	3
BRSXL	33	0	3	96	96	3
BRSXR	33	0	3	96	96	3
NMTAP	33	288	1
NMTAP	33	288	7
NMSTR	34	0	6
NMSCR	34	0	6	96	144	3
NMTAP	34	96	0
NMTAP	35	0	7
NMTAP	35	48	7
NMTAP	35	96	0
NMTAP	35	144	0
EXTAP	35	192	6
EXTAP	35	240	6
EXTAP	35	288	1
EXTAP	35	336	1
NMHLD	36	0	2	48
NMHLD	36	0	4	48
NMHLD	36	96	3	48
NMHLD	36	96	5	48
NMHLD	36	192	2	48
NMHLD	36	192	4	48
NMHLD	36	288	3	48
NMHLD	36	288	5	48
NMHLD	37	0	1	48
NMHLD	37	0	4	48
NMHLD	37	96	3	48
NMHLD	37	96	6	48
NMHLD	37	192	1	48
NMHLD	37	192	4	48
NMHLD	37	288	3	48
NMHLD	37	288	6	48
EXTAP	38	0	2
EXTAP	38	0	4
NMTAP	38	48	5
EXTAP	38	96	3
EXTAP	38	96	6
NMTAP	38	144	2
EXTAP	38	192	1
EXTAP	38	192	4
NMTAP	38	240	5
EXTAP	38	288	2
EXTAP	38	288	6
BXTAP	38	336	1
EXTAP	39	0	0
EXTAP	39	0	7
EXTAP	39	32	0
EXTAP	39	32	7
EXTAP	39	64	0
EXTAP	39	64	7
EXSTR	39	96	0
NMSI_	39	96	0	96	48	4
EXSTR	39	96	7
NMSI_	39	96	7	96	48	3
BRTAP	39	288	2
BRTAP	39	288	5
NMTAP	40	0	2
NMTAP	40	0	6
NMTAP	40	48	2
NMTAP	40	48	6
NMSTR	40	96	1
NMSCR	40	96	1	96	96	4
NMSTR	40	96	5
NMSCR	40	96	5	96	96	0
NMTAP	40	144	1
NMTAP	40	144	5
NMTAP	41	0	2
NMTAP	41	0	6
NMTAP	41	48	2
NMTAP	41	48	6
NMSTR	41	96	1
NMSCR	41	96	1	96	96	4
NMSTR	41	96	5
NMSCR	41	96	5	96	96	0
NMTAP	41	144	1
NMTAP	41	144	5
NMSTR	42	0	0
NMSI_	42	0	0	96	48	4
NMSTR	42	0	1
NMSI_	42	0	1	96	48	3
EXTAP	42	96	0
EXTAP	42	96	1
NMSTR	42	192	6
NMSI_	42	192	6	96	48	4
NMSTR	42	192	7
NMSI_	42	192	7	96	48	3
EXTAP	42	288	6
EXTAP	42	288	7
NMTAP	43	0	2
NMTAP	43	48	1
NMTAP	43	96	0
NMTAP	43	96	7
NMTAP	43	144	6
NMTAP	43	192	4
NMTAP	43	192	5
NMTAP	43	240	3
NMTAP	43	288	2
NMTAP	43	288	4
NMTAP	44	0	1
NMTAP	44	0	5
NMTAP	44	48	1
NMTAP	44	48	5
NMSTR	44	96	2
NMSCL	44	96	2	96	96	7
NMSTR	44	96	6
NMSCL	44	96	6	96	96	3
NMTAP	44	144	2
NMTAP	44	144	6
NMTAP	45	0	1
NMTAP	45	0	5
NMTAP	45	48	1
NMTAP	45	48	5
NMSTR	45	96	2
NMSCL	45	96	2	96	96	7
NMSTR	45	96	6
NMSCL	45	96	6	96	96	3
NMTAP	45	144	2
NMTAP	45	144	6
NMSTR	46	0	0
NMSI_	46	0	0	96	48	4
NMSTR	46	0	1
NMSI_	46	0	1	96	48	3
EXTAP	46	96	0
EXTAP	46	96	1
NMSTR	46	192	6
NMSI_	46	192	6	96	48	4
NMSTR	46	192	7
NMSI_	46	192	7	96	48	3
EXTAP	46	288	6
EXTAP	46	288	7
NMTHO	47	0	0	192	C	1	M1
NMTTP	47	192	1	B	0	M1
NMTTP	47	192	2	B	0	M1
NMTTP	47	192	5	B	0	M1
NMTTP	47	192	6	B	0	M1
BRTAP	48	0	0
BRTAP	48	0	7
NMTAP	48	96	4
NMTAP	48	144	6
NMTAP	48	192	4
NMTAP	48	240	2
NMTAP	48	288	7
NMTAP	48	336	7
NMTAP	49	0	1
NMTAP	49	48	1
NMTAP	49	96	4
NMTAP	49	144	6
NMTAP	49	192	4
NMTAP	49	240	2
NMTAP	49	288	1
NMTAP	49	288	4
BRTAP	50	0	0
NMTAP	50	48	0
NMTAP	50	96	6
NMTAP	50	144	6
NMTAP	50	192	3
NMTAP	50	240	1
NMTAP	50	288	3
NMTAP	50	336	5
NMTAP	51	0	0
NMTAP	51	48	0
NMTAP	51	96	6
NMTAP	51	144	6
NMTAP	51	192	3
NMTAP	51	240	1
NMTAP	51	288	3
BRTAP	52	0	0
BRTAP	52	0	5
NMTAP	52	96	2
NMTAP	52	144	3
NMTAP	52	192	4
BXHLD	52	240	5	72
BXHLD	52	312	6	72
BXTAP	53	0	7
NMTAP	53	96	3
NMTAP	53	144	3
NMTAP	53	192	4
BXHLD	53	240	5	72
BXHLD	53	312	6	72
BXTAP	54	0	7
NMTAP	54	96	0
NMTAP	54	144	0
NMTAP	54	192	1
BXHLD	54	240	1	72
BXHLD	54	312	2	72
BXTAP	55	0	3
NMTAP	55	96	4
NMTAP	55	144	4
NMTAP	55	192	3
NMTAP	55	288	1
NMTAP	55	288	6
NMTTP	56	0	2	B	0	M1
NMTTP	56	0	2	A	0	M1
NMTTP	56	0	3	B	0	M1
NMTTP	56	96	4	B	0	M1
NMTTP	56	96	5	B	0	M1
NMTTP	56	96	5	A	0	M1
NMTTP	56	192	0	B	0	M1
NMTTP	56	192	1	E	0	M1
NMTTP	56	192	1	A	0	M1
NMTTP	56	288	6	A	0	M1
NMTTP	56	288	7	B	0	M1
NMTTP	56	288	7	E	0	M1
NMTTP	57	0	2	B	0	M1
NMTTP	57	0	2	A	0	M1
NMTTP	57	0	3	B	0	M1
NMTTP	57	96	4	B	0	M1
NMTTP	57	96	5	B	0	M1
NMTTP	57	96	5	A	0	M1
NMTTP	57	192	0	B	0	M1
NMTTP	57	192	1	E	0	M1
NMTTP	57	192	1	A	0	M1
NMTTP	57	288	6	A	0	M1
NMTTP	57	288	7	B	0	M1
NMTTP	57	288	7	E	0	M1
NMTTP	58	0	2	B	0	M1
NMTTP	58	0	2	A	0	M1
NMTTP	58	0	3	B	0	M1
NMTTP	58	0	3	E	0	M1
NMTTP	58	96	4	B	0	M1
NMTTP	58	96	5	B	0	M1
NMTTP	58	96	5	E	0	M1
NMTTP	58	96	5	A	0	M1
NMTTP	58	192	0	B	0	M1
NMTTP	58	192	1	B	0	M1
NMTTP	58	192	1	E	0	M1
NMTTP	58	192	1	A	0	M1
NMTTP	58	288	6	B	0	M1
NMTTP	58	288	6	A	0	M1
NMTTP	58	288	7	B	0	M1
NMTTP	58	288	7	E	0	M1
NMTTP	59	0	2	B	0	M1
NMTTP	59	0	2	A	0	M1
NMTTP	59	0	3	B	0	M1
NMTTP	59	0	3	E	0	M1
NMTTP	59	96	4	B	0	M1
NMTTP	59	96	5	B	0	M1
NMTTP	59	96	5	E	0	M1
NMTTP	59	96	5	A	0	M1
NMTTP	59	192	0	B	0	M1
NMTTP	59	192	1	B	0	M1
NMTTP	59	192	1	E	0	M1
NMTTP	59	192	1	A	0	M1
NMTTP	59	288	6	B	0	M1
NMTTP	59	288	6	A	0	M1
NMTTP	59	288	7	B	0	M1
NMTTP	59	288	7	E	0	M1
EXTAP	60	0	2
EXTAP	60	48	2
NMTAP	60	96	5
NMTAP	60	144	5
NMTAP	60	192	3
NMTAP	60	240	3
NMTAP	60	288	4
NMTAP	60	336	4
NMTAP	61	0	1
NMTAP	61	48	1
NMTAP	61	96	5
NMTAP	61	144	5
NMTAP	61	192	3
NMTAP	61	240	3
NMTAP	61	288	6
NMTAP	61	336	6
NMTAP	62	0	0
NMTAP	62	24	7
NMTAP	62	48	0
NMTAP	62	72	7
NMTAP	62	96	0
NMTAP	62	120	7
NMTAP	62	144	0
NMTAP	62	168	7
NMTAP	62	192	1
NMTAP	62	216	6
NMTAP	62	240	1
NMTAP	62	264	6
NMTAP	62	288	1
NMTAP	62	312	6
NMTAP	62	336	1
NMTAP	62	360	6
NMTAP	63	0	0
NMTAP	63	24	7
NMTAP	63	48	0
NMTAP	63	72	7
NMTAP	63	96	0
NMTAP	63	120	7
NMTAP	63	144	0
NMTAP	63	168	7
NMSTR	63	192	0
NMSI_	63	192	0	96	48	4
EXTAP	63	288	0
BRTAP	64	0	7
NMHLD	64	240	2	96
NMHLD	64	240	4	96
NMTAP	65	0	2
NMTAP	65	0	4
NMTAP	65	96	3
NMTAP	65	96	5
NMTAP	65	144	3
NMTAP	65	144	5
NMSTR	65	192	3
NMSI_	65	192	3	96	48	0
NMSTR	65	192	5
NMSI_	65	192	5	96	48	0
NMSTR	66	0	0
NMSI_	66	0	0	96	48	5
NMSTR	66	0	1
NMSI_	66	0	1	96	48	4
EXTAP	66	96	0
EXTAP	66	96	1
NMSTR	66	192	6
NMSI_	66	192	6	96	48	3
NMSTR	66	192	7
NMSI_	66	192	7	96	48	2
EXTAP	66	288	6
EXTAP	66	288	7
NMTAP	67	0	2
NMTAP	67	48	1
NMTAP	67	96	0
NMTAP	67	96	7
NMTAP	67	144	6
NMTAP	67	192	4
NMTAP	67	192	5
NMTAP	67	240	3
NMTAP	67	288	2
NMTAP	67	288	4
NMTAP	68	0	1
NMTAP	68	0	5
NMTAP	68	48	1
NMTAP	68	48	5
NMSTR	68	96	2
NMSCL	68	96	2	96	96	7
NMSTR	68	96	6
NMSCL	68	96	6	96	96	3
NMTAP	68	144	2
NMTAP	68	144	6
NMTAP	69	0	1
NMTAP	69	0	5
NMTAP	69	48	1
NMTAP	69	48	5
NMSTR	69	96	2
NMSCL	69	96	2	96	96	7
NMSTR	69	96	6
NMSCL	69	96	6	96	96	3
NMTAP	69	144	2
NMTAP	69	144	6
NMSTR	70	0	0
NMSI_	70	0	0	96	48	5
NMSTR	70	0	1
NMSI_	70	0	1	96	48	4
EXTAP	70	96	0
EXTAP	70	96	1
NMSTR	70	192	6
NMSI_	70	192	6	96	48	3
NMSTR	70	192	7
NMSI_	70	192	7	96	48	2
EXTAP	70	288	6
EXTAP	70	288	7
NMTAP	71	0	1
NMTAP	71	48	1
NMSTR	71	96	0
NMSI_	71	96	0	96	48	3
NMSTR	71	96	7
NMSI_	71	96	7	96	48	4
EXTAP	71	192	0
EXTAP	71	192	7
BRTAP	71	288	1
BRTAP	71	288	6
NMTAP	72	0	3
NMTAP	72	0	7
NMTAP	72	48	3
NMTAP	72	48	7
NMSTR	72	96	2
NMSCR	72	96	2	96	96	5
NMSTR	72	96	6
NMSCR	72	96	6	96	96	1
NMTAP	72	144	2
NMTAP	72	144	6
NMTAP	73	0	3
NMTAP	73	0	7
NMTAP	73	48	3
NMTAP	73	48	7
NMSTR	73	96	2
NMSCR	73	96	2	96	96	5
NMSTR	73	96	6
NMSCR	73	96	6	96	96	1
NMTAP	73	144	2
NMTAP	73	144	6
NMSTR	74	0	7
NMSI_	74	0	7	96	48	3
NMTAP	74	48	7
NMSTR	74	96	0
NMSI_	74	96	0	96	48	2
NMTAP	74	144	0
NMSTR	74	192	6
NMSI_	74	192	6	96	48	4
NMTAP	74	240	6
NMTAP	74	288	1
NMTAP	74	336	1
NMTAP	75	0	2
NMTAP	75	0	3
EXTAP	75	96	1
EXTAP	75	96	4
EXTAP	75	144	2
EXTAP	75	144	5
EXTAP	75	192	3
EXTAP	75	192	6
EXTAP	75	240	2
EXTAP	75	240	5
EXTAP	75	288	1
EXTAP	75	288	4
NMTAP	76	0	0
NMTAP	76	0	4
NMTAP	76	48	0
NMTAP	76	48	4
NMSTR	76	96	1
NMSCL	76	96	1	96	96	6
NMSTR	76	96	5
NMSCL	76	96	5	96	96	2
NMTAP	76	144	1
NMTAP	76	144	5
NMTAP	77	0	0
NMTAP	77	0	4
NMTAP	77	48	0
NMTAP	77	48	4
NMSTR	77	96	1
NMSCL	77	96	1	96	96	6
NMSTR	77	96	5
NMSCL	77	96	5	96	96	2
NMTAP	77	144	1
NMTAP	77	144	5
NMSTR	78	0	4
NMSI_	78	0	4	96	48	1
NMSTR	78	0	5
NMSI_	78	0	5	96	48	0
EXTAP	78	96	4
EXTAP	78	96	5
NMSTR	78	192	2
NMSI_	78	192	2	96	48	7
NMSTR	78	192	3
NMSI_	78	192	3	96	48	6
EXTAP	78	288	2
EXTAP	78	288	3
NMTHO	79	0	0	192	C	1	M1
NMTTP	79	192	2	B	0	M1
NMTTP	79	192	3	B	0	M1
NMTTP	79	192	4	B	0	M1
NMTTP	79	192	5	B	0	M1
NMTAP	80	0	0
NMHLD	80	48	1	96
NMTAP	80	144	0
NMTAP	80	192	7
NMHLD	80	240	6	96
NMTAP	80	336	7
NMTAP	81	0	0
NMHLD	81	48	1	96
NMTAP	81	144	0
NMSTR	81	192	7
NMSI_	81	192	7	96	48	3
BRTAP	81	288	0
EXTAP	81	288	7

T_REC_TAP	324
T_REC_BRK	13
T_REC_XTP	70
T_REC_BXX	4
T_REC_HLD	47
T_REC_XHO	9
T_REC_BHO	0
T_REC_BXH	6
T_REC_STR	72
T_REC_BST	0
T_REC_XST	2
T_REC_XBS	6
T_REC_TTP	70
T_REC_THO	2
T_REC_SLD	78
T_REC_BSL	4
T_REC_ALL	707
T_NUM_TAP	538
T_NUM_BRK	33
T_NUM_HLD	58
T_NUM_SLD	78
T_NUM_ALL	707
T_JUDGE_TAP	561
T_JUDGE_HLD	86
T_JUDGE_SLD	82
T_JUDGE_ALL	729
TTM_EACHPAIRS	177
TTM_SCR_TAP	269000
TTM_SCR_BRK	85800
TTM_SCR_HLD	58000
TTM_SCR_SLD	117000
TTM_SCR_ALL	529800
TTM_SCR_S	510750
TTM_SCR_SS	526500
TTM_RAT_ACV	10062

