VERSION	0.00.00	1.04.00
FES_MODE	0
BPM_DEF	128.000	128.000	128.000	128.000
MET_DEF	4	4
RESOLUTION	384
CLK_DEF	384
COMPATIBLE_CODE	MA2

BPM	0	0	128.000
MET	0	0	4	4

NMTAP	2	0	2
NMHLD	2	0	5	384
NMTAP	2	192	7
NMHLD	3	0	2	384
NMTAP	3	192	0
NMHLD	4	0	5	384
NMTAP	4	192	7
NMHLD	5	0	2	384
NMTAP	5	192	0
EXTAP	6	0	5
NMTAP	6	96	3
NMTAP	6	96	6
EXTAP	6	192	2
EXTAP	6	192	5
NMTAP	6	288	1
NMTAP	6	288	4
EXTAP	7	0	2
EXTAP	7	0	5
NMTAP	7	96	2
NMTAP	7	96	5
EXTAP	7	192	0
EXTAP	7	192	7
NMTAP	7	288	0
NMTAP	7	288	7
NMTAP	8	0	1
NMTAP	8	96	2
NMTAP	8	96	3
NMTAP	8	192	6
NMTAP	8	288	4
NMTAP	8	288	5
NMTAP	9	0	1
NMTAP	9	96	2
NMTAP	9	96	3
NMTAP	9	192	6
NMTAP	9	288	4
NMTAP	9	288	5
NMHLD	10	0	2	96
NMHLD	10	96	0	96
NMHLD	10	192	7	96
NMSTR	10	288	5
NMSUL	10	288	5	96	192	3
NMTTP	11	0	0	C	0	M1
BRTAP	11	288	0
NMSTR	12	0	1
NMSI_	12	0	1	96	96	5
NMTAP	12	192	6
NMTAP	12	288	6
NMSTR	13	0	5
NMSI_	13	0	5	96	96	1
NMTAP	13	192	0
NMTAP	13	288	0
NMSTR	14	0	1
NMSCR	14	0	1	96	96	4
NMSTR	14	192	5
NMSCR	14	192	5	96	96	0
NMSTR	15	0	1
NMSCR	15	0	1	96	96	4
NMTAP	15	192	6
NMTAP	15	288	0
NMTAP	15	288	7
NMSTR	16	0	6
NMSI_	16	0	6	96	96	2
NMTAP	16	192	1
NMTAP	16	288	1
NMSTR	17	0	2
NMSI_	17	0	2	96	96	6
NMTAP	17	192	7
NMTAP	17	288	7
NMSTR	18	0	6
NMSI_	18	0	6	96	96	3
NMSTR	18	192	2
NMSI_	18	192	2	96	96	7
NMSTR	19	0	5
NMSI_	19	0	5	96	96	0
NMTAP	19	192	2
NMTAP	19	288	3
NMTAP	19	288	4
NMHLD	20	0	6	384
NMTAP	20	96	4
NMTAP	20	192	7
NMTAP	20	288	7
NMHLD	21	0	1	384
NMTAP	21	96	3
NMTAP	21	192	0
NMTAP	21	288	0
NMTAP	22	0	6
NMTAP	22	96	6
NMTAP	22	192	0
NMTAP	22	192	7
EXTAP	22	288	0
EXTAP	22	288	7
BXTAP	23	0	1
BXTAP	23	0	6
BXTAP	23	96	1
BXTAP	23	96	6
NMTAP	23	192	3
NMTAP	23	192	4
NMTAP	23	288	2
NMTAP	23	288	5
NMTAP	24	0	6
NMTAP	24	96	3
NMTAP	24	96	5
NMTAP	24	192	1
NMTAP	24	288	2
NMTAP	24	288	4
NMTAP	25	0	7
NMTAP	25	96	4
NMTAP	25	96	6
NMTAP	25	192	0
NMTAP	25	288	1
NMTAP	25	288	3
NMHLD	26	0	7	96
BRTAP	26	96	0
NMSTR	26	192	1
NMSI_	26	192	1	96	48	3
NMSTR	26	192	6
NMSI_	26	192	6	96	48	4
EXTAP	27	0	0
EXTAP	27	0	7
EXTAP	27	48	0
EXTAP	27	48	7
EXTAP	27	96	0
EXTAP	27	96	7
NMTAP	27	192	1
NMTAP	27	192	6
NMTAP	27	288	3
NMTAP	27	288	4
NMTAP	28	0	5
NMHLD	28	96	5	672
NMTAP	28	192	4
NMTAP	28	288	4
EXTAP	29	0	7
EXTAP	29	96	7
NMTAP	29	192	4
NMTAP	29	288	3
NMTAP	30	0	2
NMHLD	30	96	2	576
NMTAP	30	192	3
NMTAP	30	288	3
NMTAP	31	0	0
NMTAP	31	96	0
NMTAP	31	192	3
BXTAP	31	288	4
EXTAP	32	0	5
NMTAP	32	96	4
NMTAP	32	96	6
EXTAP	32	192	2
NMTAP	32	288	1
NMTAP	32	288	3
EXTAP	33	0	4
NMTAP	33	96	3
NMTAP	33	96	5
EXTAP	33	192	1
EXTAP	33	192	7
NMTAP	33	288	1
NMTAP	33	288	7
NMTAP	34	0	2
NMTAP	34	96	1
NMTAP	34	96	3
NMTAP	34	192	5
NMTAP	34	288	4
NMTAP	34	288	6
NMTAP	35	0	2
NMTAP	35	96	1
NMTAP	35	96	3
NMTAP	35	192	4
NMHLD	35	288	4	96
NMHLD	36	0	3	96
NMHLD	36	96	2	96
NMHLD	36	192	1	96
NMHLD	36	288	0	96
NMHLD	37	0	7	96
NMHLD	37	96	6	96
NMHLD	37	192	5	96
NMTAP	37	288	4
EXTAP	38	0	3
EXTAP	38	48	3
EXTAP	38	96	5
EXTAP	38	144	5
EXTAP	38	192	1
EXTAP	38	240	1
EXTAP	38	288	7
EXTAP	38	336	7
BXHLD	39	0	0	192
BRTAP	39	192	7
NMTAP	39	288	2
NMTAP	39	288	5
NMSTR	40	0	0
NMSI_	40	0	0	96	48	4
NMSTR	40	0	1
NMSI_	40	0	1	96	48	3
NMSTR	40	192	6
NMSI_	40	192	6	96	48	4
NMSTR	40	192	7
NMSI_	40	192	7	96	48	3
NMSTR	41	0	0
NMSI_	41	0	0	96	48	4
NMSTR	41	0	1
NMSI_	41	0	1	96	48	3
NMSTR	41	192	6
NMSI_	41	192	6	96	48	4
NMSTR	41	192	7
NMSI_	41	192	7	96	48	3
NMTAP	42	0	0
NMTAP	42	0	1
NMTAP	42	96	3
NMTAP	42	96	6
NMTAP	42	192	6
NMTAP	42	192	7
NMTAP	42	288	1
NMTAP	42	288	4
NMTAP	43	0	5
NMTAP	43	48	5
NMTAP	43	96	3
NMTAP	43	192	2
NMTAP	43	192	4
BRTAP	43	288	1
BRTAP	43	288	5
NMSTR	44	0	6
NMSI_	44	0	6	96	48	4
NMSTR	44	0	7
NMSI_	44	0	7	96	48	3
NMSTR	44	192	0
NMSI_	44	192	0	96	48	4
NMSTR	44	192	1
NMSI_	44	192	1	96	48	3
NMSTR	45	0	6
NMSI_	45	0	6	96	48	4
NMSTR	45	0	7
NMSI_	45	0	7	96	48	3
NMSTR	45	192	0
NMSI_	45	192	0	96	48	4
NMSTR	45	192	1
NMSI_	45	192	1	96	48	3
NMTAP	46	0	6
NMTAP	46	0	7
NMTAP	46	96	2
NMTAP	46	96	3
NMTAP	46	192	0
NMTAP	46	192	1
NMTAP	46	288	4
NMTAP	46	288	5
NMHLD	47	0	3	192
NMTTP	47	192	0	C	1	M1
EXTAP	48	0	0
EXTAP	48	0	7
NMTAP	48	96	6
NMTAP	48	144	6
NMTAP	48	192	4
NMTAP	48	288	3
NMTAP	48	288	5
NMTAP	49	0	2
NMTAP	49	48	2
NMTAP	49	96	4
NMTAP	49	192	1
NMTAP	49	192	3
NMTAP	49	288	4
NMTAP	49	288	6
NMSTR	50	0	7
NMSCL	50	0	7	96	48	4
NMSTR	50	192	3
NMSCL	50	192	3	96	48	0
NMSTR	51	0	7
NMSCL	51	0	7	96	48	4
NMSTR	51	192	3
NMSCL	51	192	3	96	48	0
EXTAP	52	0	7
NMHLD	52	96	1	96
NMTAP	52	192	3
NMTAP	52	240	1
NMTAP	52	240	3
NMTAP	52	312	3
NMTAP	52	312	4
NMTAP	53	0	4
NMTAP	53	0	6
NMHLD	53	96	6	96
EXTAP	53	192	4
EXTAP	53	240	4
EXTAP	53	240	6
EXTAP	53	312	3
EXTAP	53	312	4
EXTAP	54	0	1
NMSTR	54	0	3
NMSI_	54	0	3	96	48	7
NMSTR	54	192	0
NMSI_	54	192	0	96	48	4
NMSTR	55	0	7
NMSCL	55	0	7	96	48	4
BRTAP	55	192	0
NMTTP	56	0	6	B	0	M1
NMTTP	56	96	7	B	0	M1
NMTTP	56	192	0	B	0	M1
NMTTP	56	288	1	B	0	M1
NMTTP	57	0	2	B	0	M1
NMTTP	57	96	3	B	0	M1
NMTTP	57	192	4	B	0	M1
NMTTP	57	288	5	B	0	M1
NMTTP	58	0	6	A	0	M1
NMTTP	58	0	7	E	0	M1
NMTTP	58	96	0	E	0	M1
NMTTP	58	96	7	A	0	M1
NMTTP	58	192	0	A	0	M1
NMTTP	58	192	1	E	0	M1
NMTTP	58	288	1	A	0	M1
NMTTP	58	288	2	E	0	M1
NMTTP	59	0	2	A	0	M1
NMTTP	59	0	3	E	0	M1
NMTTP	59	96	3	A	0	M1
NMTTP	59	96	4	E	0	M1
NMTTP	59	192	4	A	0	M1
NMTTP	59	192	5	E	0	M1
NMTTP	59	288	5	A	0	M1
NMTTP	59	288	6	E	0	M1
NMTAP	60	0	0
NMTAP	60	48	0
NMTAP	60	96	0
NMTAP	60	144	0
NMTAP	60	192	6
NMTAP	60	240	6
NMTAP	60	288	6
NMTAP	60	336	6
NMTAP	61	0	1
NMTAP	61	48	1
NMTAP	61	96	1
NMTAP	61	144	1
NMTAP	61	192	7
NMTAP	61	240	7
NMTAP	61	288	7
NMTAP	61	336	7
NMTAP	62	0	0
NMTAP	62	48	0
NMTAP	62	96	1
NMTAP	62	144	1
NMTAP	62	192	2
NMTAP	62	240	2
NMTAP	62	288	3
NMTAP	62	336	3
NMTAP	63	0	4
NMTAP	63	48	4
NMTAP	63	96	5
NMTAP	63	144	5
NMTAP	63	192	6
NMTAP	63	240	6
NMHLD	63	288	7	96
NMTTP	64	0	0	C	1	M1
NMTAP	65	0	2
NMTAP	65	0	5
NMTAP	65	96	3
NMTAP	65	96	4
NMTAP	65	144	3
NMTAP	65	144	4
NMTAP	65	192	3
NMTAP	65	192	4
BXTAP	65	288	0
BXTAP	65	288	7
NMHLD	66	0	2	96
NMTAP	66	0	3
NMTAP	66	96	0
NMTAP	66	192	4
NMHLD	66	192	5	96
NMTAP	66	288	7
NMTAP	67	0	2
NMTAP	67	0	3
NMTAP	67	48	2
NMTAP	67	48	3
NMTAP	67	96	1
NMTAP	67	96	4
NMTAP	67	192	3
NMTAP	67	192	5
NMTAP	67	240	3
NMTAP	67	240	5
BRTAP	67	288	2
BRTAP	67	288	6
NMSTR	68	0	0
NMSI_	68	0	0	96	48	5
NMSTR	68	0	1
NMSI_	68	0	1	96	48	4
NMSTR	68	192	6
NMSI_	68	192	6	96	48	3
NMSTR	68	192	7
NMSI_	68	192	7	96	48	2
NMSTR	69	0	0
NMSI_	69	0	0	96	48	5
NMSTR	69	0	1
NMSI_	69	0	1	96	48	4
NMSTR	69	192	6
NMSI_	69	192	6	96	48	3
NMSTR	69	192	7
NMSI_	69	192	7	96	48	2
NMTAP	70	0	0
NMHLD	70	0	1	96
NMTAP	70	96	3
NMHLD	70	192	6	96
NMTAP	70	192	7
NMTAP	70	288	4
NMTAP	71	0	2
NMTAP	71	0	3
NMTAP	71	48	2
NMTAP	71	48	3
NMTAP	71	96	1
NMTAP	71	96	4
NMTAP	71	192	0
NMTAP	71	192	7
BXTAP	71	288	1
BXTAP	71	288	6
NMSTR	72	0	2
NMSI_	72	0	2	96	48	0
NMSTR	72	0	4
NMSI_	72	0	4	96	48	7
NMSTR	72	192	3
NMSI_	72	192	3	96	48	0
NMSTR	72	192	5
NMSI_	72	192	5	96	48	7
NMSTR	73	0	2
NMSI_	73	0	2	96	48	0
NMSTR	73	0	4
NMSI_	73	0	4	96	48	7
NMSTR	73	192	3
NMSI_	73	192	3	96	48	0
NMSTR	73	192	5
NMSI_	73	192	5	96	48	7
NMTAP	74	0	2
NMTAP	74	0	3
NMTAP	74	96	0
NMTAP	74	96	1
NMTAP	74	192	6
NMTAP	74	192	7
NMTAP	74	288	4
NMTAP	74	288	5
NMTAP	75	0	2
NMTAP	75	0	3
EXTAP	75	96	0
EXTAP	75	96	7
EXTAP	75	144	0
EXTAP	75	144	7
EXTAP	75	192	0
EXTAP	75	192	7
EXTAP	75	240	0
EXTAP	75	240	7
EXTAP	75	288	1
EXTAP	75	288	6
NMSTR	76	0	3
NMSI_	76	0	3	96	48	0
NMSTR	76	0	5
NMSI_	76	0	5	96	48	7
NMSTR	76	192	2
NMSI_	76	192	2	96	48	0
NMSTR	76	192	4
NMSI_	76	192	4	96	48	7
NMSTR	77	0	3
NMSI_	77	0	3	96	48	0
NMSTR	77	0	5
NMSI_	77	0	5	96	48	7
NMSTR	77	192	2
NMSI_	77	192	2	96	48	0
NMSTR	77	192	4
NMSI_	77	192	4	96	48	7
NMTAP	78	0	4
NMTAP	78	0	5
NMTAP	78	96	6
NMTAP	78	96	7
NMTAP	78	192	0
NMTAP	78	192	1
NMTAP	78	288	2
NMTAP	78	288	3
NMTAP	79	0	3
NMTAP	79	0	4
NMSTR	79	96	3
NMSI_	79	96	3	96	96	7
NMSTR	79	96	4
NMSI_	79	96	4	96	96	0
NMHLD	80	0	0	96
NMHLD	80	96	7	96
NMHLD	80	192	6	96
NMHLD	80	288	5	96
NMHLD	81	0	4	96
NMHLD	81	96	3	96
NMSTR	81	192	2
NMSI_	81	192	2	96	48	6

T_REC_TAP	225
T_REC_BRK	8
T_REC_XTP	49
T_REC_BXX	9
T_REC_HLD	34
T_REC_XHO	0
T_REC_BHO	0
T_REC_BXH	1
T_REC_STR	63
T_REC_BST	0
T_REC_XST	0
T_REC_XBS	0
T_REC_TTP	27
T_REC_THO	0
T_REC_SLD	63
T_REC_BSL	0
T_REC_ALL	479
T_NUM_TAP	364
T_NUM_BRK	18
T_NUM_HLD	34
T_NUM_SLD	63
T_NUM_ALL	479
T_JUDGE_TAP	381
T_JUDGE_HLD	132
T_JUDGE_SLD	63
T_JUDGE_ALL	576
TTM_EACHPAIRS	115
TTM_SCR_TAP	182000
TTM_SCR_BRK	46800
TTM_SCR_HLD	34000
TTM_SCR_SLD	94500
TTM_SCR_ALL	357300
TTM_SCR_S	344850
TTM_SCR_SS	355500
TTM_RAT_ACV	10050

