VERSION	0.00.00	1.04.00
FES_MODE	0
BPM_DEF	188.000	188.000	188.000	188.000
MET_DEF	4	4
RESOLUTION	384
CLK_DEF	384
COMPATIBLE_CODE	MA2

BPM	0	0	188.000
MET	0	0	4	4

NMHLD	1	0	1	672
NMSTR	1	0	6
NMSLL	1	0	6	96	192	0
CNSI_	1	288	0	0	288	2
NMHLD	3	0	3	672
NMSTR	3	0	4
NMSLL	3	0	4	96	192	6
CNSI_	3	288	6	0	288	0
NMSTR	5	0	1
NMSLL	5	0	1	96	192	3
NMHLD	5	0	6	672
CNSI_	5	288	3	0	288	5
NMHLD	7	0	3	288
NMSTR	7	0	4
NMSLL	7	0	4	96	192	7
NMTAP	8	0	2
NMTAP	8	48	2
NMTAP	8	96	1
NMTAP	8	96	4
NMTAP	8	144	5
NMTAP	8	192	5
NMTAP	8	240	3
NMTAP	8	240	6
NMTAP	8	336	3
NMTAP	8	360	4
NMHLD	9	0	1	72
NMTAP	9	72	2
NMTAP	9	144	3
NMTAP	9	144	4
NMHLD	9	192	6	72
NMTAP	9	264	5
NMTAP	9	336	3
NMTAP	9	336	4
NMHLD	10	0	1	72
NMTAP	10	72	2
NMTAP	10	144	2
NMTAP	10	144	4
NMSTR	10	192	2
NMSI_	10	192	2	96	48	7
NMHLD	10	192	4	96
NMHLD	11	0	6	72
NMTAP	11	72	5
NMTAP	11	144	3
NMTAP	11	144	4
NMHLD	11	192	1	72
NMTAP	11	264	2
NMTAP	11	336	3
NMTAP	11	336	4
NMHLD	12	0	5	72
NMTAP	12	72	6
BXSTR	12	144	7
NMSI_	12	144	7	96	48	4
EXSTR	12	192	0
NMSI_	12	192	0	96	48	3
NMHLD	13	0	6	72
NMTAP	13	72	5
NMTAP	13	144	3
NMTAP	13	144	4
NMHLD	13	192	1	72
NMTAP	13	264	2
NMTAP	13	336	3
NMTAP	13	336	4
NMHLD	14	0	6	72
NMTAP	14	72	5
NMTAP	14	144	3
NMTAP	14	144	4
NMSTR	14	192	3
NMSCL	14	192	3	96	48	1
NMSTR	14	192	4
NMSCR	14	192	4	96	48	6
NMSTR	15	0	2
NMSLR	15	0	2	96	144	0
NMHLD	15	0	4	240
NMTAP	15	288	1
NMTAP	15	288	7
NMTAP	16	0	1
NMTAP	16	0	3
NMTAP	16	48	2
NMTAP	16	96	4
NMTAP	16	96	6
NMTAP	16	144	5
NMTAP	16	192	2
NMTAP	16	192	3
NMTAP	16	240	1
NMTAP	16	288	0
NMTAP	16	288	7
NMHLD	17	0	5	576
NMTTP	17	192	6	B	0	M1
NMTTP	18	0	0	B	0	M1
NMTTP	18	192	2	B	0	M1
NMTTP	19	0	0	B	0	M1
NMTTP	19	0	0	E	0	M1
NMTTP	19	0	1	E	0	M1
NMTTP	19	0	7	B	0	M1
NMTTP	19	0	7	E	0	M1
NMTTP	19	192	0	C	0	M1
NMTTP	19	192	1	B	0	M1
NMTTP	19	192	2	B	0	M1
NMTTP	19	192	5	B	0	M1
NMTTP	19	192	6	B	0	M1
NMTTP	20	0	2	B	0	M1
NMTTP	20	0	3	B	0	M1
NMTTP	20	0	3	E	0	M1
NMTTP	20	0	4	B	0	M1
NMTTP	20	0	4	E	0	M1
NMTTP	20	0	5	B	0	M1
NMTTP	20	0	5	E	0	M1
EXTAP	20	192	0
EXTAP	20	216	1
EXTAP	20	240	2
EXTAP	20	264	3
EXTAP	20	288	4
EXTAP	20	312	5
EXTAP	20	336	6
EXTAP	20	360	7
EXTAP	21	0	0
EXTAP	21	0	4
NMTAP	21	96	4
NMTAP	21	96	5
NMTAP	21	144	3
NMTAP	21	192	4
NMTAP	21	192	5
NMTAP	21	240	6
NMTAP	21	288	4
NMTAP	21	288	5
NMTAP	21	336	3
NMTAP	22	0	2
NMTAP	22	0	3
NMTAP	22	48	1
NMTAP	22	96	2
NMTAP	22	96	3
NMTAP	22	144	4
NMTAP	22	192	2
NMTAP	22	192	3
NMTAP	22	240	1
NMTAP	22	288	2
NMTAP	22	288	3
NMTAP	22	336	4
NMTAP	23	0	0
NMTAP	23	24	1
NMTAP	23	48	2
NMTAP	23	72	3
NMTAP	23	96	7
NMTAP	23	120	6
NMTAP	23	144	5
NMTAP	23	168	4
NMTAP	23	192	2
NMTAP	23	216	3
NMTAP	23	240	2
NMTAP	23	264	3
NMTAP	23	288	2
EXSTR	23	336	7
NMSI_	23	336	7	96	48	4
EXSTR	24	48	7
NMSI_	24	48	7	96	48	2
NMTAP	24	144	3
NMTAP	24	192	3
NMTAP	24	288	3
NMTAP	24	288	4
BRTAP	25	0	2
BRTAP	25	0	7
NMTAP	25	96	3
NMTAP	25	96	4
BRTAP	25	144	0
BRTAP	25	144	5
NMTAP	25	240	3
NMTAP	25	240	4
NMTTP	25	288	2	B	0	M1
NMTTP	25	288	3	B	0	M1
NMTTP	25	288	3	E	0	M1
NMTTP	25	288	4	B	0	M1
NMTTP	25	288	4	E	1	M1
NMTTP	25	288	5	B	0	M1
NMTTP	25	288	5	E	0	M1
NMTAP	26	48	0
NMTAP	26	48	1
NMTAP	26	96	7
NMTAP	26	144	6
NMTAP	26	192	4
NMTAP	26	192	5
NMTAP	26	240	3
NMTAP	26	288	2
NMTAP	26	336	0
NMSTR	26	336	1
NMSI_	26	336	1	96	48	5
NMSTR	27	48	4
NMSI_	27	48	4	96	48	0
NMTAP	27	96	4
NMSTR	27	144	2
NMSI_	27	144	2	96	48	6
NMTAP	27	192	2
NMSTR	27	240	7
NMSI_	27	240	7	96	48	3
NMTAP	27	288	7
NMTAP	27	336	2
NMTAP	28	0	2
NMTAP	28	96	3
NMTAP	28	96	7
NMTAP	28	144	3
NMTAP	28	144	7
NMTAP	28	240	1
NMTAP	28	240	5
NMTAP	28	288	1
NMTAP	28	288	5
EXTAP	29	0	0
EXTAP	29	0	6
EXSTR	29	72	2
NMSV_	29	72	2	96	120	4
EXSTR	29	72	6
NMSCR	29	72	6	96	120	2
EXTAP	30	0	4
EXSTR	30	72	1
NMSV_	30	72	1	96	120	3
EXSTR	30	72	5
NMSCR	30	72	5	96	120	1
EXTAP	31	0	3
NMTAP	31	48	4
NMTAP	31	96	5
NMTAP	31	144	6
NMTAP	31	192	2
NMHLD	31	192	7	144
NMTAP	31	288	4
NMTAP	31	336	4
NMTAP	32	48	3
NMTAP	32	48	4
BRTAP	32	96	1
BRTAP	32	96	6
EXTAP	32	192	3
EXTAP	32	192	4
EXTAP	32	264	3
EXTAP	32	264	4
EXTAP	32	336	3
EXTAP	32	336	4
EXHLD	33	0	2	96
EXTAP	33	0	6
NMTAP	33	96	0
NMSTR	33	144	2
NMSCL	33	144	2	96	48	7
NMTAP	33	144	7
NMTAP	33	240	4
NMTAP	33	288	4
NMTAP	34	0	3
NMHLD	34	0	5	96
NMTAP	34	96	7
NMTAP	34	144	0
NMTAP	34	144	5
NMTAP	34	192	5
NMTAP	34	240	4
NMTAP	34	288	3
NMTAP	34	336	4
NMSTR	35	0	3
NMSI_	35	0	3	96	48	7
NMSTR	35	48	6
NMSI_	35	48	6	96	48	4
NMTAP	35	192	0
NMTAP	35	288	2
NMTAP	35	288	5
NMHLD	35	336	2	96
NMSTR	35	336	5
NMSXL	35	336	5	96	144	3
EXTAP	36	192	2
EXTAP	36	264	2
EXTAP	36	336	2
EXTAP	37	0	3
EXHLD	37	0	5	96
NMTAP	37	96	7
NMTAP	37	144	0
NMSTR	37	144	5
NMSCR	37	144	5	96	48	0
NMTAP	37	240	3
NMTAP	37	288	3
NMHLD	38	0	2	96
NMTAP	38	0	4
NMTAP	38	96	0
NMTAP	38	144	2
NMTAP	38	144	7
NMTAP	38	192	2
NMTAP	38	240	3
NMSTR	38	288	4
NMSCR	38	288	4	96	96	0
EXHLD	39	0	2	96
EXTAP	39	0	4
NMTAP	39	192	0
NMTAP	39	192	2
NMTAP	39	288	3
NMTAP	39	288	5
NMHLD	39	336	3	96
NMHLD	39	336	5	192
NMHLD	41	0	3	768
NMTAP	41	0	4
NMTTP	41	96	2	B	0	M1
NMTTP	41	192	0	B	0	M1
NMTTP	41	288	6	B	0	M1
NMTTP	42	0	4	B	0	M1
NMTTP	42	96	2	D	0	M1
NMTTP	42	192	0	B	0	M1
NMTTP	42	288	6	B	0	M1
NMHLD	43	0	5	576
NMTAP	43	96	4
NMTAP	43	192	3
NMTAP	43	288	3
NMTAP	44	0	2
NMTAP	44	96	2
NMTAP	44	192	1
NMTAP	44	288	3
NMTAP	44	288	4
NMHLD	45	0	2	192
NMTAP	45	96	1
NMHLD	45	192	4	192
NMTAP	45	288	5
NMHLD	46	0	3	192
NMTAP	46	96	2
NMTAP	46	192	4
NMTAP	46	288	3
NMTAP	46	336	4
NMSTR	47	0	2
NMSXL	47	0	2	96	192	7
NMHLD	47	0	5	288
NMTAP	48	0	7
NMTAP	48	48	6
NMTAP	48	96	2
NMTAP	48	96	5
NMTAP	48	144	3
NMTAP	48	168	4
NMTAP	48	192	3
NMTAP	48	216	4
NMTAP	48	240	2
NMTAP	48	288	1
NMTAP	48	288	4
NMHLD	49	0	5	72
NMHLD	49	72	6	72
NMTAP	49	144	7
NMHLD	49	192	2	72
NMHLD	49	264	1	72
NMTAP	49	336	0
NMSTR	50	0	6
NMSV_	50	0	6	96	48	4
NMSTR	50	0	7
NMSI_	50	0	7	96	48	1
NMTAP	50	192	2
NMTAP	50	216	3
NMTAP	50	240	2
NMTAP	50	288	4
NMTAP	50	336	4
NMHLD	51	0	2	72
NMHLD	51	72	1	72
NMTAP	51	144	0
NMHLD	51	192	5	72
NMHLD	51	264	6	72
NMTAP	51	336	7
NMSTR	52	0	0
NMSI_	52	0	0	96	48	6
NMSTR	52	0	1
NMSV_	52	0	1	96	48	3
NMTAP	52	192	5
NMTAP	52	216	4
NMTAP	52	240	5
NMTAP	52	288	2
NMTAP	52	312	3
NMTAP	52	336	2
NMHLD	53	0	5	72
NMHLD	53	72	6	72
NMTAP	53	144	7
NMHLD	53	192	2	72
NMHLD	53	264	1	72
NMTAP	53	336	0
NMSTR	54	0	6
NMSI_	54	0	6	96	48	2
NMSTR	54	0	7
NMSI_	54	0	7	96	48	2
NMTAP	54	192	4
NMTAP	54	216	3
NMTAP	54	240	4
NMTAP	54	288	0
NMTAP	54	288	5
NMSTR	55	0	6
NMSCL	55	0	6	96	96	3
NMSTR	55	96	3
NMSI_	55	96	3	96	96	7
NMSTR	55	192	7
NMSCR	55	192	7	96	96	2
NMSTR	55	288	2
NMSI_	55	288	2	96	96	6
NMSTR	56	0	6
NMSCL	56	0	6	96	96	3
NMSTR	56	96	3
NMSI_	56	96	3	96	96	1
NMSI_	56	96	3	96	96	7
BRTAP	57	0	0
BRHLD	57	0	5	480
BRTAP	57	144	6
BXTAP	57	288	3
NMTAP	58	48	2
NMHLD	58	96	2	288
NMTTP	58	192	1	B	0	M1
NMTAP	59	0	5
NMTAP	59	96	4
NMTTP	59	192	2	B	0	M1
NMTTP	59	192	7	B	0	M1
NMTAP	59	288	4
NMTAP	60	0	3
NMTAP	60	96	2
NMTTP	60	192	0	B	0	M1
NMTTP	60	192	5	B	0	M1
NMTAP	60	288	2
EXTAP	61	0	1
EXHLD	61	0	3	192
NMTTP	61	192	0	C	0	M1
EXHLD	62	0	4	192
EXTAP	62	0	6
NMTTP	62	192	0	C	0	M1
NMHLD	63	0	1	192
NMTAP	63	0	7
NMTTP	63	96	7	E	0	M1
NMTTP	63	192	6	E	0	M1
NMTAP	63	288	3
NMTAP	63	336	4
NMTAP	64	48	3
NMTAP	64	48	4
NMTAP	64	96	3
NMSTR	64	96	4
NMSF_	64	96	4	96	96	0
BRHLD	65	0	2	480
BRTAP	65	0	7
BRTAP	65	144	1
BXTAP	65	288	4
NMTAP	66	48	5
NMHLD	66	96	5	288
NMTTP	66	192	6	B	0	M1
NMTAP	67	0	2
NMTAP	67	96	3
NMTTP	67	192	0	B	0	M1
NMTTP	67	192	5	B	0	M1
NMTAP	67	288	3
NMTAP	68	0	4
NMTAP	68	96	5
NMTTP	68	192	2	B	0	M1
NMTTP	68	192	7	B	0	M1
NMTAP	68	288	5
EXSTR	69	0	0
NMSCR	69	0	0	96	96	4
EXTAP	69	0	6
NMTTP	69	192	0	C	0	M1
EXTAP	70	0	1
EXSTR	70	0	7
NMSCL	70	0	7	96	96	3
NMTTP	70	192	0	C	0	M1
NMTAP	71	0	0
NMHLD	71	0	6	192
NMTTP	71	96	1	E	0	M1
NMTTP	71	192	2	E	0	M1
NMSTR	71	288	3
NMSXL	71	288	3	96	96	3
NMSXR	71	288	3	96	144	3
NMTAP	71	288	4
NMTAP	71	336	3
NMTAP	71	336	4
CNSSR	72	96	3	0	192	7
EXTAP	73	0	2
EXTAP	73	0	6
NMTAP	73	96	5
NMTAP	73	120	4
NMTAP	73	144	5
NMTAP	73	168	4
NMSTR	73	192	6
NMSCL	73	192	6	96	48	3
NMTAP	73	240	7
NMTAP	73	288	0
NMTAP	73	336	1
NMHLD	74	0	2	96
NMTAP	74	48	3
NMHLD	74	96	4	96
NMTAP	74	144	3
NMSTR	74	192	1
NMSCR	74	192	1	96	48	4
NMTAP	74	240	0
NMTAP	74	288	7
NMHLD	75	0	6	192
NMTAP	75	48	7
NMTAP	75	96	0
NMTAP	75	144	1
NMHLD	75	192	2	192
NMTAP	75	240	3
NMTAP	75	288	4
NMTAP	75	336	5
NMHLD	76	0	6	96
NMTAP	76	48	7
NMTAP	76	96	0
NMSTR	76	144	1
NMSLR	76	144	1	96	96	0
NMSTR	76	144	7
NMSLL	76	144	7	96	96	0
EXTAP	77	0	7
EXTAP	77	32	6
EXTAP	77	64	5
EXTAP	77	96	4
EXTAP	77	128	3
EXTAP	77	160	2
EXSTR	77	192	1
NMSI_	77	192	1	96	48	4
NMSI_	77	192	1	96	48	6
NMTAP	78	0	5
NMTAP	78	48	5
NMTAP	78	96	4
NMTAP	78	96	6
NMTAP	78	144	7
NMTAP	78	192	2
NMTAP	78	240	2
NMTAP	78	288	1
NMTAP	78	288	3
NMTAP	78	336	0
NMTAP	79	0	5
NMTAP	79	48	2
NMTAP	79	72	3
NMTAP	79	96	2
NMTAP	79	120	3
NMTAP	79	144	1
NMTAP	79	192	5
NMTAP	79	216	4
NMTAP	79	240	5
NMTAP	79	264	4
NMTAP	79	288	6
NMTAP	79	336	0
NMTAP	79	336	7
NMTAP	80	0	1
NMTAP	80	0	6
NMTAP	80	96	3
NMTAP	80	96	5
NMSTR	80	144	2
NMSI_	80	144	2	96	48	7
NMSTR	80	144	6
NMSI_	80	144	6	96	48	3
EXTAP	80	240	2
EXTAP	80	240	6
EXTAP	80	336	0
EXHLD	80	336	4	432
NMHLD	82	0	3	384
NMHLD	83	0	5	576
NMSTR	83	192	2
NMSCR	83	192	2	96	288	4
NMTAP	84	288	4
NMTAP	84	288	5
EXTAP	85	0	3
EXTAP	85	0	6
NMTAP	85	48	3
NMTAP	85	96	3
NMTAP	85	96	6
NMTAP	85	144	3
NMTAP	85	192	3
NMTAP	85	192	5
NMTAP	85	240	3
NMTAP	85	288	3
NMTAP	85	288	5
NMTAP	85	336	3
NMTAP	86	0	3
NMTAP	86	0	4
NMTAP	86	48	4
NMTAP	86	96	3
NMTAP	86	96	4
NMTAP	86	144	4
NMTAP	86	192	2
NMTAP	86	192	4
NMTAP	86	240	4
NMTAP	86	288	2
NMTAP	86	288	4
NMTAP	86	336	4
NMTAP	87	0	1
NMTAP	87	24	3
NMTAP	87	48	1
NMTAP	87	72	3
NMTAP	87	96	2
NMTAP	87	120	4
NMTAP	87	144	2
NMTAP	87	168	4
NMTAP	87	192	3
NMTAP	87	216	5
NMTAP	87	240	3
NMTAP	87	264	5
NMTAP	87	288	4
NMTAP	87	312	6
EXTAP	87	336	4
EXTAP	88	48	1
EXTAP	88	48	3
EXTAP	88	144	2
EXTAP	88	144	7
EXSTR	88	240	0
NMSSL	88	240	0	96	192	4
EXTAP	88	240	5
EXTAP	88	336	0
EXHLD	88	336	2	192
NMTAP	89	240	2
NMTAP	89	240	5
NMTAP	89	288	3
NMTAP	89	288	4
BRTAP	90	0	0
BRTAP	90	0	5
NMTAP	90	96	3
NMTAP	90	96	4
BRTAP	90	144	2
BRTAP	90	144	7
NMTAP	90	240	3
NMTAP	90	240	4
NMTTP	90	288	2	B	0	M1
NMTTP	90	288	3	B	0	M1
NMTTP	90	288	3	E	0	M1
NMTTP	90	288	4	B	0	M1
NMTTP	90	288	4	E	1	M1
NMTTP	90	288	5	B	0	M1
NMTTP	90	288	5	E	0	M1
NMTAP	91	48	6
NMTAP	91	48	7
NMTAP	91	96	0
NMTAP	91	144	1
NMTAP	91	192	2
NMTAP	91	192	3
NMTAP	91	240	4
NMTAP	91	288	5
NMSTR	91	336	6
NMSI_	91	336	6	96	48	2
NMTAP	91	336	7
NMSTR	92	48	3
NMSI_	92	48	3	96	48	7
NMTAP	92	96	3
NMSTR	92	144	5
NMSI_	92	144	5	96	48	1
NMTAP	92	192	5
NMSTR	92	240	0
NMSI_	92	240	0	96	48	4
NMTAP	92	288	0
NMTAP	92	336	5
NMTAP	93	0	5
NMTAP	93	96	3
NMTAP	93	96	6
NMTAP	93	144	3
NMTAP	93	144	6
NMTAP	93	240	3
NMTAP	93	240	4
NMTAP	93	288	2
NMTAP	93	288	5
EXTAP	94	0	0
EXTAP	94	0	6
EXTAP	94	72	3
EXTAP	94	72	4
NMTAP	94	144	1
NMSTR	94	144	5
NMSI_	94	144	5	96	48	1
NMHLD	94	192	1	192
NMTAP	94	192	5
CNSI_	94	288	1	0	48	7
EXTAP	95	0	6
EXTAP	95	72	3
EXTAP	95	72	4
NMSTR	95	144	2
NMSI_	95	144	2	96	48	6
NMTAP	95	144	6
NMTAP	95	192	2
NMHLD	95	192	6	192
CNSI_	95	288	6	0	48	0
EXSTR	96	0	1
NMSI_	96	0	1	96	48	3
NMSI_	96	0	1	96	48	5
EXTAP	96	96	1
NMTAP	96	192	2
NMTAP	96	192	4
NMTAP	96	240	1
NMTAP	96	240	5
NMTAP	96	288	0
NMTAP	96	288	6
NMHLD	96	336	0	96
NMTAP	96	336	6
NMTAP	97	48	7
BRTAP	97	96	1
BRTAP	97	96	6
NMTAP	97	192	2
NMTAP	97	216	5
NMTAP	97	240	2
NMTAP	97	264	5
NMTAP	97	288	3
NMTAP	97	312	4
NMTAP	97	336	3
BRTAP	98	0	2
BRTAP	98	0	7
NMTAP	98	96	3
NMTAP	98	96	4
BRTAP	98	144	0
BRTAP	98	144	5
NMTAP	98	240	3
NMTAP	98	240	4
NMTTP	98	288	2	B	0	M1
NMTTP	98	288	3	B	0	M1
NMTTP	98	288	3	E	0	M1
NMTTP	98	288	4	B	0	M1
NMTTP	98	288	4	E	1	M1
NMTTP	98	288	5	B	0	M1
NMTTP	98	288	5	E	0	M1
NMTAP	99	48	0
NMTAP	99	48	1
NMTAP	99	96	7
NMTAP	99	144	6
NMTAP	99	192	4
NMTAP	99	192	5
NMTAP	99	240	3
NMTAP	99	288	2
NMTAP	99	336	0
NMSTR	99	336	1
NMSI_	99	336	1	96	48	5
NMSTR	100	48	4
NMSI_	100	48	4	96	48	0
NMTAP	100	96	4
NMSTR	100	144	2
NMSI_	100	144	2	96	48	6
NMTAP	100	192	2
NMSTR	100	240	7
NMSI_	100	240	7	96	48	3
NMTAP	100	288	7
NMTAP	100	336	2
NMTAP	101	0	2
NMTAP	101	96	1
NMTAP	101	96	4
NMTAP	101	144	1
NMTAP	101	144	4
NMTAP	101	240	3
NMTAP	101	240	4
NMTAP	101	288	2
NMTAP	101	288	5
EXTAP	102	0	1
EXTAP	102	0	7
EXTAP	102	72	3
EXTAP	102	72	4
NMSTR	102	144	2
NMSI_	102	144	2	96	48	6
NMTAP	102	144	6
NMTAP	102	192	2
NMHLD	102	192	6	192
CNSI_	102	288	6	0	48	0
EXTAP	103	0	1
EXTAP	103	72	3
EXTAP	103	72	4
NMTAP	103	144	1
NMSTR	103	144	5
NMSI_	103	144	5	96	48	1
NMHLD	103	192	1	192
NMTAP	103	192	5
CNSI_	103	288	1	0	48	7
EXSTR	104	0	6
NMSI_	104	0	6	96	48	3
NMSI_	104	0	6	96	48	4
EXTAP	104	96	6
NMSTR	104	192	2
NMSXR	104	192	2	96	288	4
NMSTR	104	192	5
NMSXL	104	192	5	96	240	3
CNSSL	105	192	4	0	96	0
EXHLD	106	0	2	96
EXHLD	106	0	5	96
NMTAP	106	144	3
NMHLD	106	144	6	144
NMTAP	106	240	5
NMTAP	106	288	5
NMHLD	107	0	2	96
NMHLD	107	0	5	96
NMHLD	107	144	1	144
NMTAP	107	144	4
NMTAP	107	240	2
NMTAP	107	288	2
NMTAP	108	0	4
NMTAP	108	48	3
NMTAP	108	96	4
NMTAP	108	192	1
NMHLD	108	192	5	240
NMTAP	108	288	2
NMSTR	108	336	2
NMSXR	108	336	2	96	144	4
EXTAP	109	192	7
EXTAP	109	288	0
EXTAP	109	288	7
EXHLD	110	0	2	96
EXHLD	110	0	5	96
NMHLD	110	144	1	144
NMTAP	110	144	4
NMTAP	110	240	2
NMTAP	110	288	2
NMHLD	111	0	2	96
NMHLD	111	0	5	96
NMTAP	111	144	3
NMHLD	111	144	6	144
NMTAP	111	240	5
NMTAP	111	288	5
EXTAP	112	0	3
EXTAP	112	0	6
NMTAP	112	96	3
EXTAP	112	192	1
EXTAP	112	192	4
NMTAP	112	288	2
NMTAP	112	336	2
NMTAP	113	0	5
NMTAP	113	24	4
NMTAP	113	48	5
NMTAP	113	72	4
NMTAP	113	96	5
NMTAP	113	144	3
NMTAP	113	168	4
NMTAP	113	192	3
NMTAP	113	216	4
NMTAP	113	240	3
NMTAP	113	264	4
NMTAP	113	288	3
NMTAP	113	312	4
NMTAP	113	336	3
NMTAP	113	360	4
BRTAP	114	0	1
NMTAP	114	96	2
NMTAP	114	96	7
NMSTR	114	144	2
NMSCL	114	144	2	96	48	7
NMTAP	114	144	7
NMTAP	114	240	3
NMTAP	114	288	3
NMTAP	115	0	3
NMHLD	115	0	6	96
NMTAP	115	96	7
NMTAP	115	144	0
NMTAP	115	144	5
NMTAP	115	192	5
NMTAP	115	240	4
NMTAP	115	288	3
NMTAP	115	336	4
NMSTR	116	0	2
NMSI_	116	0	2	96	48	6
NMTAP	116	48	2
NMSTR	116	96	4
NMSI_	116	96	4	96	48	0
NMTAP	116	144	4
NMSTR	116	192	1
NMSI_	116	192	1	96	48	5
NMTAP	116	240	1
NMTAP	116	288	6
NMHLD	116	336	7	144
NMTAP	117	48	3
NMTAP	117	96	2
NMTAP	117	144	1
EXTAP	117	192	0
EXTAP	117	192	2
EXTAP	117	264	1
EXTAP	117	264	7
EXTAP	117	336	0
EXTAP	117	336	6
EXTAP	118	0	3
NMTAP	118	0	5
NMTAP	118	48	5
EXTAP	118	96	4
NMTAP	118	96	5
NMTAP	118	144	5
EXTAP	118	192	3
NMTAP	118	192	5
NMTAP	118	240	5
EXTAP	118	288	4
NMTAP	118	288	5
NMTAP	118	336	5
NMTAP	119	0	2
EXTAP	119	0	4
NMTAP	119	48	2
NMTAP	119	96	2
EXTAP	119	96	3
NMTAP	119	144	2
NMTAP	119	192	2
EXTAP	119	192	4
NMTAP	119	240	2
NMTAP	119	288	2
EXTAP	119	288	3
NMTAP	119	336	2
EXTAP	120	0	3
EXTAP	120	0	4
NMTAP	120	48	5
NMTAP	120	96	2
NMTAP	120	96	6
NMTAP	120	144	1
NMTAP	120	192	0
NMTAP	120	192	7
BXSTR	120	288	7
NMSI_	120	288	7	96	144	4
EXSTR	120	336	0
NMSI_	120	336	0	96	144	3

T_REC_TAP	461
T_REC_BRK	21
T_REC_XTP	89
T_REC_BXX	2
T_REC_HLD	67
T_REC_XHO	11
T_REC_BHO	2
T_REC_BXH	0
T_REC_STR	59
T_REC_BST	0
T_REC_XST	14
T_REC_XBS	2
T_REC_TTP	66
T_REC_THO	0
T_REC_SLD	80
T_REC_BSL	0
T_REC_ALL	874
T_NUM_TAP	689
T_NUM_BRK	27
T_NUM_HLD	78
T_NUM_SLD	80
T_NUM_ALL	874
T_JUDGE_TAP	714
T_JUDGE_HLD	327
T_JUDGE_SLD	80
T_JUDGE_ALL	1121
TTM_EACHPAIRS	183
TTM_SCR_TAP	344500
TTM_SCR_BRK	70200
TTM_SCR_HLD	78000
TTM_SCR_SLD	120000
TTM_SCR_ALL	612700
TTM_SCR_S	591700
TTM_SCR_SS	610000
TTM_RAT_ACV	10044

