VERSION	0.00.00	1.04.00
FES_MODE	0
BPM_DEF	188.000	188.000	188.000	188.000
MET_DEF	4	4
RESOLUTION	384
CLK_DEF	384
COMPATIBLE_CODE	MA2

BPM	0	0	188.000
MET	0	0	4	4

NMHLD	1	0	2	768
NMTAP	2	288	4
NMHLD	3	0	5	768
NMTAP	4	288	3
NMSTR	5	0	2
NMSCR	5	0	2	96	96	4
NMSTR	6	0	5
NMSCL	6	0	5	96	96	3
NMHLD	7	0	4	192
NMHLD	7	192	3	192
NMTAP	8	0	4
NMTAP	8	96	4
NMTAP	8	192	3
NMTAP	8	288	3
NMTAP	8	288	4
NMTAP	9	0	2
NMHLD	9	96	2	480
NMTAP	9	192	4
NMTAP	9	288	4
NMTAP	10	0	3
NMTAP	10	96	3
NMTAP	10	192	4
NMTAP	10	288	4
NMTAP	11	0	3
NMTAP	11	0	5
NMTAP	11	96	3
NMHLD	11	96	5	384
NMTAP	11	192	4
NMTAP	11	288	4
NMTAP	12	0	3
NMTAP	12	96	3
NMTAP	12	192	2
NMTAP	12	192	6
NMTAP	13	0	3
NMTAP	13	0	4
NMHLD	13	96	2	576
NMTAP	13	192	3
NMTAP	13	288	3
NMTAP	14	0	4
NMTAP	14	96	4
NMTAP	14	192	3
NMTAP	14	288	3
NMTAP	15	0	1
NMTAP	15	96	0
NMTAP	15	192	7
NMSTR	15	288	6
NMSUL	15	288	6	96	192	1
NMTTP	17	0	0	E	0	M1
NMTTP	17	192	0	C	0	M1
NMTTP	18	0	4	E	0	M1
NMTTP	18	192	3	E	0	M1
NMTTP	18	192	5	E	0	M1
NMTTP	19	0	1	B	0	M1
NMTTP	19	0	3	B	0	M1
NMTTP	19	192	4	B	0	M1
NMTTP	19	192	6	B	0	M1
NMTHO	20	0	0	192	C	0	M1
NMTAP	21	0	0
NMTAP	21	0	7
NMTAP	21	96	1
NMTAP	21	96	6
NMTAP	21	192	2
NMTAP	21	288	3
NMTAP	22	0	5
NMTAP	22	96	4
NMTAP	22	192	3
NMTAP	22	192	4
NMTAP	22	288	2
NMTAP	22	288	3
NMTAP	23	0	1
NMTAP	23	96	0
NMTAP	23	96	1
NMTAP	23	192	7
NMTAP	23	288	0
NMTAP	23	288	6
NMTAP	23	336	0
NMTAP	23	336	6
NMTAP	24	48	1
NMTAP	24	48	5
NMTAP	24	144	2
NMTAP	24	144	4
NMTAP	24	192	2
NMTAP	24	192	4
BXTAP	25	0	0
BXTAP	25	0	6
BXTAP	25	144	1
BXTAP	25	144	3
BXTAP	25	288	4
BXTAP	25	288	6
NMTAP	26	0	3
NMTAP	26	0	7
NMTAP	26	96	3
NMTAP	26	96	7
NMTAP	26	192	4
NMTAP	26	192	5
NMTAP	26	288	2
NMTAP	26	288	3
NMTAP	27	0	0
NMTAP	27	0	1
NMTAP	27	96	6
NMTAP	27	96	7
NMTAP	27	192	4
NMTAP	27	192	5
NMTAP	27	288	4
NMTAP	27	288	5
NMTAP	28	0	3
NMTAP	28	0	6
EXTAP	28	96	0
EXTAP	28	96	1
EXTAP	28	192	0
EXTAP	28	192	7
EXSTR	28	288	6
NMSI_	28	288	6	96	96	4
EXSTR	28	288	7
NMSI_	28	288	7	96	96	3
NMTAP	29	192	0
NMTAP	29	192	1
NMSTR	29	288	0
NMSI_	29	288	0	96	96	4
NMSTR	29	288	1
NMSI_	29	288	1	96	96	3
NMTAP	30	192	6
NMTAP	30	192	7
NMTAP	30	288	0
NMTAP	30	288	5
NMHLD	31	0	1	96
NMHLD	31	96	3	96
NMHLD	31	192	4	96
NMTAP	31	288	5
NMTAP	32	0	4
NMTAP	32	0	5
NMTAP	32	96	2
NMTAP	32	96	7
NMTAP	32	192	2
NMHLD	32	192	7	192
BRTAP	33	0	0
NMTAP	33	96	1
NMTAP	33	96	6
NMTAP	33	192	2
NMTAP	33	192	3
NMTAP	33	288	1
NMTAP	33	288	4
NMTAP	34	0	4
NMTAP	34	0	5
NMTAP	34	96	3
NMTAP	34	96	6
NMTAP	34	192	2
NMTAP	34	192	3
NMTAP	34	288	1
NMTAP	34	288	4
NMHLD	35	0	6	96
NMTAP	35	96	7
NMHLD	35	192	1	96
NMTAP	35	288	7
NMTAP	36	0	0
NMTAP	36	0	6
NMTAP	36	96	1
NMTAP	36	96	5
NMTTP	36	192	0	C	1	M1
NMTTP	36	192	1	B	0	M1
NMTTP	36	192	5	B	0	M1
BRTAP	37	0	7
NMTAP	37	96	0
NMTAP	37	96	6
NMTAP	37	192	5
NMTAP	37	288	4
NMTAP	37	288	6
NMTAP	38	0	2
NMTAP	38	96	1
NMTAP	38	96	3
NMTAP	38	192	0
NMTAP	38	240	0
NMTAP	38	288	7
NMHLD	39	0	6	96
NMTAP	39	96	7
NMHLD	39	192	1	96
NMSTR	39	288	7
NMSF_	39	288	7	96	192	3
NMHLD	41	0	5	384
NMTAP	41	192	4
NMHLD	42	0	2	384
NMTAP	42	192	4
NMHLD	43	0	6	192
NMHLD	43	192	4	192
NMTAP	44	0	3
NMTAP	44	96	3
NMTAP	44	192	2
NMTAP	44	192	3
NMHLD	45	0	1	384
NMTAP	45	192	3
NMTAP	45	288	4
NMHLD	46	0	5	288
NMTAP	46	192	4
NMSTR	46	288	4
NMSUL	46	288	4	96	240	3
NMTAP	48	0	2
NMTAP	48	48	2
NMTAP	48	96	4
NMTAP	48	144	4
NMTAP	48	192	3
NMTAP	48	240	3
NMTAP	48	288	5
NMTAP	49	0	4
NMTAP	49	0	6
NMTAP	49	96	7
NMTAP	49	192	7
NMTAP	49	288	4
NMTAP	49	288	6
NMSTR	50	0	5
NMSCL	50	0	5	96	96	3
NMTAP	50	192	2
NMTAP	51	0	1
NMTAP	51	0	3
NMTAP	51	96	0
NMTAP	51	192	0
NMTAP	51	288	1
NMTAP	51	288	3
NMSTR	52	0	2
NMSCR	52	0	2	96	96	4
NMTAP	52	192	5
NMHLD	52	288	5	96
NMTAP	53	0	4
NMTAP	53	96	4
NMTAP	53	192	4
NMTAP	53	192	6
NMTAP	54	0	1
NMTAP	54	96	1
NMTAP	54	192	1
NMTAP	54	192	3
NMHLD	55	0	2	96
NMTAP	55	96	3
NMHLD	55	192	6	96
NMTAP	55	288	4
NMTAP	56	0	4
NMTAP	56	96	3
NMTAP	56	96	5
EXTAP	56	192	2
EXTAP	56	192	6
BXTAP	57	0	0
BXTAP	57	0	1
BXTAP	57	144	6
BXTAP	57	144	7
BXTAP	57	288	3
BXTAP	57	288	4
NMTAP	58	0	2
NMSTR	58	0	5
NMSCL	58	0	5	96	96	2
NMTAP	58	192	0
NMTAP	58	288	1
NMSTR	59	0	2
NMSCR	59	0	2	96	96	5
NMTAP	59	192	7
NMSTR	59	288	7
NMSI_	59	288	7	96	96	3
NMTAP	60	192	2
NMTAP	60	288	2
NMTAP	60	288	3
BRSTR	61	0	1
NMSUR	61	0	1	96	96	5
BRTAP	61	0	4
NMTAP	61	192	7
NMTAP	61	288	6
NMTAP	62	0	4
NMSTR	62	0	5
NMSCL	62	0	5	96	96	2
NMTAP	62	192	0
NMTAP	62	288	1
NMHLD	63	0	2	96
NMHLD	63	96	3	96
NMHLD	63	192	4	96
NMSTR	63	288	5
NMSCR	63	288	5	96	192	2
BXTAP	65	0	0
BXTAP	65	0	1
BXTAP	65	144	6
BXTAP	65	144	7
BXTAP	65	288	3
BXTAP	65	288	4
NMSTR	66	0	2
NMSCR	66	0	2	96	96	5
NMTAP	66	0	5
NMTAP	66	192	7
NMTAP	66	288	6
NMSTR	67	0	5
NMSCL	67	0	5	96	96	2
NMTAP	67	192	0
NMSTR	67	288	0
NMSI_	67	288	0	96	96	4
NMTAP	68	192	6
NMSTR	68	288	7
NMSUL	68	288	7	96	96	3
NMHLD	69	192	1	96
NMTAP	69	288	0
NMTAP	70	0	2
NMTAP	70	0	7
NMHLD	70	192	6	96
NMTAP	70	288	7
NMTAP	71	0	0
NMTAP	71	0	5
NMTAP	71	96	1
NMTAP	71	96	4
NMHLD	71	192	2	96
NMSTR	71	288	3
NMSUR	71	288	3	96	192	4
EXTAP	72	288	3
EXTAP	72	288	5
NMTAP	73	0	6
NMTAP	73	48	6
NMTAP	73	96	4
NMTAP	73	192	3
NMTAP	73	192	5
NMTAP	73	288	2
NMTAP	73	288	4
NMTAP	74	0	1
NMTAP	74	48	1
NMTAP	74	96	0
NMTAP	74	192	1
NMTAP	74	192	7
NMTAP	74	288	0
NMTAP	74	288	6
NMTAP	75	0	5
NMTAP	75	48	5
NMTAP	75	96	4
NMTAP	75	192	2
NMTAP	75	240	2
NMTAP	75	288	3
NMTAP	76	0	1
NMTAP	76	0	4
NMTAP	76	96	6
NMTAP	76	144	6
NMTAP	76	240	0
NMTAP	76	240	5
NMTAP	76	288	0
NMTAP	76	288	5
NMTAP	77	0	1
NMTAP	77	48	1
NMTAP	77	96	3
NMTAP	77	144	3
NMTAP	77	192	2
NMTAP	77	288	1
NMTAP	77	288	4
NMTAP	78	0	6
NMTAP	78	48	6
NMTAP	78	96	4
NMTAP	78	144	4
NMTAP	78	192	5
NMTAP	78	288	3
NMTAP	78	288	6
NMTAP	79	0	2
NMTAP	79	0	5
NMTAP	79	96	1
NMTAP	79	96	4
NMTAP	79	192	0
NMTAP	79	192	3
NMSTR	79	288	0
NMSCR	79	288	0	96	216	5
NMHLD	79	288	3	96
NMTTP	81	0	6	E	0	M1
NMTTP	81	192	4	B	0	M1
NMTTP	81	192	5	E	0	M1
NMTTP	82	0	2	E	0	M1
NMTTP	82	192	3	B	0	M1
NMTTP	82	192	3	E	0	M1
NMTHO	83	0	0	384	C	0	M1
NMTTP	84	0	1	B	0	M1
NMTTP	84	0	6	B	0	M1
NMTAP	84	288	7
BRTAP	85	0	7
NMTAP	85	96	4
NMTAP	85	96	6
NMTAP	85	192	3
NMTAP	85	192	5
NMTAP	85	288	2
NMTAP	85	288	6
NMTAP	86	0	0
NMTAP	86	96	1
NMTAP	86	96	3
NMTAP	86	192	2
NMTAP	86	192	4
NMTAP	86	288	1
NMTAP	86	288	5
NMHLD	87	0	2	96
NMHLD	87	96	3	96
NMTAP	87	192	4
NMTAP	87	288	4
NMTAP	87	288	5
NMTAP	87	336	4
NMTAP	87	336	5
EXTAP	88	48	3
EXTAP	88	48	6
EXTAP	88	144	1
EXTAP	88	144	4
EXHLD	88	192	1	144
EXTAP	88	192	4
NMTTP	88	336	0	C	1	M1
EXTAP	89	240	0
EXTAP	89	240	7
EXTAP	89	288	0
EXTAP	89	288	7
BRTAP	90	0	2
BRTAP	90	0	5
NMTAP	90	96	1
NMTAP	90	96	4
BRTAP	90	144	1
BRTAP	90	144	4
NMTAP	90	240	3
NMTAP	90	240	6
BRTAP	90	288	3
BRTAP	90	288	6
NMTAP	91	0	7
NMTAP	91	48	7
NMTAP	91	96	1
NMTAP	91	144	1
NMTAP	91	192	6
NMTAP	91	288	3
NMTAP	91	288	5
NMTAP	91	336	3
NMTAP	91	336	5
NMTAP	92	48	2
NMTAP	92	96	2
NMTAP	92	144	3
NMTAP	92	192	1
NMTAP	92	288	0
NMTAP	92	288	4
BRTAP	93	0	2
BRTAP	93	0	6
EXTAP	93	96	5
EXTAP	93	144	4
EXTAP	93	144	6
EXTAP	93	240	2
EXTAP	93	288	1
EXTAP	93	288	3
BRTAP	94	0	0
BRTAP	94	0	7
NMTAP	94	144	6
NMHLD	94	192	6	72
NMTAP	94	264	7
NMTAP	94	336	0
NMTAP	94	336	5
NMTAP	95	0	0
NMTAP	95	0	5
NMTAP	95	144	1
NMHLD	95	192	1	72
NMTAP	95	264	0
NMTAP	95	336	7
NMTAP	96	0	7
NMTAP	96	96	0
NMTAP	96	96	1
NMTAP	96	192	2
NMTAP	96	192	3
NMSTR	96	288	4
NMSCR	96	288	4	96	96	7
NMSUR	96	288	4	96	96	0
NMTAP	96	288	5
EXTAP	97	240	0
EXTAP	97	240	7
EXTAP	97	288	0
EXTAP	97	288	7
BRTAP	98	0	1
BRTAP	98	0	6
NMTAP	98	96	0
NMTAP	98	96	5
BRTAP	98	144	0
BRTAP	98	144	5
NMTAP	98	240	2
NMTAP	98	240	7
BRTAP	98	288	2
BRTAP	98	288	7
NMTAP	99	0	1
NMTAP	99	48	1
NMTAP	99	96	0
NMTAP	99	144	0
NMTAP	99	192	2
NMTAP	99	288	1
NMTAP	99	288	3
NMTAP	99	336	1
NMTAP	99	336	3
NMTAP	100	48	5
NMTAP	100	96	5
NMTAP	100	144	4
NMTAP	100	192	6
NMTAP	100	288	1
NMTAP	100	288	7
BRTAP	101	0	0
BRTAP	101	0	6
BXTAP	101	96	4
BXTAP	101	96	5
BXTAP	101	144	4
BXTAP	101	144	5
BXTAP	101	240	1
BXTAP	101	240	3
BXSTR	101	288	1
NMSI_	101	288	1	96	48	5
BXTAP	101	288	3
NMTAP	102	144	6
NMHLD	102	192	6	72
NMTAP	102	264	7
NMTAP	102	336	0
NMTAP	102	336	5
NMTAP	103	0	0
NMTAP	103	0	5
NMTAP	103	144	1
NMHLD	103	192	1	72
NMTAP	103	264	0
NMTAP	103	336	2
NMTAP	103	336	7
NMTAP	104	0	2
NMTAP	104	0	7
NMTAP	104	96	0
NMTAP	104	96	1
NMTAP	104	192	2
NMTAP	104	192	3
NMTAP	104	288	4
NMSTR	104	288	5
BRSCR	104	288	5	96	192	2
NMTTP	106	0	2	B	0	M1
NMTTP	106	0	3	B	0	M1
NMTTP	106	96	0	B	0	M1
NMTTP	106	96	1	B	0	M1
NMTTP	106	192	6	B	0	M1
NMTTP	106	192	7	B	0	M1
NMTTP	106	288	4	B	0	M1
NMTTP	106	288	5	B	0	M1
NMTTP	107	0	2	B	0	M1
NMTTP	107	96	0	C	0	M1
NMTTP	107	192	6	B	0	M1
NMTTP	107	192	7	B	0	M1
NMTAP	108	0	5
NMTAP	108	96	4
NMTAP	108	96	6
NMTAP	108	192	2
NMTAP	108	288	1
NMTAP	108	288	3
NMHLD	109	0	6	96
NMTAP	109	96	0
NMTAP	109	192	1
NMTAP	109	192	5
NMTAP	109	288	1
NMTAP	109	288	5
NMTTP	110	0	4	B	0	M1
NMTTP	110	0	5	B	0	M1
NMTTP	110	96	6	B	0	M1
NMTTP	110	96	7	B	0	M1
NMTTP	110	192	0	B	0	M1
NMTTP	110	192	1	B	0	M1
NMTTP	110	288	2	B	0	M1
NMTTP	110	288	3	B	0	M1
NMTTP	111	0	5	B	0	M1
NMTTP	111	96	0	C	0	M1
NMTTP	111	192	0	B	0	M1
NMTTP	111	192	1	B	0	M1
NMTAP	112	0	2
NMTAP	112	96	1
NMTAP	112	96	3
NMTAP	112	192	5
NMTAP	112	288	4
NMSTR	112	288	6
NMSUL	112	288	6	96	192	3
EXTAP	114	0	0
EXTAP	114	0	1
NMTAP	114	96	0
NMTAP	114	96	1
NMTAP	114	192	2
NMTAP	114	192	3
NMTAP	114	288	4
NMTAP	114	288	5
NMTAP	115	0	6
NMTAP	115	0	7
NMTAP	115	96	6
NMTAP	115	96	7
NMTAP	115	192	4
NMTAP	115	192	5
NMTAP	115	288	3
NMTAP	115	288	6
NMTAP	116	0	2
NMTAP	116	48	2
NMTAP	116	96	3
NMTAP	116	192	1
NMTAP	116	192	5
NMTAP	116	288	6
NMTAP	116	336	6
NMTAP	117	0	7
NMTAP	117	96	1
NMTAP	117	144	1
NMTAP	117	192	0
NMTAP	117	288	2
NMTAP	117	288	6
NMTAP	118	0	4
NMTAP	118	0	5
NMTAP	118	96	4
NMTAP	118	96	5
NMTAP	118	192	6
NMTAP	118	192	7
NMTAP	118	288	0
NMTAP	118	288	1
NMTAP	119	0	2
NMTAP	119	0	3
NMTAP	119	96	2
NMTAP	119	96	3
NMTAP	119	192	0
NMTAP	119	192	1
NMTAP	119	288	2
NMTAP	119	288	7
NMTAP	120	0	3
NMTAP	120	0	5
NMTAP	120	96	3
NMTAP	120	96	5
NMTAP	120	192	2
NMHLD	120	192	6	240
NMTAP	120	288	1
NMHLD	120	336	1	192

T_REC_TAP	392
T_REC_BRK	22
T_REC_XTP	29
T_REC_BXX	25
T_REC_HLD	40
T_REC_XHO	1
T_REC_BHO	0
T_REC_BXH	0
T_REC_STR	23
T_REC_BST	1
T_REC_XST	2
T_REC_XBS	1
T_REC_TTP	45
T_REC_THO	2
T_REC_SLD	27
T_REC_BSL	1
T_REC_ALL	611
T_NUM_TAP	491
T_NUM_BRK	50
T_NUM_HLD	43
T_NUM_SLD	27
T_NUM_ALL	611
T_JUDGE_TAP	540
T_JUDGE_HLD	184
T_JUDGE_SLD	28
T_JUDGE_ALL	752
TTM_EACHPAIRS	165
TTM_SCR_TAP	245500
TTM_SCR_BRK	130000
TTM_SCR_HLD	43000
TTM_SCR_SLD	40500
TTM_SCR_ALL	459000
TTM_SCR_S	440400
TTM_SCR_SS	454000
TTM_RAT_ACV	10110

