VERSION	0.00.00	1.04.00
FES_MODE	0
BPM_DEF	188.000	188.000	188.000	188.000
MET_DEF	4	4
RESOLUTION	384
CLK_DEF	384
COMPATIBLE_CODE	MA2

BPM	0	0	188.000
MET	0	0	4	4

NMHLD	1	0	2	384
NMTAP	2	0	3
NMHLD	3	0	5	384
NMTAP	4	0	4
NMHLD	5	0	2	384
NMTAP	6	0	3
NMHLD	7	0	5	384
NMTAP	8	0	4
NMTAP	9	0	2
NMTAP	9	0	3
NMTAP	9	192	2
NMTAP	9	192	3
NMTAP	10	0	1
NMTAP	10	192	0
NMTAP	11	0	6
NMTAP	11	0	7
NMTAP	11	192	6
NMTAP	11	192	7
NMTAP	12	0	5
NMTAP	12	192	4
NMTAP	13	0	4
NMTAP	13	0	5
NMTAP	13	192	4
NMTAP	13	192	5
NMTAP	14	0	6
NMTAP	14	192	7
NMTAP	15	0	0
NMTAP	15	0	1
NMTAP	15	192	0
NMTAP	15	192	1
NMTAP	16	0	2
NMTAP	16	192	3
NMTAP	16	192	4
NMSTR	17	0	5
NMSI_	17	0	5	96	192	2
NMSTR	19	0	2
NMSI_	19	0	2	96	192	5
NMTAP	21	0	5
NMTAP	21	96	5
NMTAP	21	192	4
NMTAP	21	288	4
NMTAP	22	0	3
NMTAP	22	96	3
NMTAP	22	192	2
NMTAP	22	288	2
NMTAP	23	0	3
NMTAP	23	0	4
NMTAP	23	96	3
NMTAP	23	96	4
NMSTR	23	192	3
NMSI_	23	192	3	96	192	0
NMSTR	23	192	4
NMSI_	23	192	4	96	192	7
EXTAP	25	0	0
EXTAP	25	0	7
EXTAP	25	144	0
EXTAP	25	144	7
EXTAP	25	288	0
EXTAP	25	288	7
NMTAP	26	192	6
NMTAP	26	288	6
NMTAP	27	0	5
NMTAP	27	96	5
NMTAP	27	192	4
NMTAP	27	192	5
NMTAP	28	0	2
NMTAP	28	96	2
NMTAP	28	192	2
NMTAP	28	192	3
NMTAP	29	0	2
NMTAP	29	0	3
NMTAP	29	96	2
NMTAP	29	96	3
NMTAP	29	192	2
NMTAP	29	192	3
NMTAP	30	0	4
NMTAP	30	0	5
NMTAP	30	96	4
NMTAP	30	96	5
NMTAP	30	192	4
NMTAP	30	192	5
NMTAP	31	0	3
NMTAP	31	96	3
NMTAP	31	192	2
NMTAP	31	288	2
NMTAP	32	0	1
NMTAP	32	96	1
NMTAP	32	192	0
NMTAP	32	192	7
NMSTR	33	0	1
NMSI_	33	0	1	96	192	5
NMSTR	34	0	6
NMSI_	34	0	6	96	192	2
NMTAP	35	0	1
NMTAP	35	96	1
NMTAP	35	192	0
NMTAP	35	192	1
NMTAP	36	0	7
NMTAP	36	96	7
NMTAP	36	192	0
NMTAP	36	192	7
NMSTR	37	0	6
NMSI_	37	0	6	96	192	2
NMSTR	38	0	1
NMSI_	38	0	1	96	192	5
NMTAP	39	0	6
NMTAP	39	96	6
NMTAP	39	192	0
NMTAP	39	192	7
NMTAP	39	288	0
NMTAP	39	288	7
NMHLD	41	0	5	192
NMTAP	41	192	4
NMHLD	42	0	2	192
NMTAP	42	192	3
NMHLD	43	0	5	192
NMTAP	43	192	4
NMTAP	44	0	3
NMTAP	44	96	3
NMTAP	44	192	2
NMTAP	44	192	4
NMHLD	45	0	1	192
NMTAP	45	192	0
NMHLD	46	0	6	192
NMTAP	46	192	7
NMHLD	47	0	1	192
NMTAP	47	192	0
NMTAP	48	0	7
NMTAP	48	96	7
NMTAP	48	192	0
NMTAP	48	192	7
NMTTP	49	0	6	B	0	L1
NMTTP	49	96	5	B	0	L1
NMTTP	49	192	4	B	0	L1
NMTTP	50	0	1	B	0	L1
NMTTP	50	96	2	B	0	L1
NMTTP	50	192	3	B	0	L1
NMTTP	51	0	6	E	0	L1
NMTTP	51	96	5	B	0	L1
NMTTP	51	192	4	B	0	L1
NMTTP	52	0	2	E	0	L1
NMTTP	52	96	2	B	0	L1
NMTTP	52	192	3	B	0	L1
NMTTP	53	0	7	E	0	L1
NMTTP	53	96	6	B	0	L1
NMTTP	53	192	5	B	0	L1
NMTTP	54	0	1	E	0	L1
NMTTP	54	96	1	B	0	L1
NMTTP	54	192	2	B	0	L1
NMTTP	55	0	5	B	0	L1
NMTTP	55	96	4	B	0	L1
NMTTP	55	192	3	B	0	L1
NMTTP	55	288	2	B	0	L1
NMTTP	56	0	0	C	1	L1
EXTAP	57	0	6
EXTAP	57	0	7
EXTAP	57	144	6
EXTAP	57	144	7
EXTAP	57	288	6
EXTAP	57	288	7
NMTAP	58	192	0
NMTAP	58	288	0
NMSTR	59	0	0
NMSI_	59	0	0	96	192	4
NMTAP	60	0	5
NMTAP	60	192	4
NMTAP	60	192	5
NMSTR	61	0	6
NMSI_	61	0	6	96	192	2
NMTAP	62	0	1
NMTAP	62	192	2
NMTAP	62	192	3
NMSTR	63	0	1
NMSI_	63	0	1	96	192	5
NMTAP	64	0	6
NMTAP	64	192	7
EXTAP	65	0	0
EXTAP	65	0	1
EXTAP	65	144	0
EXTAP	65	144	1
EXTAP	65	288	0
EXTAP	65	288	1
NMTAP	66	192	7
NMTAP	66	288	7
NMSTR	67	0	7
NMSI_	67	0	7	96	192	3
NMTAP	68	0	2
NMTAP	68	192	2
NMTAP	68	192	3
NMSTR	69	0	1
NMSI_	69	0	1	96	192	5
NMTAP	70	0	6
NMTAP	70	192	4
NMTAP	70	192	5
NMSTR	71	0	6
NMSI_	71	0	6	96	192	2
EXTAP	72	0	1
BRTAP	73	0	0
NMTAP	73	96	0
NMTAP	73	192	1
NMTAP	73	288	1
NMTAP	74	0	2
NMTAP	74	0	3
NMTAP	74	96	2
NMTAP	74	96	3
NMTAP	74	192	2
NMTAP	74	192	3
NMTAP	75	0	4
NMTAP	75	96	4
NMTAP	75	192	5
NMTAP	75	288	5
NMTAP	76	0	6
NMTAP	76	0	7
NMTAP	76	96	6
NMTAP	76	96	7
NMTAP	76	192	6
NMTAP	76	192	7
NMTAP	77	0	7
NMTAP	77	96	7
NMTAP	77	192	6
NMTAP	77	288	6
NMTAP	78	0	4
NMTAP	78	0	5
NMTAP	78	96	4
NMTAP	78	96	5
NMTAP	78	192	4
NMTAP	78	192	5
NMTAP	79	0	3
NMTAP	79	96	3
NMTAP	79	192	2
NMTAP	79	288	2
NMTAP	80	0	0
NMTAP	80	0	1
NMTAP	80	96	0
NMTAP	80	96	1
NMTAP	80	192	0
NMTAP	80	192	1
NMHLD	81	0	2	384
NMTAP	82	0	3
NMHLD	83	0	5	384
NMTAP	84	0	4
NMTAP	85	0	6
NMTAP	85	96	6
NMTAP	85	192	7
NMTAP	85	288	7
NMTAP	86	0	0
NMTAP	86	96	0
NMTAP	86	192	1
NMTAP	86	288	1
NMTAP	87	0	0
NMTAP	87	0	7
NMTAP	87	96	0
NMTAP	87	96	7
NMTAP	87	192	1
NMTAP	87	192	6
NMTAP	87	288	1
NMTAP	87	288	6
EXTAP	88	0	2
EXTAP	88	0	5
EXTAP	88	96	2
EXTAP	88	96	5
EXTAP	88	192	3
EXTAP	88	192	4
EXSTR	88	288	3
NMSI_	88	288	3	96	192	0
EXSTR	88	288	4
NMSI_	88	288	4	96	192	7
BXTAP	90	0	0
BXTAP	90	0	6
BXTAP	90	144	0
BXTAP	90	144	6
BXTAP	90	288	0
BXTAP	90	288	6
NMTAP	91	192	7
NMTAP	91	288	7
NMTAP	92	0	6
NMTAP	92	0	7
NMTAP	92	96	6
NMTAP	92	96	7
NMTAP	92	192	5
NMTAP	92	288	5
NMTAP	93	0	4
NMTAP	93	96	3
NMTAP	93	192	2
NMTAP	93	192	3
NMTAP	94	0	1
NMTAP	94	96	1
NMTAP	94	192	2
NMTAP	94	192	3
NMTAP	94	288	2
NMTAP	94	288	3
NMTAP	95	0	4
NMTAP	95	96	4
NMTAP	95	192	4
NMTAP	95	192	5
NMTAP	96	0	6
NMTAP	96	96	6
NMTAP	96	192	0
NMTAP	96	192	7
NMTAP	96	288	0
NMTAP	96	288	7
EXTAP	97	0	1
EXTAP	97	0	6
EXTAP	97	96	1
EXTAP	97	96	6
EXTAP	97	192	1
EXTAP	97	192	6
BXTAP	98	0	1
BXTAP	98	0	7
BXTAP	98	144	1
BXTAP	98	144	7
BXTAP	98	288	1
BXTAP	98	288	7
NMTAP	99	192	0
NMTAP	99	288	0
NMTAP	100	0	0
NMTAP	100	0	1
NMTAP	100	96	0
NMTAP	100	96	1
NMTAP	100	192	2
NMTAP	100	288	2
NMTAP	101	0	3
NMTAP	101	96	4
NMTAP	101	192	4
NMTAP	101	192	5
NMTAP	102	0	6
NMTAP	102	96	6
NMTAP	102	192	4
NMTAP	102	192	5
NMTAP	102	288	4
NMTAP	102	288	5
NMTAP	103	0	3
NMTAP	103	96	3
NMTAP	103	192	2
NMTAP	103	192	3
NMTAP	104	0	1
NMTAP	104	96	1
NMTAP	104	192	0
NMTAP	104	192	7
NMTAP	104	288	0
NMTAP	104	288	7
EXTAP	105	0	1
EXTAP	105	0	6
NMHLD	106	0	5	192
NMTAP	106	192	4
NMHLD	107	0	2	192
NMTAP	107	192	3
NMTAP	108	0	4
NMTAP	108	96	5
NMTAP	108	192	4
NMTAP	108	192	5
NMTAP	109	0	3
NMTAP	109	96	2
NMTAP	109	192	2
NMTAP	109	192	3
NMHLD	110	0	2	192
NMTAP	110	192	3
NMHLD	111	0	5	192
NMTAP	111	192	4
NMTAP	112	0	3
NMTAP	112	96	2
NMTAP	112	192	2
NMTAP	112	192	3
NMTAP	113	0	4
NMTAP	113	0	5
NMTAP	113	96	4
NMTAP	113	96	5
NMTAP	113	192	4
NMTAP	113	192	5
NMTAP	114	0	6
NMTAP	114	96	6
NMTAP	114	192	6
NMTAP	114	192	7
NMTAP	114	288	6
NMTAP	114	288	7
NMTAP	115	0	1
NMTAP	115	96	1
NMTAP	115	192	0
NMTAP	115	192	1
NMTAP	115	288	0
NMTAP	115	288	1
NMTAP	116	0	7
NMTAP	116	96	6
NMTAP	116	192	5
NMTAP	116	288	4
NMTAP	117	0	2
NMTAP	117	0	3
NMTAP	117	96	2
NMTAP	117	96	3
NMTAP	117	192	2
NMTAP	117	192	3
NMTAP	118	0	1
NMTAP	118	96	1
NMTAP	118	192	0
NMTAP	118	192	1
NMTAP	118	288	0
NMTAP	118	288	1
NMTAP	119	0	6
NMTAP	119	96	6
NMTAP	119	192	6
NMTAP	119	192	7
NMTAP	119	288	6
NMTAP	119	288	7
NMTAP	120	0	0
NMTAP	120	96	1
NMTAP	120	192	2
BRSTR	120	288	3
NMSI_	120	288	3	96	192	0
BRSTR	120	288	4
NMSI_	120	288	4	96	192	7

T_REC_TAP	289
T_REC_BRK	1
T_REC_XTP	33
T_REC_BXX	12
T_REC_HLD	16
T_REC_XHO	0
T_REC_BHO	0
T_REC_BXH	0
T_REC_STR	14
T_REC_BST	2
T_REC_XST	2
T_REC_XBS	0
T_REC_TTP	23
T_REC_THO	0
T_REC_SLD	18
T_REC_BSL	0
T_REC_ALL	410
T_NUM_TAP	361
T_NUM_BRK	15
T_NUM_HLD	16
T_NUM_SLD	18
T_NUM_ALL	410
T_JUDGE_TAP	376
T_JUDGE_HLD	88
T_JUDGE_SLD	18
T_JUDGE_ALL	482
TTM_EACHPAIRS	104
TTM_SCR_TAP	180500
TTM_SCR_BRK	39000
TTM_SCR_HLD	16000
TTM_SCR_SLD	27000
TTM_SCR_ALL	262500
TTM_SCR_S	253200
TTM_SCR_SS	261000
TTM_RAT_ACV	10057

