VERSION	0.00.00	1.04.00
FES_MODE	0
BPM_DEF	188.000	188.000	188.000	188.000
MET_DEF	4	4
RESOLUTION	384
CLK_DEF	384
COMPATIBLE_CODE	MA2

BPM	0	0	188.000
MET	0	0	4	4

NMHLD	2	0	3	1440
NMTTP	2	96	5	E	0	M1
NMTTP	2	144	4	E	0	M1
NMTTP	2	288	0	C	0	M1
NMTTP	3	96	5	E	0	M1
NMTTP	3	144	4	E	0	M1
NMTTP	3	288	0	C	0	M1
NMTTP	4	96	5	B	0	M1
NMTTP	4	144	4	E	0	M1
NMTTP	4	288	0	C	0	M1
NMTTP	5	96	5	B	0	M1
NMTTP	5	144	4	E	0	M1
NMTTP	5	288	0	C	0	M1
NMHLD	6	0	1	96
NMHLD	6	0	7	96
NMHLD	6	192	3	96
NMHLD	6	192	6	96
NMHLD	7	0	0	96
NMHLD	7	0	5	96
NMHLD	7	192	2	96
NMHLD	7	192	4	96
NMTAP	8	0	2
NMTAP	8	0	3
NMTAP	8	48	3
NMTAP	8	96	1
NMTAP	8	96	4
NMTAP	8	144	1
NMTAP	8	192	0
NMTAP	8	192	5
NMTAP	8	240	5
NMTAP	8	288	6
NMTAP	8	288	7
NMTAP	8	336	6
NMTAP	8	336	7
NMTAP	9	48	1
NMTAP	9	48	5
NMTAP	9	144	3
NMTAP	9	144	6
NMHLD	9	192	3	48
NMSTR	9	192	6
BRSUL	9	192	6	96	48	2
BXTAP	9	288	2
BXTAP	9	288	6
EXHLD	10	0	1	96
NMTAP	10	96	0
NMTAP	10	144	2
NMTAP	10	192	7
NMTAP	10	240	3
NMTAP	10	288	5
NMHLD	10	336	4	96
NMTAP	11	48	6
NMTAP	11	96	3
NMTAP	11	144	6
NMTAP	11	192	0
NMTAP	11	240	4
NMTAP	11	288	1
NMHLD	11	336	3	96
NMTAP	12	48	2
NMTAP	12	96	5
NMTAP	12	144	2
NMTAP	12	192	7
NMTAP	12	240	3
NMTAP	12	288	6
NMTAP	12	336	3
NMTAP	13	0	4
NMTAP	13	0	5
NMTAP	13	48	5
NMTAP	13	96	2
NMTAP	13	96	4
NMTAP	13	144	2
NMSTR	13	192	3
NMSI_	13	192	3	96	48	7
NMSTR	13	192	4
NMSI_	13	192	4	96	48	7
EXHLD	14	0	6	96
NMTAP	14	96	7
NMTAP	14	144	5
NMTAP	14	192	0
NMTAP	14	240	4
NMTAP	14	288	2
NMHLD	14	336	3	96
NMTAP	15	48	1
NMTAP	15	96	4
NMTAP	15	144	1
NMTAP	15	192	7
NMTAP	15	240	3
NMTAP	15	288	6
NMHLD	15	336	4	96
NMTAP	16	48	5
NMTAP	16	96	2
NMTAP	16	144	5
NMTAP	16	192	0
NMTAP	16	240	4
NMTAP	16	288	1
NMTAP	16	336	2
NMTAP	16	336	3
NMTAP	17	48	2
NMTAP	17	48	5
NMTAP	17	144	0
NMTAP	17	144	7
NMTAP	17	192	1
NMTAP	17	192	6
NMTAP	17	336	4
NMTAP	18	0	3
NMTAP	18	0	5
NMTAP	18	96	3
NMTAP	18	144	4
NMTAP	18	192	3
NMTAP	18	288	5
NMTAP	18	336	5
NMTAP	19	48	3
NMTAP	19	96	4
NMTAP	19	144	3
NMTAP	19	192	2
NMTAP	19	192	5
NMTTP	19	288	5	E	0	M1
NMTTP	19	288	6	E	0	M1
NMTAP	20	0	2
NMTAP	20	0	3
NMTAP	20	96	4
NMTAP	20	144	3
NMTAP	20	192	4
NMTAP	20	288	2
NMTAP	20	336	2
NMTAP	21	48	1
NMTAP	21	48	5
NMTAP	21	144	2
NMHLD	21	192	3	96
NMHLD	21	192	4	96
NMTAP	22	0	3
NMTAP	22	0	6
NMTAP	22	96	3
NMTAP	22	144	4
NMTAP	22	192	3
NMTAP	22	288	6
NMTAP	22	336	6
NMTAP	23	48	4
NMTAP	23	96	5
NMTAP	23	144	4
NMTAP	23	192	3
NMTAP	23	192	6
NMTTP	23	288	5	E	0	M1
NMTTP	23	288	6	E	0	M1
NMTAP	24	0	2
NMTAP	24	0	3
NMTAP	24	96	4
NMTAP	24	144	2
NMTAP	24	192	4
NMTAP	24	288	1
NMTAP	24	288	5
NMTAP	24	336	1
NMTAP	24	336	5
NMTAP	25	48	1
NMTAP	25	48	4
NMTAP	25	96	2
NMTAP	25	144	3
NMTAP	25	144	6
NMSTR	25	192	4
NMSUR	25	192	4	96	96	1
NMSTR	25	192	5
NMSCR	25	192	5	96	96	1
NMTAP	26	96	2
NMSTR	26	144	2
NMSCR	26	144	2	96	48	5
NMTAP	26	240	6
NMTAP	26	288	6
NMTAP	27	0	3
NMTAP	27	0	7
NMTAP	27	96	1
NMTAP	27	96	6
NMTAP	27	144	1
NMSTR	27	144	6
NMSUL	27	144	6	96	48	1
NMTAP	27	240	0
NMTAP	27	288	0
BXTAP	28	0	2
BXTAP	28	0	3
BXTAP	28	96	1
BXTAP	28	96	4
BXTAP	28	144	0
BXTAP	28	144	5
BXTAP	28	192	6
BXTAP	28	192	7
BXTAP	28	288	2
BXTAP	28	288	4
BXHLD	28	336	2	48
BXHLD	28	336	4	48
BXTAP	29	48	3
BXTAP	29	48	7
BXTAP	29	144	1
BXTAP	29	144	5
BXSTR	29	192	1
BRSXL	29	192	1	96	96	3
BXSTR	29	192	5
BRSXL	29	192	5	96	96	7
EXTAP	30	96	2
EXTAP	30	96	4
EXTAP	30	144	2
EXTAP	30	144	4
NMTAP	30	240	1
NMTAP	30	240	5
NMTAP	30	288	2
NMTAP	30	336	3
NMTAP	31	0	4
NMTAP	31	0	5
NMTAP	31	48	6
NMTAP	31	96	3
NMTAP	31	96	7
NMTAP	31	144	2
NMTAP	31	192	0
NMTAP	31	192	1
NMTAP	31	240	7
NMTAP	31	288	2
NMTAP	31	288	6
NMTHO	32	0	0	336	C	0	M1
NMTAP	33	240	0
NMTAP	33	240	7
NMTAP	33	288	0
NMTAP	33	288	7
BRSTR	34	0	1
NMSCR	34	0	1	96	48	3
NMTAP	34	48	1
NMSTR	34	96	0
NMSUR	34	96	0	96	48	4
NMTAP	34	144	0
NMTAP	34	192	7
NMTAP	34	240	7
NMSTR	34	336	0
NMSV_	34	336	0	96	48	3
NMSTR	34	336	6
NMSV_	34	336	6	96	48	3
NMTAP	35	48	0
NMTAP	35	48	6
NMTAP	35	144	4
NMSTR	35	192	1
NMSXL	35	192	1	96	48	3
NMSTR	35	240	6
NMSXR	35	240	6	96	48	4
NMTAP	35	288	1
NMTAP	35	336	6
NMTAP	36	48	2
NMHLD	36	96	2	96
NMTAP	36	144	0
NMHLD	36	192	0	96
NMTAP	36	240	7
NMTAP	36	288	7
NMSTR	36	336	6
NMSCR	36	336	6	96	48	1
NMTAP	37	48	2
NMTAP	37	48	6
EXTAP	37	144	1
EXTAP	37	144	2
EXSTR	37	192	1
NMSI_	37	192	1	96	48	6
EXSTR	37	192	2
NMSI_	37	192	2	96	48	5
NMTAP	38	0	7
NMTAP	38	48	1
NMSTR	38	96	6
NMSI_	38	96	6	96	48	2
NMSTR	38	144	0
NMSI_	38	144	0	96	48	4
BXTAP	38	192	6
BXTAP	38	240	0
EXTAP	38	336	3
EXTAP	38	336	5
NMTAP	39	48	4
NMTAP	39	96	2
NMTAP	39	144	6
NMSTR	39	192	1
NMSI_	39	192	1	96	48	5
NMSTR	39	240	7
NMSI_	39	240	7	96	48	3
BXTAP	39	288	1
BXTAP	39	336	7
NMSTR	40	48	2
NMSCR	40	48	2	96	48	4
NMTAP	40	96	2
NMSTR	40	144	6
NMSCL	40	144	6	96	48	4
NMTAP	40	192	6
NMTAP	40	240	0
NMTAP	40	288	1
EXSTR	40	336	3
NMSI_	40	336	3	96	48	0
EXSTR	40	336	4
NMSI_	40	336	4	96	48	0
NMTAP	41	48	3
NMTAP	41	48	4
NMTAP	41	144	6
NMTAP	41	144	7
NMSTR	41	192	6
NMSCL	41	192	6	96	96	1
NMSTR	41	192	7
NMSUL	41	192	7	96	96	0
BRTAP	42	96	2
BRTAP	42	96	6
NMTAP	42	192	3
NMTAP	42	192	4
NMSTR	42	240	0
BRSI_	42	240	0	96	48	4
NMSTR	42	240	5
BRSI_	42	240	5	96	48	1
BXTAP	42	336	0
BXTAP	42	336	5
NMTTP	42	348	0	C	1	M1
NMSTR	43	48	7
BRSF_	43	48	7	96	48	3
BXTAP	43	144	7
NMTTP	43	156	0	C	1	M1
EXTAP	43	240	1
EXTAP	43	240	5
EXTAP	43	288	1
EXTAP	43	288	5
NMSTR	44	0	2
NMSI_	44	0	2	96	48	7
NMTAP	44	48	2
NMSTR	44	96	4
NMSI_	44	96	4	96	48	7
NMTAP	44	144	4
NMTAP	44	240	0
NMHLD	44	288	0	480
NMTAP	44	336	3
NMTAP	45	0	3
NMTAP	45	48	3
NMTAP	45	96	2
NMTAP	45	144	2
NMSTR	45	192	1
NMSUR	45	192	1	96	48	5
BRSTR	46	0	6
NMSCL	46	0	6	96	48	4
NMTAP	46	48	6
NMSTR	46	96	7
NMSUL	46	96	7	96	48	3
NMTAP	46	144	7
NMTAP	46	192	0
NMTAP	46	240	0
NMSTR	46	336	1
NMSV_	46	336	1	96	48	4
NMSTR	46	336	7
NMSV_	46	336	7	96	48	4
NMTAP	47	48	1
NMTAP	47	48	7
NMTAP	47	144	3
NMSTR	47	192	6
NMSXR	47	192	6	96	48	4
NMSTR	47	240	1
NMSXL	47	240	1	96	48	3
NMTAP	47	288	6
NMTAP	47	336	1
NMTAP	48	48	5
NMTAP	48	96	6
NMTAP	48	96	7
NMTAP	48	144	0
NMTAP	48	192	1
NMTAP	48	192	6
NMTAP	48	240	2
NMTAP	48	288	3
NMTAP	48	288	4
NMSTR	48	336	3
NMSI_	48	336	3	96	48	7
NMSTR	48	336	4
NMSI_	48	336	4	96	48	0
BRTAP	49	48	3
BRTAP	49	48	4
BRTAP	49	144	1
BRTAP	49	144	6
BRTAP	49	192	1
BRTAP	49	192	6
EXHLD	50	0	1	72
NMHLD	50	72	2	72
NMTAP	50	144	3
EXHLD	50	192	5	72
NMHLD	50	264	4	72
NMTAP	50	336	3
EXHLD	51	0	2	72
NMHLD	51	72	3	72
NMTAP	51	144	4
EXTAP	51	192	2
EXTAP	51	192	5
NMTAP	51	288	4
NMHLD	51	336	4	384
NMTTP	52	48	4	E	0	M1
NMTAP	52	144	5
NMTAP	52	192	5
NMTAP	52	288	3
NMHLD	52	336	3	336
NMTTP	53	48	4	E	0	M1
NMTAP	53	144	2
NMTAP	53	192	2
NMTAP	53	288	4
NMHLD	53	336	4	240
NMTTP	54	48	4	E	0	M1
NMTAP	54	144	5
NMTAP	54	192	5
EXTAP	54	288	3
EXTAP	54	288	6
EXTAP	54	336	3
EXTAP	54	336	6
NMTTP	55	48	0	A	0	M1
NMTTP	55	48	1	A	0	M1
NMTTP	55	48	1	D	0	M1
NMTTP	55	144	6	A	0	M1
NMTTP	55	144	6	D	0	M1
NMTTP	55	144	7	D	0	M1
NMTTP	55	240	2	A	0	M1
NMTTP	55	240	2	D	0	M1
NMTTP	55	240	3	D	0	M1
NMHLD	55	336	4	384
NMTTP	56	48	0	C	0	M1
NMTAP	56	144	5
NMTAP	56	192	5
NMTAP	56	288	3
NMHLD	56	336	3	336
NMTTP	57	48	0	C	0	M1
NMTAP	57	144	2
NMTAP	57	192	2
NMTAP	57	288	4
NMHLD	57	336	4	240
NMTTP	58	48	0	C	0	M1
NMTAP	58	144	5
NMTAP	58	192	5
EXTAP	58	288	3
EXTAP	58	288	6
EXTAP	58	336	3
EXTAP	58	336	6
NMTTP	59	48	0	A	0	M1
NMTTP	59	48	0	D	0	M1
NMTTP	59	48	1	D	0	M1
NMTTP	59	144	6	A	0	M1
NMTTP	59	144	7	A	0	M1
NMTTP	59	144	7	D	0	M1
NMTTP	59	240	1	A	0	M1
NMTTP	59	240	1	D	0	M1
NMTTP	59	240	2	D	0	M1
NMTTP	59	336	5	A	0	M1
NMTTP	59	336	6	A	0	M1
NMTTP	59	336	6	D	0	M1
NMTTP	60	48	2	A	0	M1
NMTTP	60	48	2	D	0	M1
NMTTP	60	48	3	D	0	M1
NMTTP	60	144	4	A	0	M1
NMTTP	60	144	5	A	0	M1
NMTTP	60	144	5	D	0	M1
NMTTP	60	240	3	A	0	M1
NMTTP	60	240	3	D	0	M1
NMTTP	60	336	4	D	0	M1
BXTAP	61	192	3
BXTAP	61	216	4
BXTAP	61	240	2
BXTAP	61	264	5
BXTAP	61	288	1
BXTAP	61	312	6
BXTAP	61	336	0
BXTAP	61	360	7
EXHLD	62	0	0	96
NMTAP	62	96	6
NMSTR	62	144	6
NMSCL	62	144	6	96	48	3
NMTAP	62	240	7
NMSTR	62	288	7
NMSI_	62	288	7	96	48	3
NMHLD	63	0	0	96
NMTAP	63	96	1
NMSTR	63	144	1
NMSCR	63	144	1	96	48	4
NMTAP	63	240	0
NMSTR	63	288	0
NMSI_	63	288	0	96	48	4
NMHLD	64	0	7	96
NMTAP	64	96	6
NMSTR	64	144	6
NMSI_	64	144	6	96	48	2
NMSTR	64	240	7
NMSI_	64	240	7	96	48	3
NMTAP	64	336	4
NMTAP	65	48	2
NMTAP	65	48	6
NMTAP	65	144	0
NMTAP	65	144	4
NMSTR	65	192	0
NMSXL	65	192	0	96	96	2
NMSTR	65	192	4
NMSXL	65	192	4	96	96	6
EXTAP	66	96	3
EXTAP	66	96	5
EXTAP	66	144	3
EXTAP	66	144	5
NMTAP	66	240	2
NMTAP	66	240	6
NMTAP	66	288	5
NMTAP	66	336	4
NMTAP	67	0	2
NMTAP	67	0	3
NMTAP	67	48	1
NMTAP	67	96	0
NMTAP	67	96	4
NMTAP	67	144	5
NMTAP	67	192	6
NMTAP	67	192	7
NMTAP	67	240	0
NMTAP	67	288	1
NMTAP	67	288	5
NMTHO	68	0	0	576	C	0	M1
EXSTR	70	0	2
NMSCR	70	0	2	96	48	4
EXHLD	70	0	6	672
EXSTR	70	192	4
NMSCL	70	192	4	96	48	2
EXSTR	71	0	2
NMSCR	71	0	2	96	48	4
CNSI_	71	144	4	0	48	1
EXTAP	71	288	1
EXHLD	72	0	1	672
EXSTR	72	0	5
NMSCL	72	0	5	96	48	3
EXSTR	72	192	3
NMSCR	72	192	3	96	48	5
EXSTR	73	0	5
NMSCL	73	0	5	96	48	3
EXTAP	73	192	3
EXTAP	73	240	3
EXTAP	73	288	3
EXSTR	74	0	3
NMSCR	74	0	3	96	48	5
EXHLD	74	0	6	672
EXSTR	74	192	5
NMSCL	74	192	5	96	48	3
EXSTR	75	0	3
NMSCR	75	0	3	96	48	5
CNSI_	75	144	5	0	48	2
EXTAP	75	288	2
NMSTR	76	0	5
NMSI_	76	0	5	96	48	1
NMTAP	76	96	1
NMTAP	76	144	2
NMSTR	76	192	2
NMSI_	76	192	2	96	48	6
NMTAP	76	288	6
NMTAP	76	336	5
NMSTR	77	0	5
NMSI_	77	0	5	96	48	2
NMTAP	77	96	2
NMTAP	77	144	1
NMTAP	77	192	0
NMTAP	77	288	0
NMTAP	77	288	7
NMHLD	77	336	0	288
NMHLD	77	336	7	288
NMTTP	79	48	7	E	0	M1
NMTTP	79	96	7	B	0	M1
NMTTP	79	144	0	B	0	M1
NMTTP	79	240	4	B	0	M1
NMTTP	79	288	3	B	0	M1
NMTTP	79	336	3	E	0	M1
NMTTP	80	48	0	E	0	M1
NMTTP	80	96	0	B	0	M1
NMTTP	80	144	1	B	0	M1
NMTTP	80	240	6	E	0	M1
NMTTP	80	288	5	B	0	M1
NMTTP	80	336	4	B	0	M1
NMTTP	81	48	3	E	0	M1
NMTTP	81	96	4	E	0	M1
NMTTP	81	144	5	E	0	M1
NMTTP	81	240	2	B	0	M1
NMTTP	81	288	3	B	0	M1
NMTTP	81	336	4	B	0	M1
NMTTP	82	48	1	B	0	M1
NMTTP	82	96	0	C	0	M1
NMTTP	82	144	6	B	0	M1
EXTAP	82	240	0
EXTAP	82	288	0
NMTAP	83	0	0
NMTAP	83	0	1
NMTAP	83	48	7
NMTAP	83	96	0
NMTAP	83	96	1
NMTAP	83	144	2
NMTAP	83	192	0
NMTAP	83	192	1
NMTAP	83	240	7
NMTAP	83	288	2
NMTAP	83	288	6
NMTAP	84	0	4
NMTAP	84	0	5
NMTAP	84	48	3
NMTAP	84	96	4
NMTAP	84	96	5
NMTAP	84	144	6
NMTAP	84	192	4
NMTAP	84	192	5
NMTAP	84	240	3
NMTAP	84	288	2
NMTAP	84	288	6
NMTAP	85	0	2
NMTAP	85	0	3
NMTAP	85	48	2
NMTAP	85	48	3
NMTAP	85	96	1
NMTAP	85	96	4
NMTAP	85	144	1
NMTAP	85	144	4
NMTAP	85	192	0
NMTAP	85	192	5
NMTAP	85	240	6
NMTAP	85	264	7
NMTAP	85	288	6
NMTAP	85	312	7
NMTAP	85	336	6
NMTAP	86	48	0
NMTAP	86	48	5
NMTAP	86	144	2
NMTAP	86	144	6
NMSTR	86	192	2
NMSCR	86	192	2	96	48	4
NMSTR	86	192	6
NMSCL	86	192	6	96	48	4
EXTAP	87	0	3
EXTAP	87	0	5
NMTAP	87	48	2
NMTAP	87	72	3
NMTAP	87	96	2
NMTAP	87	144	1
NMTAP	87	144	5
NMTAP	87	192	2
NMTAP	87	192	6
NMSTR	87	240	5
BRSUL	87	240	5	96	48	1
NMTAP	87	264	4
NMTAP	87	288	5
BXTAP	87	336	0
BXTAP	87	336	5
NMTAP	88	48	0
NMTAP	88	96	7
NMTAP	88	144	2
NMSTR	88	192	6
NMSXR	88	192	6	96	48	4
NMSTR	88	240	1
NMSXL	88	240	1	96	48	3
NMTAP	88	288	6
NMTAP	88	336	1
NMTAP	89	48	5
NMHLD	89	96	5	96
NMTAP	89	144	7
NMHLD	89	192	7	96
NMTAP	89	240	0
NMTAP	89	288	0
NMSTR	89	336	1
NMSCL	89	336	1	96	48	6
NMTAP	90	48	1
NMTAP	90	48	5
EXTAP	90	144	5
EXTAP	90	144	6
EXSTR	90	192	5
NMSI_	90	192	5	96	48	2
EXSTR	90	192	6
NMSI_	90	192	6	96	48	1
NMTAP	91	0	0
NMTAP	91	48	6
NMSTR	91	96	1
NMSI_	91	96	1	96	48	5
NMSTR	91	144	7
NMSI_	91	144	7	96	48	3
BXTAP	91	192	1
BXTAP	91	240	7
EXTAP	91	336	2
EXTAP	91	336	4
NMTAP	92	48	3
NMTAP	92	96	5
NMTAP	92	144	1
NMSTR	92	192	6
NMSI_	92	192	6	96	48	2
NMSTR	92	240	0
NMSI_	92	240	0	96	48	4
BXTAP	92	288	6
BXTAP	92	336	0
NMSTR	93	48	5
NMSCL	93	48	5	96	48	3
NMTAP	93	96	5
NMSTR	93	144	1
NMSCR	93	144	1	96	48	3
NMTAP	93	192	1
NMTAP	93	240	7
NMTAP	93	288	6
EXSTR	93	336	3
NMSI_	93	336	3	96	48	7
EXSTR	93	336	4
NMSI_	93	336	4	96	48	7
NMTAP	94	48	3
NMTAP	94	48	4
NMTAP	94	144	0
NMTAP	94	144	1
NMSTR	94	192	0
NMSUR	94	192	0	96	96	7
NMSTR	94	192	1
NMSCR	94	192	1	96	96	6
BRTAP	95	96	1
BRTAP	95	96	5
NMTAP	95	192	3
NMTAP	95	192	4
NMSTR	95	240	2
BRSI_	95	240	2	96	48	6
NMSTR	95	240	7
BRSI_	95	240	7	96	48	3
BXTAP	95	336	2
BXTAP	95	336	7
NMTTP	95	348	0	C	1	M1
NMSTR	96	48	0
BRSF_	96	48	0	96	48	4
BXTAP	96	144	0
NMTTP	96	156	0	C	1	M1
EXTAP	96	240	2
EXTAP	96	240	6
EXTAP	96	288	2
EXTAP	96	288	6
NMSTR	97	0	5
NMSI_	97	0	5	96	48	0
NMTAP	97	48	5
NMSTR	97	96	3
NMSI_	97	96	3	96	48	0
NMTAP	97	144	3
NMTAP	97	240	7
NMHLD	97	288	7	480
NMTAP	97	336	4
NMTAP	98	0	4
NMTAP	98	48	4
NMTAP	98	96	5
NMTAP	98	144	5
NMSTR	98	192	6
NMSUL	98	192	6	96	48	2
BRSTR	99	0	1
NMSI_	99	0	1	96	48	3
NMTAP	99	48	1
NMSTR	99	96	0
NMSI_	99	96	0	96	48	4
NMTAP	99	144	0
NMTAP	99	192	7
NMTAP	99	240	7
NMTAP	99	336	0
NMTAP	99	336	6
NMTAP	100	48	1
NMTAP	100	48	7
NMTAP	100	96	2
NMTAP	100	96	6
NMTAP	100	144	3
NMTAP	100	144	5
NMSTR	100	192	1
NMSXL	100	192	1	96	48	3
NMSTR	100	240	6
NMSXR	100	240	6	96	48	4
NMTAP	100	288	1
NMTAP	100	336	6
NMTAP	101	48	2
NMTAP	101	96	0
NMTAP	101	96	1
NMTAP	101	144	7
NMTAP	101	192	1
NMTAP	101	192	6
NMTAP	101	240	5
NMTAP	101	288	3
NMTAP	101	288	4
NMTAP	101	336	2
NMTAP	101	336	5
NMTAP	102	48	1
BRTAP	102	48	5
NMTAP	102	96	1
BRTAP	102	96	5
NMTAP	102	144	3
BRTAP	102	144	7
NMSTR	102	192	3
NMSI_	102	192	3	96	48	0
BRSTR	102	192	7
NMSI_	102	192	7	96	48	4
NMSTR	103	0	7
NMSCR	103	0	7	96	96	3
NMSTR	103	96	3
NMSCR	103	96	3	96	96	7
NMSTR	103	192	7
NMSI_	103	192	7	96	48	3
NMSI_	103	192	7	96	48	3
CNSI_	103	336	3	0	48	1
CNSI_	103	336	3	0	48	5
NMTTP	104	48	7	A	0	M1
NMTTP	104	60	7	E	0	M1
NMTTP	104	72	6	E	0	M1
NMTTP	104	96	1	A	0	M1
NMTTP	104	108	2	E	0	M1
NMTTP	104	120	3	E	0	M1
NMTTP	104	144	0	B	0	M1
NMTTP	104	156	0	C	0	M1
NMTTP	104	240	6	A	0	M1
NMTTP	104	252	6	E	0	M1
NMTTP	104	264	5	B	0	M1
NMTTP	104	288	0	A	0	M1
NMTTP	104	300	1	E	0	M1
NMTTP	104	312	1	B	0	M1
NMTTP	104	336	7	A	0	M1
NMTTP	104	348	7	B	0	M1
NMSTR	105	0	0
NMSCL	105	0	0	96	96	4
NMSTR	105	96	4
NMSCL	105	96	4	96	96	0
NMSTR	105	192	0
NMSI_	105	192	0	96	48	4
NMSI_	105	192	0	96	48	4
CNSI_	105	336	4	0	48	2
CNSI_	105	336	4	0	48	6
NMTTP	106	48	0	A	0	M1
NMTTP	106	60	1	E	0	M1
NMTTP	106	72	2	E	0	M1
NMTTP	106	96	6	A	0	M1
NMTTP	106	108	6	E	0	M1
NMTTP	106	120	5	E	0	M1
NMTTP	106	144	7	B	0	M1
NMTTP	106	156	0	C	0	M1
NMTTP	106	240	1	A	0	M1
NMTTP	106	252	2	E	0	M1
NMTTP	106	264	2	B	0	M1
NMTTP	106	288	7	A	0	M1
NMTTP	106	300	7	E	0	M1
NMTTP	106	312	6	B	0	M1
NMTTP	106	336	0	A	0	M1
NMTTP	106	348	0	B	0	M1
NMSTR	107	0	7
NMSCR	107	0	7	96	96	3
NMSTR	107	96	3
NMSCR	107	96	3	96	96	7
NMSTR	107	192	7
NMSI_	107	192	7	96	48	3
NMSI_	107	192	7	96	48	3
CNSI_	107	336	3	0	48	1
CNSI_	107	336	3	0	48	5
NMTTP	108	48	7	A	0	M1
NMTTP	108	60	7	E	0	M1
NMTTP	108	72	6	E	0	M1
NMTTP	108	96	1	A	0	M1
NMTTP	108	108	2	E	0	M1
NMTTP	108	120	3	E	0	M1
NMTTP	108	144	0	B	0	M1
NMTTP	108	156	0	C	0	M1
NMTTP	108	240	6	A	0	M1
NMTTP	108	252	6	E	0	M1
NMTTP	108	264	5	B	0	M1
NMTTP	108	288	0	A	0	M1
NMTTP	108	300	1	E	0	M1
NMTTP	108	312	1	B	0	M1
NMTTP	108	336	7	A	0	M1
NMTTP	108	348	7	B	0	M1
NMSTR	109	0	0
NMSCL	109	0	0	96	96	4
NMSTR	109	96	4
NMSCL	109	96	4	96	96	0
NMSTR	109	192	0
NMSI_	109	192	0	96	48	4
NMSI_	109	192	0	96	48	4
CNSI_	109	336	4	0	48	2
CNSI_	109	336	4	0	48	6
NMTTP	110	48	1	B	0	M1
NMTTP	110	48	1	A	0	M1
NMTTP	110	96	7	B	0	M1
NMTTP	110	96	7	A	0	M1
NMTTP	110	144	2	B	0	M1
NMTTP	110	144	2	A	0	M1
NMTTP	110	192	5	B	0	M1
NMTTP	110	192	5	A	0	M1
NMTTP	110	240	0	B	0	M1
NMTTP	110	240	0	A	0	M1
NMTTP	110	288	6	B	0	M1
NMTTP	110	288	6	A	0	M1
NMTTP	110	336	3	B	0	M1
NMTTP	110	336	3	A	0	M1
NMTHO	111	0	0	96	C	1	M1
BRTAP	111	96	1
NMTAP	111	192	0
NMTAP	111	192	7
NMTAP	111	240	7
NMTAP	111	288	0
NMTAP	111	288	6
NMTAP	111	336	6
NMTAP	112	0	0
NMTAP	112	0	5
NMTAP	112	48	5
NMTAP	112	96	0
NMTAP	112	96	4
NMTAP	112	144	4
NMSTR	112	192	0
NMSI_	112	192	0	96	48	4
NMSTR	112	192	3
NMSI_	112	192	3	96	48	7
EXTAP	113	0	4
EXTAP	113	0	7
NMTAP	113	48	4
NMTAP	113	96	3
NMTAP	113	96	7
NMTAP	113	144	3
NMTAP	113	192	2
NMTAP	113	192	7
NMTAP	113	240	2
NMTAP	113	288	1
NMTAP	113	288	7
NMTAP	113	336	1
NMSTR	114	0	0
NMSI_	114	0	0	96	48	4
NMSTR	114	0	7
NMSI_	114	0	7	96	48	3
NMTAP	114	192	2
NMTAP	114	192	5
NMTAP	114	240	1
NMTAP	114	240	6
NMTAP	114	288	0
NMTAP	114	288	7
NMHLD	115	0	2	96
BXTAP	115	48	3
NMHLD	115	96	4	96
BXTAP	115	144	3
NMHLD	115	192	1	96
BXTAP	115	240	3
NMHLD	115	288	5	96
BXTAP	115	336	3
NMHLD	116	0	0	96
BXTAP	116	48	3
NMHLD	116	96	6	96
BXTAP	116	144	3
NMTAP	116	192	7
NMTAP	116	240	0
NMTAP	116	240	6
NMTAP	116	288	1
NMTAP	116	288	5
NMTAP	116	336	2
NMTAP	116	336	4
NMTAP	117	0	3
NMTAP	117	24	4
NMTAP	117	48	3
NMTAP	117	72	4
NMTAP	117	96	2
NMTAP	117	120	5
NMTAP	117	144	2
NMTAP	117	168	5
NMTAP	117	192	1
NMTAP	117	216	6
NMTAP	117	240	1
NMTAP	117	264	6
NMTAP	117	288	0
NMTAP	117	312	7
NMSTR	117	336	0
NMSF_	117	336	0	96	48	4
NMTAP	118	48	0
BRTAP	118	144	2
BRTAP	118	144	6
BRTAP	118	192	2
BRTAP	118	192	6

T_REC_TAP	416
T_REC_BRK	18
T_REC_XTP	45
T_REC_BXX	46
T_REC_HLD	41
T_REC_XHO	9
T_REC_BHO	0
T_REC_BXH	2
T_REC_STR	86
T_REC_BST	4
T_REC_XST	17
T_REC_XBS	2
T_REC_TTP	139
T_REC_THO	3
T_REC_SLD	103
T_REC_BSL	10
T_REC_ALL	941
T_NUM_TAP	703
T_NUM_BRK	82
T_NUM_HLD	53
T_NUM_SLD	103
T_NUM_ALL	941
T_JUDGE_TAP	773
T_JUDGE_HLD	238
T_JUDGE_SLD	113
T_JUDGE_ALL	1124
TTM_EACHPAIRS	163
TTM_SCR_TAP	351500
TTM_SCR_BRK	213200
TTM_SCR_HLD	53000
TTM_SCR_SLD	154500
TTM_SCR_ALL	772200
TTM_SCR_S	741100
TTM_SCR_SS	764000
TTM_RAT_ACV	10107

