VERSION	0.00.00	1.04.00
FES_MODE	0
BPM_DEF	188.000	188.000	188.000	188.000
MET_DEF	4	4
RESOLUTION	384
CLK_DEF	384
COMPATIBLE_CODE	MA2

BPM	0	0	188.000
MET	0	0	4	4

NMTAP	2	0	4
NMTAP	2	96	4
NMTAP	2	192	3
NMHLD	2	192	5	96
NMTAP	2	288	4
NMTAP	3	0	3
NMTAP	3	96	3
NMHLD	3	192	2	96
NMTAP	3	192	4
NMTAP	3	288	3
NMTAP	4	0	4
NMTAP	4	96	4
NMTAP	4	192	3
NMTAP	4	288	3
NMTAP	5	0	2
NMTAP	5	0	4
NMTAP	5	96	1
NMTAP	5	96	5
NMTAP	5	192	1
NMTAP	5	192	5
EXTAP	6	0	3
NMTAP	6	96	3
EXHLD	6	192	2	96
EXTAP	6	192	4
NMTAP	6	288	3
EXTAP	7	0	4
NMTAP	7	96	4
EXTAP	7	192	3
EXHLD	7	192	5	96
NMTAP	7	288	4
EXTAP	8	0	3
EXTAP	8	96	3
EXTAP	8	192	4
EXTAP	8	288	4
NMTAP	9	0	3
NMTAP	9	0	5
NMTAP	9	96	2
NMTAP	9	96	6
NMTAP	9	192	1
NMTAP	9	192	7
BXTAP	9	288	0
NMHLD	10	0	6	96
NMTAP	10	96	4
NMHLD	10	192	1	96
NMTAP	10	288	3
NMHLD	11	0	6	96
NMHLD	11	96	4	96
NMHLD	11	192	3	96
NMHLD	11	288	1	96
NMTAP	12	0	7
NMTAP	12	96	7
NMTAP	12	192	0
NMSTR	12	288	6
NMSI_	12	288	6	96	96	3
CNSI_	13	96	3	0	96	7
CNSI_	13	192	7	0	96	2
NMHLD	14	0	1	96
NMTAP	14	96	3
NMHLD	14	192	6	96
NMTAP	14	288	4
NMHLD	15	0	1	96
NMHLD	15	96	3	96
NMHLD	15	192	4	96
NMHLD	15	288	6	96
NMTAP	16	0	0
NMTAP	16	96	0
NMTAP	16	192	7
NMSTR	16	288	1
NMSI_	16	288	1	96	96	4
CNSLR	17	96	4	0	192	3
NMTAP	18	0	1
NMTAP	18	0	3
NMTAP	18	96	1
NMTAP	18	96	3
NMTTP	18	192	2	B	0	M1
NMTTP	18	192	2	E	0	M1
NMTTP	18	192	2	D	0	M1
NMTTP	18	192	3	E	0	M1
NMTAP	19	0	4
NMTAP	19	0	6
NMTAP	19	96	4
NMTAP	19	96	6
NMTTP	19	192	5	B	0	M1
NMTTP	19	192	5	E	0	M1
NMTTP	19	192	6	E	0	M1
NMTTP	19	192	6	D	0	M1
NMTAP	20	0	0
NMTAP	20	96	0
NMTAP	20	192	7
NMTAP	20	288	7
EXHLD	21	0	0	96
EXHLD	21	96	7	96
EXTAP	21	192	0
NMTAP	22	0	4
NMTAP	22	0	6
NMTAP	22	96	4
NMTAP	22	96	6
NMTTP	22	192	5	B	0	M1
NMTTP	22	192	5	E	0	M1
NMTTP	22	192	6	E	0	M1
NMTTP	22	192	6	D	0	M1
NMTAP	23	0	1
NMTAP	23	0	3
NMTAP	23	96	1
NMTAP	23	96	3
NMTTP	23	192	2	B	0	M1
NMTTP	23	192	2	E	0	M1
NMTTP	23	192	2	D	0	M1
NMTTP	23	192	3	E	0	M1
NMTAP	24	0	7
NMTAP	24	96	7
NMTAP	24	192	0
NMTAP	24	288	0
EXHLD	25	0	7	96
EXHLD	25	96	0	96
BXHLD	25	192	7	96
BXTAP	25	288	0
NMTAP	26	0	1
NMTAP	26	96	2
NMTAP	26	192	3
NMTAP	26	288	2
NMTAP	26	288	4
NMTAP	27	0	5
NMTAP	27	96	6
NMTAP	27	192	0
NMTAP	27	192	7
NMTAP	27	288	0
NMTAP	27	288	7
BXTAP	28	0	6
BXTAP	28	96	5
BXTAP	28	192	4
BXTAP	28	288	3
BXTAP	29	0	2
BXTAP	29	96	1
BXTAP	29	192	0
BXTAP	29	192	7
NMHLD	30	0	3	96
NMHLD	30	0	6	96
NMHLD	30	192	1	96
NMHLD	30	192	4	96
NMHLD	31	0	3	96
NMHLD	31	0	5	96
NMTAP	31	192	2
NMTAP	31	192	4
NMTAP	31	288	2
NMSTR	31	288	4
BRSXL	31	288	4	96	336	4
BRSXR	31	288	4	96	336	4
NMTAP	33	240	0
NMTAP	33	240	7
NMTAP	33	288	0
NMTAP	33	288	7
NMTAP	34	0	1
NMTAP	34	48	1
NMTAP	34	96	3
NMTAP	34	192	0
NMTAP	34	192	4
NMTAP	34	240	0
NMTAP	34	240	4
NMHLD	34	336	6	96
NMHLD	35	48	4	96
NMTAP	35	144	3
NMTAP	35	192	3
NMTAP	35	288	2
NMTAP	35	288	5
NMHLD	36	0	1	192
NMTAP	36	96	3
NMHLD	36	192	6	96
NMTAP	36	288	4
NMTAP	36	336	4
NMTAP	37	48	3
NMTAP	37	48	5
NMTAP	37	144	1
NMTAP	37	144	7
BRTAP	37	192	1
BRTAP	37	192	7
EXTAP	37	288	2
EXTAP	37	288	4
NMTAP	38	0	6
NMTAP	38	48	6
NMTAP	38	96	4
NMTAP	38	192	3
NMTAP	38	192	7
NMTAP	38	240	3
NMTAP	38	240	7
NMHLD	38	336	1	96
NMHLD	39	48	3	96
NMTAP	39	144	4
NMTAP	39	192	4
NMTAP	39	288	3
NMTAP	39	288	5
NMHLD	40	0	6	192
NMTAP	40	96	4
NMHLD	40	192	1	96
NMTAP	40	288	3
NMTAP	40	336	3
NMTAP	41	48	3
NMTAP	41	48	4
NMTAP	41	144	2
NMTAP	41	144	5
BXSTR	41	192	2
BRSCL	41	192	2	96	48	0
BXSTR	41	192	5
BRSCR	41	192	5	96	48	7
BXTAP	42	96	0
BXTAP	42	96	7
NMTAP	42	192	3
NMTAP	42	192	4
NMTAP	42	240	3
NMTAP	42	240	4
BXTAP	42	336	1
BXTAP	42	336	6
BXTAP	43	48	0
BXTAP	43	48	7
BXTAP	43	144	0
BXTAP	43	144	7
NMTAP	43	240	2
NMTAP	43	240	5
NMTAP	43	288	2
NMHLD	43	288	5	192
NMTAP	44	0	4
NMHLD	44	96	2	192
NMTAP	44	192	3
NMTAP	44	288	4
NMTAP	45	0	2
NMTAP	45	0	5
NMTAP	45	48	2
NMTAP	45	48	5
NMTAP	45	96	2
NMTAP	45	96	5
NMTTP	45	192	3	B	0	M1
NMTTP	45	192	3	E	0	M1
NMTTP	45	192	3	D	0	M1
NMTTP	45	192	4	B	0	M1
NMTTP	45	192	5	E	0	M1
NMTTP	45	192	5	D	0	M1
NMTAP	46	0	1
NMTAP	46	48	1
NMTAP	46	96	3
NMTAP	46	192	0
NMTAP	46	192	4
NMTAP	46	240	0
NMTAP	46	240	4
NMHLD	46	336	6	96
NMHLD	47	48	4	96
NMTAP	47	144	3
NMTAP	47	192	3
NMTAP	47	288	2
NMTAP	47	288	5
NMHLD	48	0	1	192
NMTAP	48	96	3
NMHLD	48	192	6	96
NMTAP	48	288	4
NMTAP	48	336	4
NMTAP	49	48	3
NMTAP	49	48	5
NMTAP	49	144	1
NMTAP	49	144	7
BRTAP	49	192	1
BRTAP	49	192	7
NMSTR	50	0	0
NMSI_	50	0	0	96	96	6
CNSI_	50	192	6	0	96	1
CNSI_	50	288	1	0	96	5
CNSI_	51	0	5	0	96	2
CNSI_	51	96	2	0	96	4
EXTAP	51	288	4
EXTAP	51	288	5
EXTAP	51	336	4
EXTAP	51	336	5
NMTAP	52	48	5
NMTAP	52	48	6
NMTAP	52	144	7
NMTAP	52	192	7
NMTAP	52	288	2
NMTAP	52	288	3
NMTAP	52	336	2
NMTAP	52	336	3
NMTAP	53	48	1
NMTAP	53	48	2
NMTAP	53	144	0
NMTAP	53	192	0
NMTAP	53	288	3
NMTAP	53	288	4
NMTAP	53	336	3
NMTAP	53	336	4
NMTAP	54	48	2
NMTAP	54	48	5
NMTAP	54	144	1
NMTAP	54	144	6
NMTAP	54	192	1
NMTAP	54	192	6
NMTAP	54	288	0
NMTAP	54	288	7
BXHLD	54	336	0	48
BXHLD	54	336	7	48
BXHLD	55	48	1	48
BXHLD	55	48	6	48
BXHLD	55	144	2	48
BXHLD	55	144	5	48
BXTAP	55	240	3
BXTAP	55	240	4
NMTAP	55	336	2
NMTAP	55	336	3
NMTAP	56	48	1
NMTAP	56	48	2
NMTAP	56	144	0
NMTAP	56	192	0
NMTAP	56	288	4
NMTAP	56	288	5
NMTAP	56	336	4
NMTAP	56	336	5
NMTAP	57	48	5
NMTAP	57	48	6
NMTAP	57	144	7
NMTAP	57	192	7
NMTAP	57	288	3
NMTAP	57	288	4
NMTAP	57	336	3
NMTAP	57	336	4
NMTAP	58	48	2
NMTAP	58	48	5
NMTAP	58	144	1
NMTAP	58	144	6
NMTAP	58	192	1
NMTAP	58	192	6
NMTAP	58	288	0
NMTAP	58	288	7
BXHLD	58	336	0	48
BXHLD	58	336	7	48
BXHLD	59	48	1	48
BXHLD	59	48	6	48
BXHLD	59	144	2	48
BXHLD	59	144	5	48
BXHLD	59	240	3	48
BXHLD	59	240	4	48
BXHLD	59	336	3	48
BXHLD	59	336	5	48
BXHLD	60	48	2	48
BXHLD	60	48	6	48
BXHLD	60	144	1	48
BXHLD	60	144	5	48
BXHLD	60	240	0	48
BXHLD	60	240	6	48
BXTAP	60	336	1
BXTAP	60	336	7
EXTAP	61	192	0
EXTAP	61	288	2
EXTAP	61	288	6
EXTAP	62	0	2
EXTAP	62	0	6
NMTAP	62	96	5
NMTAP	62	192	4
NMTAP	62	288	3
NMTAP	62	288	5
NMTAP	63	0	2
NMTAP	63	96	1
NMTAP	63	96	3
NMTAP	63	192	1
NMTAP	63	192	3
NMTAP	63	288	0
NMTAP	63	288	4
NMHLD	64	0	2	96
NMHLD	64	96	3	96
NMHLD	64	192	4	96
NMHLD	64	288	5	96
NMHLD	65	0	6	96
NMHLD	65	96	7	96
NMTAP	65	192	0
EXTAP	65	288	1
NMTAP	66	0	2
NMTAP	66	0	4
NMTAP	66	96	5
NMTAP	66	192	4
NMTAP	66	192	6
NMTAP	66	288	4
NMTAP	66	288	6
NMTAP	67	0	3
NMTAP	67	0	7
NMTAP	67	96	1
NMTAP	67	144	1
NMTAP	67	192	3
NMSTR	67	288	0
BRSXL	67	288	0	96	336	0
BRSXR	67	288	0	96	336	0
NMTAP	67	288	6
NMTAP	69	144	7
NMTAP	69	192	7
NMTAP	69	288	1
NMTAP	69	288	6
NMTAP	70	0	2
NMTAP	70	0	4
NMSTR	70	96	2
NMSI_	70	96	2	96	96	5
NMTAP	70	96	4
NMHLD	71	0	6	96
NMTAP	71	96	4
NMTAP	71	192	2
NMTAP	71	240	2
NMTAP	71	288	4
NMTAP	72	0	3
NMTAP	72	0	5
NMTAP	72	96	3
NMSTR	72	96	5
NMSI_	72	96	5	96	96	2
NMHLD	73	0	1	96
NMTAP	73	96	3
NMTAP	73	192	5
NMTAP	73	240	5
NMTAP	73	288	3
NMTAP	74	0	2
NMTAP	74	0	4
NMSTR	74	96	2
NMSV_	74	96	2	96	96	5
NMTAP	74	96	4
NMHLD	75	0	6	96
NMTAP	75	96	4
NMTAP	75	192	2
NMTAP	75	240	2
NMTAP	75	288	4
NMTAP	76	0	3
NMTAP	76	0	5
NMTAP	76	96	3
NMSTR	76	96	5
NMSV_	76	96	5	96	96	2
NMHLD	77	0	1	96
NMTAP	77	96	3
NMTAP	77	144	3
NMTAP	77	240	2
NMTAP	77	240	4
NMHLD	77	336	2	336
NMHLD	77	336	4	2256
NMTTP	79	96	3	A	0	M1
NMTTP	79	288	4	E	0	M1
NMTTP	80	96	3	B	0	M1
NMTTP	80	288	3	E	0	M1
NMTTP	81	96	3	A	0	M1
NMTTP	81	288	4	E	0	M1
NMTTP	82	96	3	B	0	M1
NMTTP	82	288	3	E	0	M1
EXTAP	83	0	3
EXTAP	83	96	3
EXTAP	83	192	3
EXTAP	83	288	3
EXTAP	84	0	3
EXTAP	84	0	4
EXTAP	84	96	3
EXTAP	84	96	4
EXTAP	84	192	3
EXTAP	84	192	4
EXTAP	84	288	3
EXTAP	84	288	4
NMTAP	85	0	2
NMTAP	85	48	2
NMTAP	85	96	5
NMTAP	85	144	5
NMTAP	85	192	3
NMTAP	85	240	3
NMTAP	85	288	4
NMHLD	85	336	4	96
NMTAP	86	48	3
BRTAP	86	144	2
BRTAP	86	144	5
BRTAP	86	192	2
BRTAP	86	192	5
NMTAP	87	0	4
NMTAP	87	0	6
NMTAP	87	48	4
NMTAP	87	48	6
NMTAP	87	144	1
NMTAP	87	144	3
NMTAP	87	192	1
NMTAP	87	192	3
NMTAP	87	288	0
NMTAP	87	288	7
BRTAP	87	336	0
BRTAP	87	336	7
NMTAP	88	48	1
NMTAP	88	96	1
NMTAP	88	192	2
NMTAP	88	192	4
NMTAP	88	288	3
NMTAP	88	288	5
NMHLD	89	0	6	192
NMTAP	89	96	4
NMHLD	89	192	1	96
NMTAP	89	288	3
NMTAP	89	336	3
NMTAP	90	48	2
NMTAP	90	48	4
NMTAP	90	144	0
NMTAP	90	144	6
BRTAP	90	192	0
BRTAP	90	192	6
NMTAP	90	288	3
NMTAP	90	288	5
NMTAP	91	0	1
NMTAP	91	48	1
NMTAP	91	96	3
NMTAP	91	192	0
NMTAP	91	192	4
NMTAP	91	240	0
NMTAP	91	240	4
NMHLD	91	336	6	96
NMHLD	92	48	4	96
NMTAP	92	144	3
NMTAP	92	192	3
NMTAP	92	288	2
NMTAP	92	288	5
NMHLD	93	0	1	96
NMHLD	93	96	3	96
NMHLD	93	192	4	96
NMTAP	93	288	6
NMTAP	93	336	6
NMTAP	94	48	0
NMTAP	94	48	7
NMTAP	94	144	2
NMTAP	94	144	5
BXSTR	94	192	2
BRSCL	94	192	2	96	48	0
BXSTR	94	192	5
BRSCR	94	192	5	96	48	7
BXTAP	95	96	0
BXTAP	95	96	7
NMTAP	95	192	3
NMTAP	95	192	5
NMTAP	95	240	3
NMTAP	95	240	5
BXTAP	95	336	2
BXTAP	95	336	6
BXTAP	96	48	1
BXTAP	96	48	5
BXTAP	96	144	0
BXTAP	96	144	7
NMTAP	96	240	1
NMTAP	96	240	6
NMTAP	96	288	1
NMHLD	96	288	6	192
NMTAP	97	0	7
NMHLD	97	96	1	192
NMTAP	97	192	0
NMTAP	97	288	6
NMTAP	98	0	2
NMTAP	98	0	5
NMTAP	98	48	2
NMTAP	98	48	5
NMTAP	98	96	2
NMTAP	98	96	5
NMTTP	98	192	3	B	0	M1
NMTTP	98	192	3	E	0	M1
NMTTP	98	192	3	D	0	M1
NMTTP	98	192	4	B	0	M1
NMTTP	98	192	5	E	0	M1
NMTTP	98	192	5	D	0	M1
NMTAP	99	0	6
NMTAP	99	48	6
NMTAP	99	96	4
NMTAP	99	192	3
NMTAP	99	192	7
NMTAP	99	240	3
NMTAP	99	240	7
NMHLD	99	336	1	96
NMHLD	100	48	3	96
NMTAP	100	144	4
NMTAP	100	192	4
NMTAP	100	288	2
NMTAP	100	288	5
NMHLD	101	0	6	192
NMTAP	101	96	7
NMHLD	101	192	1	96
NMTAP	101	288	0
NMTAP	101	336	0
NMTAP	102	48	2
NMTAP	102	48	4
NMTAP	102	144	1
NMTAP	102	144	5
BRTAP	102	192	1
BRTAP	102	192	5
NMTAP	103	0	4
NMTAP	103	0	5
NMTAP	103	96	6
NMTAP	103	96	7
NMTAP	103	192	0
NMTAP	103	192	1
NMTAP	103	288	2
NMTAP	103	288	3
NMHLD	104	0	1	192
NMTAP	104	96	0
NMHLD	104	192	6	96
NMTAP	104	288	7
NMTAP	105	0	6
NMTAP	105	0	7
NMTAP	105	96	0
NMTAP	105	96	1
NMTAP	105	192	2
NMTAP	105	192	3
NMTAP	105	288	4
NMTAP	105	288	5
NMHLD	106	0	6	192
NMTAP	106	96	7
NMHLD	106	192	1	96
NMTAP	106	288	0
NMTAP	107	0	0
NMTAP	107	0	1
NMTAP	107	96	6
NMTAP	107	96	7
NMTAP	107	192	4
NMTAP	107	192	5
NMTAP	107	288	2
NMTAP	107	288	3
NMHLD	108	0	1	192
NMTAP	108	96	0
NMHLD	108	192	6	96
NMTAP	108	288	7
NMTAP	109	0	6
NMTAP	109	0	7
NMTAP	109	96	4
NMTAP	109	96	5
NMTAP	109	192	2
NMTAP	109	192	3
NMSTR	109	288	3
NMSI_	109	288	3	96	96	1
NMTAP	109	288	4
CNSI_	110	96	1	0	96	5
CNSI_	110	192	5	0	96	7
EXTAP	111	96	0
EXTAP	111	96	7
NMTAP	111	192	2
NMTAP	111	192	3
NMTAP	111	288	3
NMTAP	111	288	4
NMTAP	112	0	4
NMTAP	112	0	5
EXTAP	112	96	7
NMTAP	112	192	2
NMTAP	112	192	3
EXTAP	112	288	0
NMTAP	113	0	3
NMTAP	113	0	4
NMTAP	113	96	4
NMTAP	113	96	5
NMTAP	113	192	4
NMTAP	113	192	5
NMTAP	113	288	3
NMTAP	113	288	4
NMTAP	114	0	2
NMTAP	114	0	3
EXTAP	114	96	0
NMTAP	114	192	4
NMTAP	114	192	5
EXTAP	114	288	7
NMTAP	115	0	3
NMTAP	115	0	4
EXTAP	115	96	0
EXTAP	115	96	1
NMTAP	115	192	3
NMTAP	115	192	4
EXTAP	115	288	6
EXTAP	115	288	7
NMTAP	116	0	3
NMTAP	116	0	4
EXTAP	116	96	0
EXTAP	116	96	1
NMTAP	116	192	3
NMTAP	116	192	4
EXTAP	116	288	6
EXTAP	116	288	7
NMTAP	117	0	3
NMTAP	117	0	4
EXTAP	117	96	0
EXTAP	117	96	1
NMTAP	117	192	2
NMTAP	117	192	5
NMTAP	117	288	3
NMTAP	117	288	4
NMTAP	117	336	3
NMTAP	117	336	4
NMTTP	118	48	2	B	0	M1
NMTTP	118	48	2	E	0	M1
NMTTP	118	48	2	D	0	M1
NMTTP	118	48	5	B	0	M1
NMTTP	118	48	6	E	0	M1
NMTTP	118	48	6	D	0	M1
BXTAP	118	144	0
BXTAP	118	144	7
BXTAP	118	192	0
BXTAP	118	192	7

T_REC_TAP	414
T_REC_BRK	14
T_REC_XTP	49
T_REC_BXX	34
T_REC_HLD	66
T_REC_XHO	6
T_REC_BHO	0
T_REC_BXH	23
T_REC_STR	10
T_REC_BST	0
T_REC_XST	0
T_REC_XBS	4
T_REC_TTP	42
T_REC_THO	0
T_REC_SLD	8
T_REC_BSL	8
T_REC_ALL	678
T_NUM_TAP	515
T_NUM_BRK	83
T_NUM_HLD	72
T_NUM_SLD	8
T_NUM_ALL	678
T_JUDGE_TAP	567
T_JUDGE_HLD	242
T_JUDGE_SLD	16
T_JUDGE_ALL	825
TTM_EACHPAIRS	200
TTM_SCR_TAP	257500
TTM_SCR_BRK	215800
TTM_SCR_HLD	72000
TTM_SCR_SLD	12000
TTM_SCR_ALL	557300
TTM_SCR_S	532550
TTM_SCR_SS	549000
TTM_RAT_ACV	10151

