VERSION	0.00.00	1.04.00
FES_MODE	0
BPM_DEF	188.000	188.000	188.000	188.000
MET_DEF	4	4
RESOLUTION	384
CLK_DEF	384
COMPATIBLE_CODE	MA2

BPM	0	0	188.000
MET	0	0	4	4

NMHLD	2	0	5	192
NMTAP	2	192	4
NMHLD	3	0	2	192
NMTAP	3	192	3
NMHLD	4	0	5	192
NMTAP	4	192	4
NMTAP	5	0	3
NMTAP	5	96	3
NMTAP	5	192	2
NMTAP	5	192	4
NMTAP	6	0	5
NMTAP	6	96	5
NMTAP	6	192	4
NMTAP	6	192	5
NMTAP	7	0	2
NMTAP	7	96	2
NMTAP	7	192	2
NMTAP	7	192	3
NMTAP	8	0	3
NMTAP	8	96	3
NMTAP	8	192	4
NMTAP	8	288	4
NMTAP	9	0	4
NMTAP	9	0	5
NMTAP	9	96	4
NMTAP	9	96	5
EXTAP	9	192	4
EXTAP	9	192	5
NMTAP	10	0	6
NMTAP	10	96	6
NMTAP	10	192	7
NMTAP	10	288	7
NMTAP	11	0	0
NMTAP	11	96	0
NMTAP	11	192	0
NMTAP	11	192	1
NMTAP	12	0	1
NMTAP	12	96	1
NMTAP	12	192	0
NMTAP	12	288	0
NMTAP	13	0	7
NMTAP	13	96	7
NMTAP	13	192	6
NMTAP	13	192	7
NMTAP	14	0	5
NMTAP	14	96	5
NMTAP	14	192	4
NMTAP	14	288	4
NMTAP	15	0	3
NMTAP	15	96	3
NMTAP	15	192	2
NMTAP	15	192	3
NMTAP	16	0	2
NMTAP	16	96	2
NMTAP	16	192	3
NMTAP	16	288	3
NMTAP	17	0	4
NMTAP	17	96	4
NMTAP	17	192	3
NMTAP	17	192	5
NMHLD	18	0	5	192
NMTAP	18	192	4
NMHLD	19	0	2	192
NMTAP	19	192	3
NMHLD	20	0	2	192
NMHLD	20	192	3	192
NMHLD	21	0	4	192
NMTAP	21	192	5
NMHLD	22	0	6	192
NMTAP	22	192	7
NMHLD	23	0	1	192
NMTAP	23	192	0
NMHLD	24	0	1	192
NMHLD	24	192	0	192
NMHLD	25	0	7	192
NMTAP	25	192	6
NMTAP	26	0	7
NMTAP	26	96	7
NMTAP	26	192	6
NMTAP	26	288	6
NMTAP	27	0	5
NMTAP	27	96	5
NMTAP	27	192	4
NMTAP	27	192	5
NMTAP	28	0	3
NMTAP	28	96	3
NMTAP	28	192	2
NMTAP	28	288	2
BXTAP	29	0	0
BXTAP	29	0	1
BXTAP	29	96	0
BXTAP	29	96	1
BXTAP	29	192	0
BXTAP	29	192	1
NMTAP	30	0	2
NMTAP	30	96	2
NMTAP	30	192	3
NMTAP	30	288	3
NMTAP	31	0	4
NMTAP	31	96	4
NMTAP	31	192	3
NMTAP	31	192	5
NMSTR	32	0	5
NMSCL	32	0	5	96	288	2
NMTAP	34	0	1
NMTAP	34	96	1
NMTAP	34	192	0
NMTAP	34	192	1
NMTAP	34	288	0
NMTAP	34	288	1
NMTAP	35	0	6
NMTAP	35	96	6
NMTAP	35	192	6
NMTAP	35	192	7
NMTAP	35	288	6
NMTAP	35	288	7
NMTAP	36	0	5
NMTAP	36	96	5
NMTAP	36	192	4
NMTAP	36	288	4
NMTAP	37	0	3
NMTAP	37	0	5
NMTAP	37	96	3
NMTAP	37	96	5
NMTAP	37	192	3
NMTAP	37	192	5
NMTAP	38	0	6
NMTAP	38	96	6
NMTAP	38	192	6
NMTAP	38	192	7
NMTAP	38	288	6
NMTAP	38	288	7
NMTAP	39	0	1
NMTAP	39	96	1
NMTAP	39	192	0
NMTAP	39	192	1
NMTAP	39	288	0
NMTAP	39	288	1
NMTAP	40	0	2
NMTAP	40	96	2
NMTAP	40	192	3
NMTAP	40	288	3
NMTAP	41	0	2
NMTAP	41	0	4
NMTAP	41	96	2
NMTAP	41	96	4
NMTAP	41	192	2
NMTAP	41	192	4
NMTAP	42	0	1
NMTAP	42	96	1
NMTAP	42	192	0
NMTAP	42	288	0
EXTAP	43	0	6
EXTAP	43	0	7
EXTAP	43	96	6
EXTAP	43	96	7
EXTAP	43	192	6
EXTAP	43	192	7
NMTAP	44	0	5
NMTAP	44	96	5
NMTAP	44	192	4
NMTAP	44	288	4
NMTAP	45	0	3
NMTAP	45	0	5
NMTAP	45	96	3
NMTAP	45	96	5
NMTAP	45	192	3
NMTAP	45	192	5
NMTAP	46	0	6
NMTAP	46	96	6
NMTAP	46	192	6
NMTAP	46	192	7
NMTAP	46	288	6
NMTAP	46	288	7
NMTAP	47	0	1
NMTAP	47	96	1
NMTAP	47	192	0
NMTAP	47	192	1
NMTAP	47	288	0
NMTAP	47	288	1
NMTAP	48	0	2
NMTAP	48	96	2
NMTAP	48	192	3
NMTAP	48	288	3
NMTAP	49	0	2
NMTAP	49	0	4
NMTAP	49	96	2
NMTAP	49	96	4
NMTAP	49	192	2
NMTAP	49	192	4
NMSTR	50	0	1
NMSI_	50	0	1	96	192	5
NMHLD	52	0	5	192
NMTAP	52	192	4
NMHLD	53	0	6	192
NMTAP	53	192	7
NMHLD	54	0	1	192
NMTAP	54	192	0
NMTAP	55	0	2
NMTAP	55	192	3
NMTAP	55	192	4
NMHLD	56	0	2	192
NMTAP	56	192	3
NMHLD	57	0	1	192
NMTAP	57	192	0
NMHLD	58	0	6	192
NMTAP	58	192	7
NMSTR	59	0	5
NMSCR	59	0	5	96	480	2
NMTTP	62	0	6	B	0	L1
NMTTP	62	96	5	B	0	L1
NMTTP	62	192	4	B	0	L1
NMTTP	63	0	1	B	0	L1
NMTTP	63	96	2	B	0	L1
NMTTP	63	192	3	B	0	L1
NMTTP	64	0	6	B	0	L1
NMTTP	64	96	5	B	0	L1
NMTTP	64	192	4	B	0	L1
NMTTP	64	288	3	B	0	L1
NMTTP	65	0	2	B	0	L1
NMTTP	65	96	1	B	0	L1
NMTTP	65	192	0	C	0	L1
NMTTP	66	0	1	E	0	L1
NMTTP	66	96	1	B	0	L1
NMTTP	66	192	2	B	0	L1
NMTTP	67	0	7	E	0	L1
NMTTP	67	96	6	B	0	L1
NMTTP	67	192	5	B	0	L1
NMTTP	68	0	0	C	0	L1
NMSTR	70	0	0
NMSI_	70	0	0	96	192	4
NMTAP	71	0	5
NMTAP	71	192	5
NMSTR	72	0	6
NMSI_	72	0	6	96	192	2
NMTAP	73	0	1
NMTAP	73	192	1
NMSTR	74	0	1
NMSI_	74	0	1	96	192	5
NMTAP	75	0	6
NMTAP	75	192	6
NMSTR	76	0	7
NMSI_	76	0	7	96	192	3
NMTAP	77	0	2
EXTAP	77	192	3
EXTAP	77	192	4
EXTAP	77	288	3
EXTAP	77	288	4
NMHLD	79	0	5	384
NMHLD	80	0	4	384
NMHLD	81	0	3	384
NMTAP	82	0	2
NMTAP	83	0	2
NMTAP	83	96	2
NMTAP	83	192	3
NMTAP	83	192	4
NMTAP	84	0	5
NMTAP	84	96	5
NMTAP	84	192	3
NMTAP	84	192	4
NMTAP	85	0	2
NMTAP	85	0	5
NMTAP	85	96	2
NMTAP	85	96	5
NMTAP	85	192	1
NMTAP	85	192	6
NMTAP	85	288	1
NMTAP	85	288	6
EXTAP	86	0	0
EXTAP	86	0	7
EXTAP	86	96	0
EXTAP	86	96	7
EXTAP	86	192	0
EXTAP	86	192	7
EXHLD	87	0	1	336
EXHLD	87	0	6	336
NMTAP	88	192	0
NMTAP	88	192	7
NMTAP	88	288	0
NMTAP	88	288	7
NMTAP	89	0	6
NMTAP	89	96	6
NMTAP	89	192	4
NMTAP	89	192	5
NMTAP	89	288	4
NMTAP	89	288	5
NMTAP	90	0	3
NMTAP	90	96	3
NMTAP	90	192	2
NMTAP	90	192	4
NMTAP	91	0	1
NMTAP	91	96	1
NMTAP	91	192	0
NMTAP	91	192	1
NMTAP	91	288	0
NMTAP	91	288	1
NMTAP	92	0	7
NMTAP	92	96	7
NMTAP	92	192	0
NMTAP	92	192	7
NMTAP	92	288	0
NMTAP	92	288	7
NMTAP	93	0	1
NMTAP	93	96	1
NMTAP	93	192	2
NMTAP	93	192	3
NMTAP	93	288	2
NMTAP	93	288	3
NMTAP	94	0	4
NMTAP	94	96	4
BRTAP	94	192	3
BRTAP	94	192	5
NMTAP	95	0	2
NMTAP	95	96	3
NMTAP	95	192	4
NMTAP	95	288	5
EXTAP	96	0	6
EXTAP	96	0	7
EXTAP	96	96	6
EXTAP	96	96	7
EXTAP	96	192	6
EXTAP	96	192	7
NMTAP	97	0	5
NMTAP	97	96	4
NMTAP	97	192	3
NMTAP	97	288	2
NMTAP	98	0	0
NMTAP	98	0	1
NMTAP	98	96	0
NMTAP	98	96	1
NMTAP	98	192	0
NMTAP	98	192	1
NMTAP	99	0	1
NMTAP	99	96	1
NMTAP	99	192	2
NMTAP	99	192	3
NMTAP	99	288	2
NMTAP	99	288	3
NMTAP	100	0	4
NMTAP	100	96	4
NMTAP	100	192	4
NMTAP	100	192	5
NMTAP	100	288	4
NMTAP	100	288	5
NMTAP	101	0	6
NMTAP	101	96	6
NMTAP	101	192	0
NMTAP	101	192	7
NMSTR	101	288	0
NMSI_	101	288	0	96	192	3
NMSTR	101	288	7
NMSI_	101	288	7	96	192	4
NMTAP	103	0	5
NMTAP	103	96	4
NMTAP	103	96	5
NMTAP	103	192	2
NMTAP	103	288	2
NMTAP	103	288	3
NMTAP	104	0	1
NMTAP	104	96	1
NMTAP	104	192	0
NMTAP	104	192	1
NMTAP	105	0	2
NMTAP	105	96	2
NMTAP	105	96	3
NMTAP	105	192	5
NMTAP	105	288	4
NMTAP	105	288	5
NMTAP	106	0	6
NMTAP	106	96	6
NMTAP	106	192	6
NMTAP	106	192	7
NMTAP	107	0	5
NMTAP	107	96	4
NMTAP	107	96	5
NMTAP	107	192	2
NMTAP	107	288	2
NMTAP	107	288	3
NMTAP	108	0	1
NMTAP	108	96	1
NMTAP	108	192	0
NMTAP	108	192	1
NMTAP	109	0	2
NMTAP	109	96	2
NMTAP	109	96	3
NMTAP	109	192	5
NMTAP	109	288	4
NMTAP	109	288	5
NMTAP	110	0	6
NMTAP	110	96	0
NMTAP	110	96	7
NMTAP	110	192	0
NMTAP	110	192	7
NMTAP	111	0	6
NMTAP	111	96	6
NMTAP	111	96	7
NMTAP	111	192	1
NMTAP	111	288	0
NMTAP	111	288	1
NMTAP	112	0	2
NMTAP	112	96	2
NMTAP	112	192	2
NMTAP	112	192	3
NMTAP	113	0	1
NMTAP	113	96	0
NMTAP	113	96	1
NMTAP	113	192	6
NMTAP	113	288	6
NMTAP	113	288	7
NMTAP	114	0	5
NMTAP	114	96	5
NMTAP	114	192	4
NMTAP	114	192	5
NMTAP	115	0	6
NMTAP	115	96	6
NMTAP	115	96	7
NMTAP	115	192	1
NMTAP	115	288	0
NMTAP	115	288	1
NMTAP	116	0	2
NMTAP	116	96	2
NMTAP	116	192	2
NMTAP	116	192	3
NMTAP	117	0	1
NMTAP	117	96	0
NMTAP	117	96	1
NMTAP	117	192	6
NMTAP	117	288	6
NMTAP	117	288	7
NMTAP	118	0	5
NMTAP	118	96	3
NMTAP	118	96	4
BRTAP	118	192	2
BRTAP	118	192	5

T_REC_TAP	338
T_REC_BRK	4
T_REC_XTP	24
T_REC_BXX	6
T_REC_HLD	22
T_REC_XHO	2
T_REC_BHO	0
T_REC_BXH	0
T_REC_STR	9
T_REC_BST	0
T_REC_XST	0
T_REC_XBS	0
T_REC_TTP	20
T_REC_THO	0
T_REC_SLD	9
T_REC_BSL	0
T_REC_ALL	434
T_NUM_TAP	391
T_NUM_BRK	10
T_NUM_HLD	24
T_NUM_SLD	9
T_NUM_ALL	434
T_JUDGE_TAP	401
T_JUDGE_HLD	114
T_JUDGE_SLD	9
T_JUDGE_ALL	524
TTM_EACHPAIRS	105
TTM_SCR_TAP	195500
TTM_SCR_BRK	26000
TTM_SCR_HLD	24000
TTM_SCR_SLD	13500
TTM_SCR_ALL	259000
TTM_SCR_S	250300
TTM_SCR_SS	258000
TTM_RAT_ACV	10038

