VERSION	0.00.00	1.04.00
FES_MODE	0
BPM_DEF	175.000	175.000	175.000	175.000
MET_DEF	4	4
RESOLUTION	384
CLK_DEF	384
COMPATIBLE_CODE	MA2

BPM	0	0	175.000
MET	0	0	4	4

EXTAP	1	0	0
EXTAP	1	0	7
BXSTR	1	48	0
NMSI_	1	48	0	96	240	3
BXSTR	1	48	7
NMSI_	1	48	7	96	240	4
NMTAP	2	192	3
NMTAP	2	216	4
NMTAP	2	240	3
NMTAP	2	264	4
NMTAP	2	288	3
NMHLD	2	336	2	96
NMHLD	2	336	4	192
NMTTP	3	240	2	B	0	M1
NMTTP	3	288	4	B	0	M1
NMTHO	4	0	0	192	C	0	M1
NMTAP	5	0	0
NMTAP	5	0	7
BXSTR	5	48	0
NMSI_	5	48	0	96	240	3
BXSTR	5	48	7
NMSI_	5	48	7	96	240	4
NMTAP	6	192	4
NMTAP	6	216	3
NMTAP	6	240	4
NMTAP	6	264	3
NMTAP	6	288	4
NMHLD	6	336	3	96
NMHLD	6	336	5	192
NMTTP	7	240	3	B	0	M1
NMTTP	7	288	5	B	0	M1
NMHLD	8	0	2	192
NMTAP	8	0	6
NMSTR	8	192	7
NMSV_	8	192	7	96	48	2
NMTAP	8	240	7
EXTAP	8	288	2
NMTAP	8	336	1
BRTAP	9	0	0
EXTAP	9	0	3
NMTAP	9	96	0
NMTAP	9	96	3
NMTAP	9	192	1
NMTAP	9	192	3
NMTAP	9	288	1
NMTAP	9	288	3
NMTAP	10	0	2
NMTAP	10	0	3
NMTAP	10	96	2
NMTAP	10	96	3
NMTAP	10	192	4
NMTAP	10	216	3
NMTAP	10	240	4
NMTAP	10	264	3
NMTAP	10	288	4
NMTAP	10	336	4
NMTAP	11	0	3
NMTAP	11	0	5
NMTAP	11	96	3
NMTAP	11	96	5
NMTAP	11	192	3
NMTAP	11	192	6
NMTAP	11	288	3
NMSTR	11	288	6
NMSCR	11	288	6	96	288	1
NMTAP	12	0	3
NMTAP	12	96	3
NMTAP	12	192	3
NMTAP	12	288	3
NMTAP	13	0	4
NMTAP	13	0	7
NMTAP	13	96	4
NMTAP	13	96	7
NMTAP	13	192	4
NMTAP	13	192	6
NMTAP	13	288	4
NMTAP	13	288	5
NMTAP	14	0	3
NMTAP	14	48	3
NMTAP	14	96	4
NMTAP	14	144	4
NMTAP	14	192	2
NMTAP	14	240	2
NMTAP	14	288	5
NMTAP	14	336	5
NMTAP	15	0	3
NMTAP	15	24	4
NMTAP	15	48	3
NMTAP	15	72	4
NMTAP	15	96	3
NMTAP	15	120	4
NMTAP	15	144	3
NMTAP	15	168	4
NMTAP	15	192	2
NMTAP	15	216	5
NMTAP	15	240	2
NMTAP	15	264	5
NMTAP	15	288	1
NMTAP	15	312	6
NMTAP	15	336	1
NMTAP	15	360	6
BXHLD	16	0	0	192
NMTAP	16	96	7
NMTAP	16	144	7
NMSTR	16	192	7
NMSI_	16	192	7	96	48	3
BRTAP	17	0	1
BRTAP	17	0	4
NMTAP	17	48	1
NMTAP	17	48	4
NMTAP	17	96	2
NMTAP	17	120	3
NMTAP	17	144	2
NMTAP	17	192	1
NMTAP	17	240	1
NMTAP	17	264	3
NMTAP	17	312	3
NMTAP	17	336	4
NMTAP	18	0	4
NMTAP	18	0	5
NMTAP	18	48	4
NMTAP	18	48	5
NMTAP	18	96	6
NMTAP	18	144	6
NMTAP	18	168	4
NMTAP	18	216	4
NMTAP	18	240	5
NMHLD	18	288	3	96
NMTAP	18	288	6
NMTAP	19	0	7
NMTAP	19	48	7
NMTAP	19	96	5
NMTAP	19	120	4
NMTAP	19	144	5
NMTAP	19	192	6
NMTAP	19	240	6
NMTAP	19	264	4
NMTAP	19	312	4
NMTAP	19	336	3
EXTAP	20	0	2
EXTAP	20	0	3
NMTAP	20	48	5
NMTAP	20	72	4
NMTAP	20	96	6
NMTAP	20	144	2
NMTAP	20	168	3
NMTAP	20	192	1
NMTAP	20	240	0
NMTAP	20	240	6
BXTAP	20	288	1
BXTAP	20	288	5
NMTAP	21	0	0
NMTAP	21	48	0
NMTAP	21	96	2
NMTAP	21	120	3
NMTAP	21	144	2
NMTAP	21	192	1
NMTAP	21	240	1
NMTAP	21	264	3
NMTAP	21	312	3
NMTAP	21	336	4
NMTAP	22	0	4
NMTAP	22	0	5
NMTAP	22	48	4
NMTAP	22	48	5
NMTAP	22	96	6
NMTAP	22	144	6
NMTAP	22	168	4
NMTAP	22	216	4
NMTAP	22	240	3
NMTAP	22	288	2
NMTAP	22	288	3
NMTAP	23	0	2
NMTAP	23	24	3
NMTAP	23	48	2
NMTAP	23	96	1
NMTAP	23	96	4
NMTAP	23	144	0
NMTAP	23	192	0
NMTAP	23	240	0
NMTAP	23	264	7
NMSTR	23	288	1
NMSCL	23	288	1	96	192	3
NMTAP	23	336	5
EXHLD	24	0	5	192
BXTAP	24	264	3
BXSTR	24	288	4
NMSF_	24	288	4	96	48	0
EXTAP	24	336	2
EXTAP	24	336	6
BXTAP	25	96	1
BXTAP	25	96	7
NMTAP	25	192	1
NMTAP	25	192	4
NMTAP	25	240	2
NMTAP	25	264	3
NMTAP	25	312	3
NMTAP	25	336	4
NMTAP	26	0	3
NMTAP	26	0	5
NMTAP	26	48	3
NMTAP	26	48	5
NMTAP	26	96	6
NMTAP	26	120	7
NMTAP	26	144	6
NMTAP	26	192	5
NMTAP	26	240	5
NMTAP	26	264	4
NMTAP	26	312	4
NMTAP	26	336	3
NMTAP	27	0	2
NMTAP	27	0	4
NMTAP	27	48	2
NMTAP	27	48	4
NMTAP	27	96	1
NMTAP	27	120	0
NMTAP	27	144	1
NMTAP	27	192	2
NMTAP	27	240	2
NMTAP	27	264	3
NMTAP	27	312	3
NMTAP	27	336	4
NMTAP	28	0	3
NMTAP	28	0	5
NMTAP	28	48	3
NMTAP	28	48	5
NMTAP	28	96	6
NMTAP	28	120	7
NMTAP	28	144	6
NMTAP	28	192	5
NMTAP	28	240	5
NMTAP	28	264	4
NMTAP	28	312	4
NMTAP	28	336	3
BXSTR	29	0	2
NMSI_	29	0	2	96	48	7
BXTAP	29	0	4
NMTAP	29	48	2
NMSTR	29	96	5
NMSI_	29	96	5	96	48	0
NMTAP	29	144	5
NMSTR	29	192	2
NMSI_	29	192	2	96	48	7
NMTAP	29	240	2
NMSTR	29	288	6
NMSI_	29	288	6	96	48	3
NMTAP	29	336	6
NMSTR	30	0	1
NMSI_	30	0	1	96	48	5
NMTAP	30	48	1
NMSTR	30	96	0
NMSI_	30	96	0	96	48	4
NMTAP	30	144	0
NMSTR	30	192	7
NMSI_	30	192	7	96	48	3
NMTAP	30	240	7
NMTAP	30	288	5
NMTAP	30	336	5
BXTAP	31	0	2
BXTAP	31	0	4
NMTAP	31	48	2
NMTAP	31	48	4
NMTAP	31	96	1
NMTAP	31	144	1
BXTAP	31	192	0
BXTAP	31	192	4
NMTAP	31	240	0
NMTAP	31	240	4
NMTAP	31	288	5
NMTAP	31	336	5
NMTAP	32	0	3
NMTAP	32	0	6
NMTAP	32	48	2
NMTAP	32	96	3
NMTAP	32	96	5
NMTAP	32	144	6
NMTAP	32	192	0
NMTAP	32	192	7
NMTAP	32	240	0
NMTAP	32	240	7
NMSTR	32	288	0
NMSI_	32	288	0	96	48	4
NMTAP	32	312	7
NMTAP	32	336	1
NMTAP	32	360	6
BXSTR	33	0	0
NMSCR	33	0	0	96	1056	7
NMTHO	34	192	0	96	C	0	M1
NMHLD	36	0	0	384
NMSTR	37	0	7
NMSCL	37	0	7	96	1056	0
NMTHO	38	192	0	96	C	0	M1
EXHLD	40	0	7	288
NMTAP	41	0	0
NMTAP	41	0	6
NMHLD	41	48	0	336
NMTAP	41	48	6
NMTAP	41	192	4
NMTAP	41	264	3
NMTAP	41	336	5
NMHLD	42	0	5	384
NMTAP	42	192	3
NMTAP	42	264	4
NMTAP	42	336	2
NMHLD	43	0	2	384
NMTAP	43	192	4
NMTAP	43	264	3
NMTAP	43	336	4
NMHLD	44	0	4	192
NMSTR	44	192	2
NMSCR	44	192	2	96	48	4
NMTAP	45	0	5
NMTAP	45	96	4
NMTAP	45	96	5
NMTAP	45	192	5
NMTAP	45	192	6
NMTAP	45	288	6
NMTAP	45	288	7
NMTAP	46	0	0
NMTAP	46	0	7
NMTAP	46	96	0
NMTAP	46	96	1
NMTAP	46	192	1
NMTAP	46	192	2
NMTAP	46	288	2
NMTAP	46	288	3
NMTAP	47	0	4
NMTAP	47	48	4
NMTAP	47	96	3
NMTAP	47	144	3
NMTAP	47	192	2
NMTAP	47	192	5
NMTAP	47	240	2
NMTAP	47	240	5
NMSTR	47	288	1
NMSLR	47	288	1	96	192	7
NMSTR	47	288	6
NMSLL	47	288	6	96	192	0
NMTAP	47	336	0
NMTAP	47	336	7
EXTAP	48	288	1
EXTAP	48	288	6
BXTAP	49	0	3
NMTAP	49	24	4
NMHLD	49	48	2	48
NMTAP	49	96	0
NMHLD	49	120	1	48
NMTAP	49	168	7
NMHLD	49	192	0	48
NMTAP	49	240	6
NMHLD	49	264	7	48
NMTAP	49	312	6
NMTAP	49	336	7
NMTAP	49	360	5
NMTAP	50	0	0
NMTAP	50	24	4
NMHLD	50	48	1	48
NMTAP	50	96	3
NMHLD	50	120	2	48
NMTAP	50	168	4
NMHLD	50	192	3	48
NMTAP	50	240	5
NMHLD	50	264	4	48
NMTAP	50	312	6
NMTAP	50	336	4
NMTAP	51	0	3
NMTAP	51	0	5
NMTAP	51	48	2
NMTAP	51	48	4
NMTAP	51	96	1
NMTAP	51	120	0
NMTAP	51	144	2
NMTAP	51	168	7
NMHLD	51	192	3	48
NMTAP	51	240	6
NMTAP	51	264	4
NMTAP	51	312	4
NMTAP	51	336	5
NMTAP	52	0	2
NMTAP	52	0	6
NMTAP	52	48	3
NMTAP	52	48	5
NMTAP	52	96	2
NMTAP	52	120	3
NMTAP	52	144	1
NMTAP	52	168	4
NMHLD	52	192	0	48
NMTAP	52	240	7
NMTAP	52	264	0
NMTAP	52	312	0
NMHLD	52	336	7	48
BXTAP	53	0	1
NMTAP	53	24	0
NMTAP	53	48	2
NMTAP	53	72	7
NMTAP	53	96	3
NMHLD	53	120	6	48
NMTAP	53	168	4
NMHLD	53	192	5	48
NMTAP	53	240	3
NMHLD	53	264	4	48
NMTAP	53	312	2
NMTAP	53	336	3
NMTAP	53	360	1
NMTAP	54	0	4
NMTAP	54	24	0
NMTAP	54	48	5
NMTAP	54	72	7
NMTAP	54	96	6
NMHLD	54	120	0	48
NMTAP	54	168	3
NMHLD	54	192	2	48
NMTAP	54	240	5
NMHLD	54	264	4	48
NMTAP	54	312	6
NMTAP	54	336	4
NMTAP	55	0	7
NMTAP	55	24	3
NMTAP	55	48	7
NMTAP	55	72	3
NMTAP	55	96	6
NMTAP	55	120	4
NMTAP	55	144	5
NMTAP	55	168	3
NMTAP	55	192	4
NMTAP	55	216	2
NMTAP	55	240	3
NMTAP	55	264	2
NMTAP	55	288	4
NMTAP	55	312	1
NMTAP	55	336	5
NMSTR	55	360	0
NMSI_	55	360	0	96	24	4
NMSTR	56	48	6
NMSI_	56	48	6	96	24	3
NMSTR	56	120	2
NMSI_	56	120	2	96	24	7
NMTAP	56	192	4
NMTAP	56	264	0
NMTAP	56	336	1
NMTAP	56	336	5
BRHLD	57	0	1	480
BRTAP	57	0	5
NMTAP	57	96	4
NMTAP	57	192	4
NMTAP	57	288	3
NMTAP	58	0	3
NMTAP	58	96	4
NMTAP	58	192	2
NMTAP	58	216	3
NMTAP	58	240	2
NMTAP	58	264	3
NMTAP	58	288	2
NMTAP	58	336	2
NMTAP	59	0	3
BRHLD	59	0	5	576
NMTAP	59	96	3
NMTAP	59	192	4
NMTAP	59	288	4
NMTAP	60	0	3
NMTAP	60	96	3
NMTAP	60	192	4
NMTAP	60	240	4
NMTAP	60	288	5
NMTAP	60	336	5
EXTAP	61	0	3
NMTAP	61	0	5
NMTAP	61	48	2
NMTAP	61	96	2
NMTAP	61	144	2
NMTAP	61	192	3
EXTAP	61	192	5
NMTAP	61	240	6
NMTAP	61	288	6
NMTAP	61	336	6
NMTAP	62	0	3
EXTAP	62	0	7
NMTAP	62	48	2
NMTAP	62	96	2
NMTAP	62	144	2
EXTAP	62	192	1
NMTAP	62	192	4
NMTAP	62	240	5
NMTAP	62	288	5
NMTAP	62	336	5
NMTAP	63	0	4
EXTAP	63	0	6
NMTAP	63	48	4
NMTAP	63	96	3
EXTAP	63	96	5
NMTAP	63	144	5
EXTAP	63	192	2
NMTAP	63	192	4
NMTAP	63	240	2
EXTAP	63	288	1
NMTAP	63	288	3
NMTAP	63	336	4
NMTAP	64	0	2
NMHLD	64	0	4	240
NMTAP	64	96	3
NMTAP	64	144	3
NMHLD	64	192	3	48
NMTAP	64	256	2
NMTAP	64	256	5
NMTAP	64	272	1
NMTAP	64	272	6
NMSTR	64	288	0
BRSSL	64	288	0	96	24	4
NMSTR	64	288	7
BRSSR	64	288	7	96	24	3
BXTAP	65	0	0
BXTAP	65	0	7
BXTAP	65	96	2
NMTAP	65	120	6
NMTAP	65	144	4
NMTAP	65	168	6
NMTAP	65	192	0
NMTAP	65	216	6
NMTAP	65	240	4
NMTAP	65	264	6
NMTAP	65	288	2
NMTAP	65	312	6
NMTAP	65	336	4
NMTAP	65	360	6
NMTAP	66	0	1
NMTAP	66	24	5
NMTAP	66	48	3
NMTAP	66	72	5
NMTAP	66	96	7
NMTAP	66	120	5
NMTAP	66	144	3
NMTAP	66	168	5
NMTAP	66	192	1
NMTAP	66	216	5
NMTAP	66	240	3
NMTAP	66	264	5
EXSTR	66	288	7
NMSI_	66	288	7	96	48	2
NMSI_	66	288	7	96	48	4
BXTAP	67	0	7
NMSTR	67	96	1
NMSI_	67	96	1	96	48	3
NMSTR	67	96	5
NMSI_	67	96	5	96	48	7
NMTAP	67	144	0
NMTAP	67	192	1
NMTAP	67	192	5
NMSTR	67	288	1
NMSI_	67	288	1	96	48	4
NMSTR	67	288	5
NMSI_	67	288	5	96	48	0
NMTAP	67	336	0
NMTAP	68	0	1
NMTAP	68	0	5
NMSTR	68	96	1
NMSI_	68	96	1	96	48	5
NMTAP	68	96	5
NMTAP	68	144	0
BXTAP	68	192	1
BXTAP	68	192	5
NMTAP	68	240	7
NMSTR	68	288	7
NMSCL	68	288	7	96	48	4
NMSCR	68	288	7	96	48	2
BXTAP	69	0	7
NMTAP	69	96	1
NMTAP	69	96	5
NMTAP	69	192	4
NMHLD	69	192	6	48
NMTAP	69	240	3
NMHLD	69	288	2	48
NMTAP	69	288	4
NMTAP	69	336	5
NMTAP	70	0	4
NMSTR	70	0	6
NMSI_	70	0	6	96	48	2
NMSTR	70	96	2
NMSI_	70	96	2	96	48	6
NMTAP	70	144	1
NMTAP	70	192	0
NMTAP	70	240	0
EXTAP	70	288	1
EXTAP	70	288	7
BXSTR	71	0	0
BRSI_	71	0	0	96	48	4
BXSTR	71	0	6
BRSI_	71	0	6	96	48	2
BXTAP	71	48	2
BXTAP	71	48	4
BXTAP	71	96	0
BXTAP	71	96	6
NMHLD	71	192	1	48
NMHLD	71	192	5	48
NMHLD	71	288	2	48
NMHLD	71	288	6	48
NMTAP	72	0	5
NMTAP	72	32	3
NMTAP	72	64	4
NMTAP	72	96	1
NMTAP	72	128	3
NMTAP	72	160	2
NMTAP	72	192	6
NMTAP	72	224	4
NMTAP	72	256	5
NMSTR	72	288	7
BRSF_	72	288	7	96	48	3
BXTAP	73	96	5
NMTAP	73	120	1
NMTAP	73	144	3
NMTAP	73	168	1
NMTAP	73	192	7
NMTAP	73	216	1
NMTAP	73	240	3
NMTAP	73	264	1
NMTAP	73	288	5
NMTAP	73	312	1
NMTAP	73	336	3
NMTAP	73	360	1
NMTAP	74	0	6
NMTAP	74	24	2
NMTAP	74	48	4
NMTAP	74	72	2
NMTAP	74	96	0
NMTAP	74	120	2
NMTAP	74	144	4
NMTAP	74	168	2
NMTAP	74	192	6
NMTAP	74	216	2
NMTAP	74	240	4
NMTAP	74	264	2
EXSTR	74	288	0
NMSI_	74	288	0	96	48	3
NMSI_	74	288	0	96	48	5
BXTAP	75	0	0
NMSTR	75	96	2
NMSI_	75	96	2	96	48	0
NMSTR	75	96	6
NMSI_	75	96	6	96	48	4
NMTAP	75	144	7
NMTAP	75	192	2
NMTAP	75	192	6
NMSTR	75	288	2
NMSI_	75	288	2	96	48	7
NMSTR	75	288	6
NMSI_	75	288	6	96	48	3
NMTAP	75	336	7
NMTAP	76	0	2
NMTAP	76	0	6
NMTAP	76	96	2
NMSTR	76	96	6
NMSI_	76	96	6	96	48	2
NMTAP	76	144	7
BXTAP	76	192	2
BXTAP	76	192	6
NMTAP	76	240	0
NMSTR	76	288	0
NMSCL	76	288	0	96	48	5
NMSCR	76	288	0	96	48	3
BXTAP	77	0	0
NMTAP	77	96	2
NMTAP	77	96	6
NMHLD	77	192	5	72
NMHLD	77	264	6	72
NMTAP	77	336	7
NMTAP	78	0	7
NMTAP	78	48	0
NMTAP	78	96	1
NMTAP	78	96	4
NMTAP	78	144	1
NMTAP	78	144	4
NMTAP	78	192	2
NMTAP	78	240	2
NMTAP	78	264	3
NMTAP	78	312	5
NMTAP	78	336	4
NMTAP	79	0	3
NMTAP	79	0	5
NMTAP	79	48	6
NMTAP	79	96	2
NMTAP	79	96	7
NMTAP	79	144	2
NMTAP	79	144	7
NMTAP	79	192	1
NMTAP	79	240	1
NMTAP	79	264	0
NMTAP	79	312	6
NMTAP	79	336	7
NMTAP	80	0	0
NMHLD	80	0	5	192
EXSTR	80	192	7
NMSI_	80	192	7	96	48	3
EXTAP	80	216	0
EXTAP	80	240	1
EXTAP	80	264	2
BXTAP	80	288	3
BXTAP	80	288	7
NMTAP	81	0	2
NMTAP	81	0	4
NMTAP	81	48	1
NMTAP	81	48	5
NMTAP	81	96	6
NMTAP	81	120	7
NMTAP	81	144	5
NMTAP	81	168	7
NMHLD	81	192	6	48
NMTAP	81	240	1
NMTAP	81	264	0
NMTAP	81	288	2
NMTAP	81	312	7
NMTAP	81	336	3
NMTAP	81	360	6
NMTAP	82	0	4
NMTAP	82	24	5
NMTAP	82	48	4
NMTAP	82	96	2
NMTAP	82	120	3
NMTAP	82	144	1
NMTAP	82	168	3
NMHLD	82	192	2	48
NMTAP	82	240	5
NMTAP	82	264	4
NMTAP	82	288	6
NMTAP	82	312	3
NMTAP	82	336	7
NMTAP	82	360	2
NMTAP	83	0	0
NMTAP	83	24	1
NMTAP	83	48	0
NMTAP	83	96	6
NMTAP	83	120	7
NMTAP	83	144	5
NMTAP	83	168	7
NMHLD	83	192	6	48
NMTAP	83	240	4
NMTAP	83	264	5
NMTAP	83	288	3
NMTAP	83	312	4
NMTAP	83	336	2
NMTAP	83	360	3
NMTAP	84	0	1
NMTAP	84	24	4
NMHLD	84	48	1	48
NMTAP	84	96	0
NMTAP	84	120	1
NMTAP	84	144	7
NMTAP	84	168	2
NMHLD	84	192	6	48
NMTAP	84	240	7
NMTAP	84	264	6
NMTAP	84	288	7
NMTAP	84	336	0
NMTAP	84	336	5
BRTAP	85	0	2
NMTAP	85	24	3
NMTAP	85	48	1
NMTAP	85	72	5
NMTAP	85	96	4
NMTAP	85	120	6
BRTAP	85	144	2
NMTAP	85	168	3
NMTAP	85	192	1
NMTAP	85	216	5
NMTAP	85	240	4
NMTAP	85	264	6
BRTAP	85	288	0
NMTAP	85	312	7
NMTAP	85	336	2
NMTAP	85	360	5
BRTAP	86	0	1
NMTAP	86	24	0
NMTAP	86	48	2
NMTAP	86	72	6
NMTAP	86	96	7
NMTAP	86	120	5
BRTAP	86	144	1
NMTAP	86	168	0
NMTAP	86	192	2
NMTAP	86	216	6
NMTAP	86	240	7
NMTAP	86	264	5
BRTAP	86	288	3
NMTAP	86	312	4
NMTAP	86	336	2
NMTAP	86	360	5
BRTAP	87	0	1
NMTAP	87	24	0
NMTAP	87	48	2
NMTAP	87	72	5
NMTAP	87	96	4
NMTAP	87	120	6
BRTAP	87	144	1
NMTAP	87	168	0
NMTAP	87	192	2
NMTAP	87	216	5
NMTAP	87	240	4
NMTAP	87	264	6
BRTAP	87	288	0
NMTAP	87	312	7
NMTAP	87	336	1
NMTAP	87	360	6
BRTAP	88	0	2
NMTAP	88	24	3
NMTAP	88	48	1
NMTAP	88	72	6
NMTAP	88	96	7
NMTAP	88	120	5
BRTAP	88	144	2
NMTAP	88	168	3
NMTAP	88	192	1
NMTAP	88	216	7
NMTAP	88	240	0
NMTAP	88	264	7
NMTAP	88	288	0
NMTAP	88	336	1
NMTAP	88	336	7
BRSTR	89	0	0
NMSI_	89	0	0	96	48	4
BRTAP	89	0	6
NMTAP	89	48	6
NMSTR	89	96	0
NMSI_	89	96	0	96	48	2
NMTAP	89	120	7
NMTAP	89	168	7
NMSTR	89	192	0
NMSI_	89	192	0	96	48	4
NMTAP	89	240	5
NMTAP	89	264	5
NMSTR	89	288	0
NMSI_	89	288	0	96	48	2
NMTAP	89	336	6
NMSTR	90	0	0
NMSI_	90	0	0	96	48	4
NMTAP	90	0	6
NMTAP	90	48	6
NMSTR	90	96	0
NMSI_	90	96	0	96	48	2
NMTAP	90	120	7
NMTAP	90	168	7
NMTAP	90	192	0
NMTAP	90	240	5
NMTAP	90	264	5
NMTAP	90	288	0
NMTAP	90	336	1
NMTAP	90	336	7
BRTAP	91	0	0
BRSTR	91	0	6
NMSI_	91	0	6	96	48	2
NMTAP	91	48	0
NMSTR	91	96	6
NMSI_	91	96	6	96	48	4
NMTAP	91	120	1
NMTAP	91	168	1
NMSTR	91	192	6
NMSI_	91	192	6	96	48	2
NMTAP	91	240	2
NMTAP	91	264	2
NMSTR	91	288	6
NMSI_	91	288	6	96	48	4
NMTAP	91	336	1
NMTAP	92	0	0
NMSTR	92	0	6
NMSI_	92	0	6	96	48	2
NMTAP	92	48	0
NMSTR	92	96	6
NMSI_	92	96	6	96	48	4
NMTAP	92	120	1
NMTAP	92	168	1
NMTAP	92	192	6
NMTAP	92	240	2
NMTAP	92	264	2
NMTAP	92	288	7
NMTAP	92	336	0
NMTAP	92	336	6
BRTAP	93	0	0
BRTAP	93	0	6
NMHLD	93	96	1	48
NMHLD	93	96	5	48
NMHLD	93	192	2	48
NMHLD	93	192	4	48
NMHLD	93	288	3	48
NMTAP	94	0	2
NMTAP	94	0	4
NMTAP	94	24	5
NMTAP	94	48	6
NMTAP	94	72	7
NMTAP	94	96	1
NMTAP	94	120	2
NMTAP	94	144	3
NMTAP	94	168	4
NMTAP	94	192	7
NMTAP	94	216	6
NMTAP	94	240	5
NMTAP	94	264	4
NMTAP	94	288	1
NMTAP	94	312	0
NMTAP	94	336	1
NMTAP	95	0	2
NMTAP	95	0	7
NMTAP	95	48	3
NMTAP	95	48	6
NMTAP	95	96	5
NMTAP	95	120	4
NMTAP	95	144	5
NMTAP	95	192	3
NMTAP	95	192	4
NMTAP	95	240	2
NMTAP	95	264	3
NMTAP	95	288	2
NMSTR	95	336	0
NMSI_	95	336	0	96	24	4
NMTAP	95	336	4
BRTAP	96	48	0
NMSTR	96	48	6
NMSI_	96	48	6	96	24	2
NMSTR	96	120	1
NMSI_	96	120	1	96	24	5
BRTAP	96	120	6
BRTAP	96	192	1
NMSTR	96	192	7
NMSI_	96	192	7	96	24	3
NMSTR	96	264	0
NMSF_	96	264	0	96	24	4
BRTAP	96	264	7
BRTAP	96	336	0
NMTTP	97	96	0	C	1	M1
NMTTP	97	96	2	B	0	M1
NMTTP	97	96	2	A	0	M1
NMTTP	97	96	3	B	0	M1
NMTTP	97	96	3	E	0	M1
NMTTP	97	96	3	D	0	M1
NMTTP	97	96	4	B	0	M1
NMTTP	97	96	5	B	0	M1
NMTTP	97	96	6	B	0	M1
NMTTP	97	96	6	E	0	M1
NMTTP	97	96	6	A	0	M1
NMTTP	97	96	6	D	0	M1
NMSTR	97	192	0
NMSI_	97	192	0	96	48	4
NMTAP	97	240	0
NMTAP	97	288	7
NMTAP	97	336	7
NMSTR	98	0	6
NMSI_	98	0	6	96	48	3
NMTAP	98	48	6
NMTAP	98	96	2
NMTAP	98	144	2
NMTAP	98	192	1
NMTAP	98	216	0
NMTAP	98	240	1
NMTAP	98	264	0
NMTAP	98	288	1
NMTAP	98	336	2
NMTAP	98	336	7
NMSTR	99	0	3
NMSI_	99	0	3	96	48	7
NMTAP	99	48	3
NMTAP	99	96	5
NMTAP	99	144	5
NMSTR	99	192	0
NMSI_	99	192	0	96	48	2
NMTAP	99	240	0
NMTAP	99	288	6
NMTAP	99	336	6
NMSTR	100	0	3
NMSCL	100	0	3	96	48	0
NMTAP	100	48	3
NMSTR	100	96	7
NMSCL	100	96	7	96	48	4
NMTAP	100	144	7
NMTAP	100	192	2
NMTAP	100	240	2
NMTAP	100	288	1
NMTAP	100	288	3
NMTAP	100	336	0
NMTAP	100	336	4
NMHLD	101	0	5	96
NMTAP	101	0	7
NMHLD	101	96	4	96
NMHLD	101	192	3	96
NMHLD	101	288	2	96
NMTAP	102	0	1
NMTAP	102	96	0
NMTAP	102	96	7
NMTAP	102	192	1
NMTAP	102	216	0
NMTAP	102	240	1
NMTAP	102	264	0
NMTAP	102	288	1
NMTAP	102	312	0
NMTAP	102	336	1
NMTAP	102	360	0
BRTAP	103	0	1
NMTAP	103	12	2
NMTAP	103	24	3
NMTAP	103	36	4
NMTAP	103	48	6
NMTAP	103	72	7
NMTAP	103	96	6
NMTAP	103	120	7
NMTAP	103	144	6
NMTAP	103	168	7
BRTAP	103	192	6
NMTAP	103	204	5
NMTAP	103	216	4
NMTAP	103	228	3
NMTAP	103	240	1
NMTAP	103	264	0
BRTAP	103	288	1
NMTAP	103	300	2
NMTAP	103	312	3
NMTAP	103	324	4
NMTAP	103	336	6
NMTAP	103	360	7
NMTAP	104	0	6
NMTAP	104	24	7
NMTAP	104	48	5
NMTAP	104	72	0
NMTAP	104	96	4
NMTAP	104	120	1
NMTAP	104	144	3
NMTAP	104	168	2
NMTAP	104	192	5
NMTAP	104	216	4
NMTAP	104	240	6
NMTAP	104	264	1
NMSTR	104	288	0
NMSI_	104	288	0	96	48	4
BRSI_	104	288	0	96	48	3
NMTAP	104	336	2
NMTAP	104	336	7
CNSI_	105	48	3	0	48	7
CNSI_	105	48	4	0	48	6

T_REC_TAP	726
T_REC_BRK	27
T_REC_XTP	23
T_REC_BXX	30
T_REC_HLD	53
T_REC_XHO	2
T_REC_BHO	2
T_REC_BXH	1
T_REC_STR	57
T_REC_BST	2
T_REC_XST	3
T_REC_XBS	9
T_REC_TTP	16
T_REC_THO	3
T_REC_SLD	70
T_REC_BSL	6
T_REC_ALL	1030
T_NUM_TAP	825
T_NUM_BRK	77
T_NUM_HLD	58
T_NUM_SLD	70
T_NUM_ALL	1030
T_JUDGE_TAP	893
T_JUDGE_HLD	152
T_JUDGE_SLD	76
T_JUDGE_ALL	1121
TTM_EACHPAIRS	143
TTM_SCR_TAP	412500
TTM_SCR_BRK	200200
TTM_SCR_HLD	58000
TTM_SCR_SLD	105000
TTM_SCR_ALL	775700
TTM_SCR_S	745000
TTM_SCR_SS	768000
TTM_RAT_ACV	10100

