VERSION	0.00.00	1.04.00
FES_MODE	0
BPM_DEF	175.000	175.000	175.000	175.000
MET_DEF	4	4
RESOLUTION	384
CLK_DEF	384
COMPATIBLE_CODE	MA2

BPM	0	0	175.000
MET	0	0	4	4

EXSTR	1	0	0
NMSCR	1	0	0	96	384	5
NMTTP	2	192	6	E	0	M1
NMTTP	2	216	5	B	0	M1
NMTTP	2	240	4	B	0	M1
NMTTP	2	264	4	E	0	M1
NMTHO	2	288	0	48	C	0	M1
NMTTP	4	192	6	E	0	M1
NMTTP	4	240	5	E	0	M1
NMTTP	4	288	3	E	0	M1
NMTTP	4	336	2	E	0	M1
EXSTR	5	0	7
NMSCL	5	0	7	96	384	2
NMTTP	6	192	2	E	0	M1
NMTTP	6	216	2	B	0	M1
NMTTP	6	240	3	B	0	M1
NMTTP	6	264	4	E	0	M1
NMTHO	6	288	0	48	C	0	M1
NMTTP	8	192	2	B	0	M1
NMTTP	8	192	2	E	0	M1
NMTTP	8	192	6	B	0	M1
NMTTP	8	192	6	E	0	M1
NMTHO	8	240	0	48	C	0	M1
EXTAP	9	0	0
EXTAP	9	0	7
NMTAP	9	96	0
NMTAP	9	192	1
NMTAP	9	192	3
NMTAP	9	288	1
NMTAP	10	0	2
NMTAP	10	0	3
NMTAP	10	96	2
NMTAP	10	192	4
NMTAP	10	240	3
NMTAP	10	288	5
NMTAP	10	336	5
NMTAP	11	0	4
NMTAP	11	0	6
NMTAP	11	96	5
NMTAP	11	192	3
NMTAP	11	192	4
NMTAP	11	288	2
NMTAP	12	0	1
NMTAP	12	0	3
NMTAP	12	96	0
NMTAP	12	96	7
NMTAP	12	192	1
NMTAP	12	240	2
NMTAP	12	288	5
NMTAP	12	336	6
EXTAP	13	0	0
EXTAP	13	0	7
NMTAP	13	96	7
NMTAP	13	192	4
NMTAP	13	192	6
NMTAP	13	288	6
NMTAP	14	0	4
NMTAP	14	0	5
NMTAP	14	96	5
NMTAP	14	192	3
NMTAP	14	240	4
NMTAP	14	288	2
NMTAP	14	336	2
NMSTR	15	0	1
NMSI_	15	0	1	96	48	5
NMTAP	15	0	3
NMSTR	15	192	7
NMSCL	15	192	7	96	48	4
NMSTR	15	288	0
NMSCR	15	288	0	96	48	3
NMTTP	16	0	0	C	1	M1
NMTAP	17	0	4
NMTAP	17	0	6
NMHLD	17	48	5	72
NMHLD	17	120	4	72
NMHLD	17	192	3	72
NMHLD	17	264	2	72
NMTAP	17	336	1
NMTAP	18	0	1
NMTAP	18	0	2
NMTAP	18	96	3
NMTAP	18	96	4
NMTAP	18	192	5
NMTAP	18	192	6
NMTAP	18	288	0
NMTAP	18	288	7
NMTAP	19	0	1
NMTAP	19	0	3
NMHLD	19	48	2	72
NMHLD	19	120	3	72
NMHLD	19	192	4	72
NMHLD	19	264	5	72
NMTAP	19	336	6
NMSTR	20	0	6
NMSI_	20	0	6	96	48	2
NMSTR	20	192	0
NMSI_	20	192	0	96	48	3
NMSTR	20	192	7
NMSI_	20	192	7	96	48	4
EXTAP	21	0	2
EXTAP	21	0	5
NMTAP	21	96	0
NMTAP	21	96	7
NMHLD	21	192	1	72
NMHLD	21	264	2	72
NMTAP	21	336	3
NMTAP	22	0	3
NMTAP	22	48	4
NMTAP	22	96	4
NMTAP	22	96	5
NMTAP	22	192	4
NMTAP	22	240	3
NMTAP	22	288	2
NMTAP	22	288	3
NMSTR	23	0	1
NMSI_	23	0	1	96	48	5
NMTAP	23	0	4
NMHLD	23	192	6	72
NMHLD	23	264	5	72
NMSTR	23	336	4
NMSCR	23	336	4	96	168	3
NMTAP	24	0	4
EXTAP	24	264	5
EXTAP	24	264	6
EXSTR	24	336	1
NMSI_	24	336	1	96	48	5
EXTAP	24	336	2
BRTAP	25	96	7
NMTAP	25	192	0
NMHLD	25	192	6	72
NMHLD	25	264	4	72
NMTAP	25	336	3
NMTAP	26	0	3
NMTAP	26	48	1
NMTAP	26	96	3
NMTAP	26	144	2
NMHLD	26	192	7	72
NMHLD	26	264	5	72
NMTAP	26	336	4
NMTAP	27	0	4
NMTAP	27	48	2
NMTAP	27	96	3
NMTAP	27	144	4
NMHLD	27	192	1	72
NMHLD	27	264	3	72
NMTAP	27	336	4
NMTAP	28	0	4
NMTAP	28	48	6
NMTAP	28	96	4
NMTAP	28	144	5
NMHLD	28	192	0	72
NMHLD	28	264	2	72
NMTAP	28	336	3
NMSTR	29	0	3
NMSI_	29	0	3	96	48	0
NMTAP	29	96	4
NMSTR	29	192	5
NMSI_	29	192	5	96	48	2
NMTAP	29	288	0
NMSTR	30	0	1
NMSI_	30	0	1	96	48	6
NMTAP	30	96	5
NMSTR	30	192	4
NMSI_	30	192	4	96	48	7
NMTAP	30	288	3
NMTAP	31	0	1
NMTAP	31	48	1
NMTAP	31	96	3
NMTAP	31	144	3
NMTAP	31	192	4
NMTAP	31	240	4
NMTAP	31	288	6
NMTAP	31	336	6
NMTAP	32	0	0
NMTAP	32	24	7
NMTAP	32	48	0
NMTAP	32	72	7
NMTAP	32	96	1
NMTAP	32	120	6
NMTAP	32	144	1
NMTAP	32	168	6
NMTAP	32	192	2
NMTAP	32	216	5
NMTAP	32	240	2
NMTAP	32	264	5
EXSTR	32	288	3
NMSCL	32	288	3	96	2592	4
EXTAP	32	288	4
NMTTP	33	0	0	C	1	M1
NMTHO	36	0	0	432	C	1	M1
NMTHO	40	0	0	384	C	1	M1
NMTTP	40	0	2	B	0	M1
NMTTP	40	0	2	E	0	M1
NMTTP	40	0	6	B	0	M1
NMTTP	40	0	6	E	0	M1
NMHLD	42	0	1	384
NMHLD	43	0	3	384
NMHLD	44	0	4	192
NMHLD	44	192	6	192
NMTAP	45	0	4
NMTAP	45	96	4
NMTAP	45	192	4
NMTAP	45	288	3
NMTAP	45	288	5
NMTAP	46	0	2
NMTAP	46	96	2
NMTAP	46	192	2
NMTAP	46	288	1
NMTAP	46	288	3
NMTAP	47	0	5
NMTAP	47	96	5
NMTAP	47	192	5
NMTAP	47	288	4
NMTAP	47	288	6
NMSTR	48	0	3
NMSXR	48	0	3	96	192	0
NMSTR	48	0	7
NMSXR	48	0	7	96	192	4
EXTAP	49	0	1
EXHLD	49	48	1	72
NMTAP	49	120	0
NMHLD	49	192	2	72
NMTAP	49	264	3
NMTAP	49	336	0
NMTAP	49	336	4
EXTAP	50	0	6
EXHLD	50	48	6	72
NMTAP	50	120	7
NMHLD	50	192	5	72
NMTAP	50	264	4
NMTAP	50	336	2
NMTAP	50	336	6
EXTAP	51	0	0
EXHLD	51	48	0	72
NMTAP	51	120	7
NMHLD	51	192	5	72
NMTAP	51	264	4
NMTAP	51	336	3
NMTAP	51	336	7
EXTAP	52	0	1
EXHLD	52	48	1	72
NMTAP	52	120	0
NMHLD	52	192	2	72
NMTAP	52	264	3
NMTAP	52	336	1
NMTAP	52	336	5
EXTAP	53	0	6
EXHLD	53	48	6	72
NMTAP	53	120	7
NMHLD	53	192	5	72
NMTAP	53	264	4
NMTAP	53	336	3
NMTAP	53	336	7
EXTAP	54	0	1
EXHLD	54	48	1	72
NMTAP	54	120	0
NMHLD	54	192	2	72
NMTAP	54	264	3
NMTAP	54	336	1
NMTAP	54	336	5
EXTAP	55	0	7
EXHLD	55	48	7	72
NMTAP	55	120	0
NMHLD	55	192	2	72
NMTAP	55	264	3
NMTAP	55	336	5
NMTAP	55	360	4
NMHLD	56	48	6	48
EXHLD	56	48	7	48
EXHLD	56	120	0	48
NMHLD	56	120	1	48
EXHLD	56	192	2	48
NMHLD	56	192	3	48
NMHLD	56	264	4	48
EXHLD	56	264	5	48
EXTAP	56	336	3
EXTAP	56	336	7
BXTAP	57	0	3
BXTAP	57	0	7
NMTAP	57	96	6
NMTAP	57	192	5
NMTAP	57	288	5
NMTAP	58	0	4
NMTAP	58	96	4
NMTAP	58	192	3
NMTAP	58	240	4
NMTAP	58	288	3
NMTAP	58	288	4
EXTAP	59	0	2
EXTAP	59	0	5
NMTAP	59	96	1
NMTAP	59	192	2
NMTAP	59	288	2
NMTAP	60	0	3
NMTAP	60	96	3
NMTAP	60	192	4
NMTAP	60	240	4
NMTAP	60	288	3
NMTAP	60	336	3
EXTAP	61	0	5
NMTAP	61	48	5
NMHLD	61	96	5	48
EXTAP	61	192	4
NMTAP	61	240	4
NMHLD	61	288	4	48
EXTAP	62	0	3
NMTAP	62	48	3
NMHLD	62	96	3	48
EXTAP	62	192	2
NMTAP	62	240	2
NMHLD	62	288	2	48
EXTAP	63	0	1
NMTAP	63	48	1
NMTAP	63	96	3
NMTAP	63	144	3
NMTAP	63	192	4
NMTAP	63	240	4
NMTAP	63	288	6
NMTAP	63	336	6
EXTAP	64	0	0
EXTAP	64	0	7
NMSTR	64	96	3
NMSI_	64	96	3	96	48	1
NMSTR	64	96	4
NMSI_	64	96	4	96	48	6
NMTAP	64	144	3
NMTAP	64	144	4
BRSTR	64	288	0
NMSI_	64	288	0	96	48	4
BRSTR	64	288	7
NMSI_	64	288	7	96	48	3
NMTAP	65	96	1
NMTAP	65	96	6
NMTAP	65	192	2
NMTAP	65	240	3
NMTAP	65	288	2
NMTAP	65	336	1
NMTAP	66	0	2
NMTAP	66	48	3
NMTAP	66	96	2
NMTAP	66	144	1
NMTAP	66	192	2
NMTAP	66	240	3
NMSTR	66	288	2
BRSI_	66	288	2	96	48	5
NMTAP	66	336	1
NMSTR	67	96	6
NMSI_	67	96	6	96	48	1
NMTAP	67	144	6
NMTAP	67	192	3
NMSTR	67	288	5
NMSI_	67	288	5	96	48	2
NMTAP	67	336	5
NMTAP	68	0	0
NMSTR	68	96	6
NMSI_	68	96	6	96	48	2
NMTAP	68	144	6
NMTAP	68	192	1
EXSTR	68	288	0
NMSI_	68	288	0	96	48	4
EXSTR	68	288	7
NMSI_	68	288	7	96	48	3
NMTAP	69	96	1
NMTAP	69	96	6
NMTAP	69	192	5
NMTAP	69	240	4
NMTAP	69	288	2
NMTAP	69	336	3
NMTAP	70	0	6
NMTAP	70	48	4
NMTAP	70	96	1
NMTAP	70	144	3
NMSTR	70	192	5
NMSI_	70	192	5	96	48	2
NMTAP	70	240	2
BRTAP	71	0	0
BRTAP	71	0	7
BRTAP	71	48	1
BRTAP	71	48	6
BRTAP	71	96	2
BRTAP	71	96	5
NMHLD	71	192	0	48
NMHLD	71	192	1	48
NMHLD	71	288	6	48
NMHLD	71	288	7	48
NMSTR	72	0	1
NMSI_	72	0	1	96	48	3
NMSTR	72	96	6
NMSI_	72	96	6	96	48	4
NMSTR	72	192	0
NMSCR	72	192	0	96	48	3
NMSTR	72	288	7
NMSCL	72	288	7	96	48	4
BRTAP	73	0	0
NMTAP	73	96	1
NMTAP	73	96	6
NMTAP	73	192	5
NMTAP	73	240	4
NMTAP	73	288	5
NMTAP	73	336	6
NMTAP	74	0	5
NMTAP	74	48	4
NMTAP	74	96	5
NMTAP	74	144	6
NMTAP	74	192	5
NMTAP	74	240	4
NMSTR	74	288	5
BRSI_	74	288	5	96	48	2
NMTAP	74	336	6
NMSTR	75	96	1
NMSI_	75	96	1	96	48	6
NMTAP	75	144	1
NMTAP	75	192	4
NMSTR	75	288	2
NMSI_	75	288	2	96	48	5
NMTAP	75	336	2
NMTAP	76	0	7
NMSTR	76	96	1
NMSI_	76	96	1	96	48	5
NMTAP	76	144	1
NMTAP	76	192	6
EXSTR	76	288	0
NMSI_	76	288	0	96	48	4
EXSTR	76	288	7
NMSI_	76	288	7	96	48	3
NMTAP	77	96	1
NMTAP	77	96	6
NMTAP	77	192	2
NMTAP	77	240	3
NMTAP	77	288	5
NMTAP	77	336	4
NMTAP	78	0	1
NMTAP	78	48	3
NMTAP	78	96	6
NMTAP	78	144	4
NMTAP	78	192	0
NMTAP	78	240	3
NMTAP	78	288	7
NMTAP	78	336	4
NMTAP	79	48	5
NMTAP	79	48	6
NMTAP	79	120	3
NMTAP	79	120	4
NMTAP	79	192	1
NMTAP	79	192	2
NMTAP	79	264	0
NMTAP	79	264	7
NMHLD	79	336	3	24
NMHLD	79	336	4	24
NMSTR	80	192	0
NMSI_	80	192	0	96	48	4
NMTAP	80	216	7
NMTAP	80	240	0
EXTAP	81	0	5
EXTAP	81	48	4
EXTAP	81	48	6
NMTAP	81	96	2
NMTAP	81	120	3
NMTAP	81	168	3
NMTAP	81	192	1
NMTAP	81	240	1
NMTAP	81	264	7
NMTAP	81	312	7
NMTAP	81	336	0
EXTAP	82	0	2
EXTAP	82	48	1
EXTAP	82	48	3
NMTAP	82	96	5
NMTAP	82	120	4
NMTAP	82	168	4
NMTAP	82	192	6
NMTAP	82	240	6
NMTAP	82	264	0
NMTAP	82	312	0
NMTAP	82	336	7
EXTAP	83	0	6
EXHLD	83	48	6	48
NMTAP	83	96	4
NMTAP	83	120	5
NMTAP	83	168	3
NMTAP	83	192	4
NMTAP	83	240	2
NMTAP	83	264	3
NMTAP	83	312	1
NMTAP	83	336	2
EXTAP	84	0	0
EXHLD	84	48	0	48
NMTAP	84	96	2
NMTAP	84	120	1
NMTAP	84	168	3
NMTAP	84	192	2
NMTAP	84	240	4
NMTAP	84	264	3
NMTAP	84	312	5
NMTAP	84	336	4
EXTAP	85	0	7
EXTAP	85	48	0
EXTAP	85	48	6
NMTAP	85	96	1
NMTAP	85	120	3
NMTAP	85	168	3
NMTAP	85	192	2
NMTAP	85	240	2
NMTAP	85	264	7
NMTAP	85	312	7
NMTAP	85	336	0
EXTAP	86	0	0
EXTAP	86	48	1
EXTAP	86	48	7
NMTAP	86	96	6
NMTAP	86	120	4
NMTAP	86	168	4
NMTAP	86	192	5
NMTAP	86	240	5
NMTAP	86	264	0
NMTAP	86	312	0
NMTAP	86	336	7
EXTAP	87	0	6
EXHLD	87	48	6	48
NMTAP	87	96	4
NMTAP	87	120	5
NMTAP	87	168	3
NMTAP	87	192	4
NMTAP	87	240	2
NMTAP	87	264	3
NMTAP	87	312	1
NMTAP	87	336	2
EXTAP	88	0	0
EXHLD	88	48	0	48
NMTAP	88	96	2
NMTAP	88	120	1
NMTAP	88	168	3
NMTAP	88	192	2
NMTAP	88	240	4
NMTAP	88	264	3
NMTAP	88	312	5
NMTAP	88	336	4
EXTAP	89	0	6
EXHLD	89	48	6	48
NMTAP	89	96	4
NMTAP	89	120	5
NMTAP	89	168	2
NMTAP	89	192	3
NMTAP	89	240	1
NMTAP	89	264	0
NMTAP	89	312	6
NMTAP	89	336	7
EXTAP	90	0	1
EXHLD	90	48	1	48
NMTAP	90	96	3
NMTAP	90	120	2
NMTAP	90	168	5
NMTAP	90	192	4
NMTAP	90	240	6
NMTAP	90	264	7
NMTAP	90	312	1
NMTAP	90	336	0
EXTAP	91	0	6
EXHLD	91	48	6	48
NMTAP	91	96	4
NMTAP	91	120	5
NMTAP	91	168	2
NMTAP	91	192	3
NMTAP	91	240	1
NMTAP	91	264	0
NMTAP	91	312	6
NMTAP	91	336	7
EXTAP	92	0	1
EXHLD	92	48	1	48
NMTAP	92	96	3
NMTAP	92	120	2
NMTAP	92	168	5
NMTAP	92	192	4
NMTAP	92	240	6
NMTAP	92	264	7
NMTAP	92	312	1
NMTAP	92	336	0
NMSTR	93	0	7
NMSI_	93	0	7	96	48	3
NMSTR	93	96	0
NMSI_	93	96	0	96	48	2
NMSTR	93	192	6
NMSI_	93	192	6	96	48	4
NMTAP	93	288	3
EXTAP	94	0	1
EXTAP	94	24	2
EXTAP	94	48	3
EXTAP	94	72	4
EXTAP	94	96	7
EXTAP	94	120	6
EXTAP	94	144	5
EXTAP	94	168	4
EXTAP	94	192	0
EXTAP	94	216	1
EXTAP	94	240	2
EXTAP	94	264	3
EXTAP	94	288	6
EXTAP	94	312	5
EXTAP	94	336	4
EXTAP	94	360	3
NMHLD	95	48	1	72
NMHLD	95	120	3	72
NMHLD	95	192	4	72
NMHLD	95	264	6	72
NMTAP	95	336	0
NMTAP	95	360	7
NMHLD	96	48	2	48
NMHLD	96	48	3	48
NMHLD	96	120	0	48
NMHLD	96	120	7	48
NMHLD	96	192	4	48
NMHLD	96	192	5	48
NMHLD	96	264	1	48
NMHLD	96	264	2	48
NMSTR	96	336	6
NMSI_	96	336	6	96	48	2
NMTAP	96	336	7
BRTAP	97	96	0
NMTAP	97	192	1
NMTAP	97	288	2
NMTAP	98	0	3
NMTAP	98	96	4
NMTAP	98	192	2
NMTAP	98	216	3
NMTAP	98	240	2
NMTAP	98	264	3
NMTAP	98	288	1
NMTAP	98	336	1
NMTAP	99	0	6
NMTAP	99	96	5
NMTAP	99	192	4
NMTAP	99	288	3
NMTAP	100	0	2
NMTAP	100	96	1
NMTAP	100	192	0
NMTAP	100	192	7
NMTAP	100	240	6
NMTAP	100	288	0
NMTAP	100	288	7
NMTAP	100	336	1
BRTAP	101	0	0
BRTAP	101	0	7
NMTAP	101	96	1
NMTAP	101	288	3
NMTAP	102	96	5
NMTAP	102	192	3
NMTAP	102	216	4
NMTAP	102	240	3
NMTAP	102	264	4
NMTAP	102	288	2
NMTAP	102	336	2
NMTAP	103	96	3
NMTAP	103	96	4
NMTTP	103	192	7	E	0	M1
NMTTP	103	208	6	B	0	M1
NMTTP	103	224	5	B	0	M1
NMTTP	103	240	5	E	0	M1
NMTTP	103	288	1	E	0	M1
NMTTP	103	304	1	B	0	M1
NMTTP	103	320	2	B	0	M1
NMTTP	103	336	3	E	0	M1
NMTAP	104	96	0
NMTAP	104	96	7
NMTAP	104	192	4
NMTAP	104	192	6
NMTAP	104	240	3
NMTAP	104	240	5
NMTAP	104	288	2
NMTAP	104	288	4
NMTAP	104	336	1
NMTAP	104	336	3
NMTTP	105	0	0	B	0	M1
NMTHO	105	0	0	48	C	1	M1
NMTTP	105	0	4	B	0	M1

T_REC_TAP	397
T_REC_BRK	11
T_REC_XTP	64
T_REC_HLD	57
T_REC_XHO	19
T_REC_STR	34
T_REC_BST	2
T_REC_XST	8
T_REC_TTP	32
T_REC_THO	6
T_REC_SLD	44
T_REC_ALL	674
T_NUM_TAP	535
T_NUM_BRK	13
T_NUM_HLD	82
T_NUM_SLD	44
T_NUM_ALL	674
T_JUDGE_TAP	548
T_JUDGE_HLD	155
T_JUDGE_SLD	44
T_JUDGE_ALL	747
TTM_EACHPAIRS	83
TTM_SCR_TAP	267500
TTM_SCR_BRK	33800
TTM_SCR_HLD	82000
TTM_SCR_SLD	66000
TTM_SCR_ALL	449300
TTM_SCR_S	434600
TTM_SCR_SS	448000
TTM_RAT_ACV	10029

