VERSION	0.00.00	1.04.00
FES_MODE	0
BPM_DEF	175.000	175.000	175.000	175.000
MET_DEF	4	4
RESOLUTION	384
CLK_DEF	384
COMPATIBLE_CODE	MA2

BPM	0	0	175.000
MET	0	0	4	4

NMHLD	1	0	2	384
NMHLD	2	0	3	384
NMHLD	3	0	4	384
NMTAP	4	0	5
NMHLD	5	0	5	384
NMHLD	6	0	4	384
NMHLD	7	0	3	384
NMTAP	8	0	2
NMTAP	9	0	1
NMTAP	9	96	1
NMTAP	9	192	0
NMTAP	9	192	1
NMTAP	10	0	2
NMTAP	10	96	2
NMTAP	10	192	2
NMTAP	10	192	3
NMTAP	11	0	4
NMTAP	11	96	4
NMTAP	11	192	3
NMTAP	11	192	4
NMTAP	12	0	5
NMTAP	12	96	5
NMTAP	12	192	4
NMTAP	12	192	5
NMTAP	13	0	6
NMTAP	13	96	6
NMTAP	13	192	6
NMTAP	13	192	7
NMTAP	14	0	5
NMTAP	14	96	5
NMTAP	14	192	4
NMTAP	14	192	5
NMTAP	15	0	3
NMTAP	15	96	3
NMTAP	15	192	3
NMTAP	15	192	4
NMTAP	16	0	2
NMTAP	16	96	2
NMTAP	16	192	2
NMTAP	16	192	3
NMTAP	17	0	2
NMTAP	17	96	2
NMTAP	17	192	1
NMTAP	17	288	1
NMHLD	18	0	0	192
NMTAP	18	192	7
NMTAP	19	0	6
NMTAP	19	96	6
NMTAP	19	192	5
NMTAP	19	288	5
NMHLD	20	0	4	192
NMTAP	20	192	3
NMTAP	21	0	5
NMTAP	21	96	5
NMTAP	21	192	6
NMTAP	21	288	6
NMHLD	22	0	7	192
NMTAP	22	192	0
NMTAP	23	0	1
NMTAP	23	96	1
NMTAP	23	192	2
NMTAP	23	288	2
NMHLD	24	0	3	192
NMTAP	24	192	4
NMTAP	25	0	5
NMTAP	25	96	5
NMTAP	25	192	4
NMTAP	25	288	4
NMTAP	26	0	3
NMTAP	26	96	3
NMTAP	26	192	2
NMTAP	26	192	3
NMTAP	27	0	2
NMTAP	27	96	2
NMTAP	27	192	3
NMTAP	27	288	3
NMTAP	28	0	4
NMTAP	28	96	4
NMTAP	28	192	4
NMTAP	28	192	5
NMTAP	29	0	6
NMTAP	29	96	6
NMTAP	29	192	5
NMTAP	29	288	5
NMTAP	30	0	4
NMTAP	30	96	4
NMTAP	30	192	2
NMTAP	30	192	3
NMTAP	31	0	1
NMTAP	31	96	1
NMTAP	31	192	2
NMTAP	31	288	2
NMTAP	32	0	3
NMTAP	32	96	3
NMTAP	32	192	4
NMTAP	32	192	5
NMSTR	33	0	6
NMSI_	33	0	6	96	192	3
NMSTR	34	0	1
NMSI_	34	0	1	96	192	4
NMSTR	35	0	5
NMSI_	35	0	5	96	192	0
NMTAP	36	0	1
NMTAP	36	192	0
NMTAP	36	192	1
NMSTR	37	0	1
NMSI_	37	0	1	96	192	4
NMSTR	38	0	6
NMSI_	38	0	6	96	192	3
NMSTR	39	0	2
NMSI_	39	0	2	96	192	7
NMTAP	40	0	6
NMTAP	40	192	6
NMTAP	40	192	7
NMHLD	41	0	6	192
NMHLD	41	192	5	192
NMHLD	42	0	4	192
NMHLD	42	192	3	192
NMHLD	43	0	2	192
NMHLD	43	192	1	192
NMTAP	44	0	0
NMTAP	44	192	0
NMTAP	44	192	1
NMHLD	45	0	1	192
NMHLD	45	192	2	192
NMHLD	46	0	3	192
NMHLD	46	192	4	192
NMHLD	47	0	5	192
NMHLD	47	192	6	192
NMTAP	48	0	7
EXTAP	48	192	6
EXTAP	48	192	7
NMTAP	49	0	5
NMTAP	49	96	5
NMTAP	49	192	4
NMTAP	49	192	5
NMTAP	49	288	4
NMTAP	49	288	5
NMTAP	50	0	6
NMTAP	50	96	6
NMTAP	50	192	6
NMTAP	50	192	7
NMTAP	50	288	6
NMTAP	50	288	7
NMTAP	51	0	0
NMTAP	51	96	0
NMTAP	51	192	0
NMTAP	51	192	1
NMTAP	51	288	0
NMTAP	51	288	1
NMTAP	52	0	2
NMTAP	52	0	3
NMTAP	52	96	2
NMTAP	52	96	3
NMTAP	52	192	2
NMTAP	52	192	3
NMTAP	53	0	2
NMTAP	53	96	2
NMTAP	53	192	2
NMTAP	53	192	3
NMTAP	53	288	2
NMTAP	53	288	3
NMTAP	54	0	1
NMTAP	54	96	1
NMTAP	54	192	0
NMTAP	54	192	1
NMTAP	54	288	0
NMTAP	54	288	1
NMTAP	55	0	7
NMTAP	55	96	7
NMTAP	55	192	6
NMTAP	55	192	7
NMTAP	55	288	6
NMTAP	55	288	7
NMTAP	56	0	4
NMTAP	56	0	5
NMTAP	56	96	4
NMTAP	56	96	5
NMTAP	56	192	4
NMTAP	56	192	5
NMTTP	57	0	6	B	0	L1
NMTTP	57	96	5	B	0	L1
NMTTP	57	192	4	B	0	L1
NMTTP	58	0	1	B	0	L1
NMTTP	58	96	2	B	0	L1
NMTTP	58	192	3	B	0	L1
NMTTP	59	0	7	B	0	L1
NMTTP	59	96	6	B	0	L1
NMTTP	59	192	4	B	0	L1
NMTTP	59	192	5	B	0	L1
NMTTP	60	0	0	B	0	L1
NMTTP	60	96	1	B	0	L1
NMTTP	60	192	2	B	0	L1
NMTTP	60	192	3	B	0	L1
NMTTP	61	0	7	E	0	L1
NMTTP	61	96	6	E	0	L1
NMTTP	61	192	5	E	0	L1
NMTTP	61	288	4	E	0	L1
NMTTP	62	0	3	E	0	L1
NMTTP	62	96	2	E	0	L1
NMTTP	62	192	1	E	0	L1
NMTTP	63	0	2	B	0	L1
NMTTP	63	96	3	B	0	L1
NMTTP	63	192	4	B	0	L1
NMTTP	63	288	5	B	0	L1
NMTTP	64	0	0	C	1	L1
NMTAP	65	0	0
NMTAP	65	0	1
NMTAP	65	96	0
NMTAP	65	96	1
NMTAP	65	192	2
NMTAP	65	288	2
NMTAP	66	0	0
NMTAP	66	0	1
NMTAP	66	96	0
NMTAP	66	96	1
NMTAP	66	192	7
NMTAP	66	288	7
NMTAP	67	0	0
NMTAP	67	0	1
NMTAP	67	96	1
NMTAP	67	192	0
NMTAP	67	192	1
NMTAP	67	288	1
NMTAP	68	0	0
NMTAP	68	0	1
NMTAP	68	96	1
NMTAP	68	192	0
NMTAP	68	192	1
NMTAP	69	0	2
NMTAP	69	96	2
NMTAP	69	192	2
NMTAP	69	192	3
NMTAP	69	288	2
NMTAP	69	288	3
NMTAP	70	0	5
NMTAP	70	96	5
NMTAP	70	192	4
NMTAP	70	192	5
NMTAP	70	288	4
NMTAP	70	288	5
EXTAP	71	0	3
EXTAP	71	48	3
EXTAP	71	96	3
NMTAP	71	192	2
NMTAP	71	192	3
NMTAP	71	288	2
NMTAP	71	288	3
NMTAP	72	0	4
NMTAP	72	0	5
NMTAP	72	96	4
NMTAP	72	96	5
NMTAP	72	192	4
NMTAP	72	192	5
NMTAP	73	0	6
NMTAP	73	0	7
NMTAP	73	96	6
NMTAP	73	96	7
NMTAP	73	192	5
NMTAP	73	288	5
NMTAP	74	0	6
NMTAP	74	0	7
NMTAP	74	96	6
NMTAP	74	96	7
NMTAP	74	192	0
NMTAP	74	288	0
NMTAP	75	0	6
NMTAP	75	0	7
NMTAP	75	96	6
NMTAP	75	192	6
NMTAP	75	192	7
NMTAP	75	288	6
NMTAP	76	0	6
NMTAP	76	0	7
NMTAP	76	96	6
NMTAP	76	192	6
NMTAP	76	192	7
NMTAP	77	0	5
NMTAP	77	96	5
NMTAP	77	192	4
NMTAP	77	192	5
NMTAP	77	288	4
NMTAP	77	288	5
NMTAP	78	0	2
NMTAP	78	96	2
NMTAP	78	192	2
NMTAP	78	192	3
NMTAP	78	288	2
NMTAP	78	288	3
NMTAP	79	0	1
NMTAP	79	96	1
NMTAP	79	192	0
NMTAP	79	192	1
NMTAP	79	288	0
NMTAP	79	288	1
BRTAP	80	0	0
BRTAP	80	0	7
NMTAP	81	0	6
NMTAP	81	0	7
NMTAP	81	96	6
NMTAP	81	96	7
NMTAP	81	192	5
NMTAP	81	240	5
NMTAP	81	288	5
NMTAP	82	0	3
NMTAP	82	0	4
NMTAP	82	96	3
NMTAP	82	96	4
NMTAP	82	192	2
NMTAP	82	240	2
NMTAP	82	288	2
NMTAP	83	0	0
NMTAP	83	0	1
NMTAP	83	96	0
NMTAP	83	96	1
NMTAP	83	192	7
NMTAP	83	288	7
NMSTR	84	0	6
NMSI_	84	0	6	96	192	3
NMSTR	84	0	7
NMSI_	84	0	7	96	192	2
NMTAP	85	0	0
NMTAP	85	0	1
NMTAP	85	96	0
NMTAP	85	96	1
NMTAP	85	192	2
NMTAP	85	240	2
NMTAP	85	288	2
NMTAP	86	0	3
NMTAP	86	0	4
NMTAP	86	96	3
NMTAP	86	96	4
NMTAP	86	192	5
NMTAP	86	240	5
NMTAP	86	288	5
NMTAP	87	0	6
NMTAP	87	0	7
NMTAP	87	96	6
NMTAP	87	96	7
NMTAP	87	192	0
NMTAP	87	288	0
NMSTR	88	0	0
NMSI_	88	0	0	96	192	5
NMSTR	88	0	1
NMSI_	88	0	1	96	192	4
NMTAP	89	0	6
NMTAP	89	0	7
NMTAP	89	96	6
NMTAP	89	96	7
NMTAP	89	192	5
NMTAP	89	240	5
NMTAP	89	288	5
NMTAP	90	0	3
NMTAP	90	0	4
NMTAP	90	96	3
NMTAP	90	96	4
NMTAP	90	192	2
NMTAP	90	240	2
NMTAP	90	288	2
NMTAP	91	0	0
NMTAP	91	0	1
NMTAP	91	96	0
NMTAP	91	96	1
NMTAP	91	192	7
NMTAP	91	288	7
NMSTR	92	0	6
NMSI_	92	0	6	96	192	3
NMSTR	92	0	7
NMSI_	92	0	7	96	192	2
NMTAP	93	0	0
NMTAP	93	0	1
NMTAP	93	96	0
NMTAP	93	96	1
NMTAP	93	192	2
NMTAP	93	240	2
NMTAP	93	288	2
NMTAP	94	0	3
NMTAP	94	0	4
NMTAP	94	96	3
NMTAP	94	96	4
NMTAP	94	192	5
NMTAP	94	240	5
NMTAP	94	288	5
NMTAP	95	0	6
NMTAP	95	48	6
NMTAP	95	96	6
NMTAP	95	192	7
NMTAP	95	240	7
NMTAP	95	288	7
BRTAP	96	0	0
BRTAP	96	0	7
BRTAP	96	192	0
BRTAP	96	192	7
NMTAP	97	0	1
NMTAP	97	96	1
NMTAP	97	192	2
NMTAP	97	288	2
NMTAP	98	0	3
NMTAP	98	96	3
NMTAP	98	192	4
NMTAP	98	288	4
NMTAP	99	0	5
NMTAP	99	96	5
NMTAP	99	192	6
NMTAP	99	288	6
NMTAP	100	0	7
NMTAP	100	96	7
NMTAP	100	192	0
NMTAP	100	192	7
NMHLD	101	0	6	192
NMHLD	101	192	5	192
NMHLD	102	0	4	192
NMHLD	102	192	3	192
NMHLD	103	0	2	192
NMHLD	103	192	1	192
NMTAP	104	0	0
NMTAP	104	192	0
NMTAP	104	192	7
NMTAP	104	288	0
NMTAP	104	288	7
BRTAP	105	0	0
BRTAP	105	0	7

T_REC_TAP	331
T_REC_BRK	8
T_REC_XTP	5
T_REC_BXX	0
T_REC_HLD	28
T_REC_XHO	0
T_REC_BHO	0
T_REC_BXH	0
T_REC_STR	12
T_REC_BST	0
T_REC_XST	0
T_REC_XBS	0
T_REC_TTP	26
T_REC_THO	0
T_REC_SLD	12
T_REC_BSL	0
T_REC_ALL	422
T_NUM_TAP	374
T_NUM_BRK	8
T_NUM_HLD	28
T_NUM_SLD	12
T_NUM_ALL	422
T_JUDGE_TAP	382
T_JUDGE_HLD	136
T_JUDGE_SLD	12
T_JUDGE_ALL	530
TTM_EACHPAIRS	97
TTM_SCR_TAP	187000
TTM_SCR_BRK	20800
TTM_SCR_HLD	28000
TTM_SCR_SLD	18000
TTM_SCR_ALL	253800
TTM_SCR_S	245450
TTM_SCR_SS	253000
TTM_RAT_ACV	10031

