VERSION	0.00.00	1.04.00
FES_MODE	0
BPM_DEF	165.000	165.000	165.000	165.000
MET_DEF	4	4
RESOLUTION	384
CLK_DEF	384
COMPATIBLE_CODE	MA2

BPM	0	0	165.000
MET	0	0	4	4
MET	35	0	4	5
MET	36	96	4	4
MET	37	96	4	5
MET	38	192	4	4
MET	39	192	4	5
MET	40	288	4	4

NMTAP	2	0	2
NMTAP	2	0	6
NMTAP	2	48	2
NMTAP	2	48	6
NMSTR	2	96	2
NMSI_	2	96	2	96	48	4
NMSTR	2	96	6
NMSI_	2	96	6	96	48	4
CNSV_	2	240	4	0	48	3
CNSV_	2	240	4	0	48	5
NMTAP	3	0	1
NMTAP	3	0	5
NMTAP	3	48	1
NMTAP	3	48	5
NMSTR	3	96	1
NMSV_	3	96	1	96	48	7
NMSTR	3	96	5
NMSV_	3	96	5	96	48	7
CNSI_	3	240	7	0	48	2
CNSI_	3	240	7	0	48	4
NMTAP	4	0	2
NMTAP	4	0	6
NMTAP	4	48	2
NMTAP	4	48	6
NMSTR	4	96	2
NMSI_	4	96	2	96	72	4
NMSTR	4	96	6
NMSI_	4	96	6	96	72	4
CNSV_	4	264	4	0	24	3
CNSV_	4	264	4	0	24	5
NMTAP	5	0	0
BRTAP	5	0	7
NMTAP	5	96	2
NMTAP	5	120	4
NMTAP	5	144	2
NMHLD	5	192	1	72
NMHLD	5	192	5	72
NMTAP	6	0	2
NMTAP	6	0	6
NMTAP	6	48	2
NMTAP	6	48	6
NMSTR	6	96	2
NMSI_	6	96	2	96	48	0
NMSTR	6	96	6
NMSI_	6	96	6	96	48	0
CNSV_	6	240	0	0	48	1
CNSV_	6	240	0	0	48	7
NMTAP	7	0	1
NMTAP	7	0	5
NMTAP	7	48	1
NMTAP	7	48	5
NMSTR	7	96	1
NMSV_	7	96	1	96	48	3
NMSTR	7	96	5
NMSV_	7	96	5	96	48	3
CNSI_	7	240	3	0	48	0
CNSI_	7	240	3	0	48	6
NMTAP	8	0	2
NMTAP	8	0	4
NMTAP	8	48	2
NMTAP	8	48	4
NMTAP	8	96	3
NMTAP	8	96	5
NMTAP	8	144	3
NMTAP	8	144	5
NMTAP	8	192	2
NMTAP	8	216	4
NMTAP	8	240	2
NMTAP	8	264	4
NMTAP	8	288	1
NMTAP	8	312	3
NMTAP	8	336	1
NMTAP	8	360	3
BRSTR	9	0	0
NMSCL	9	0	0	96	96	4
NMSCR	9	0	0	96	96	4
NMTAP	9	288	3
NMTAP	9	288	5
NMTAP	10	0	0
NMHLD	10	48	0	96
NMTAP	10	96	7
NMHLD	10	144	7	96
NMTAP	10	240	4
NMTAP	10	288	3
NMHLD	10	336	2	96
NMTAP	11	48	3
NMTAP	11	96	4
NMTAP	11	144	5
NMHLD	11	192	5	96
NMHLD	11	288	7	96
NMHLD	12	0	0	144
NMTAP	12	144	3
NMTAP	12	192	3
NMTAP	12	288	2
NMTAP	12	288	4
NMTAP	13	0	3
NMTAP	13	0	5
NMTAP	13	96	2
NMTAP	13	120	4
NMTAP	13	144	2
NMTAP	13	168	4
NMTAP	13	192	2
NMTAP	13	240	1
NMTAP	13	240	5
NMTAP	13	288	1
NMTAP	13	288	5
NMTAP	14	0	2
NMTAP	14	0	6
NMHLD	14	48	2	96
NMTAP	14	48	6
NMTAP	14	96	4
NMTAP	14	144	4
NMTAP	14	192	1
NMTAP	14	192	5
NMTAP	14	240	1
NMHLD	14	240	5	96
NMTAP	14	288	3
NMTAP	14	336	3
NMTAP	15	0	2
NMTAP	15	0	6
NMHLD	15	48	2	96
NMTAP	15	48	6
NMTAP	15	96	4
NMTAP	15	144	4
NMTAP	15	192	1
NMTAP	15	192	5
NMTAP	15	240	1
NMHLD	15	240	5	48
NMSTR	15	288	3
NMSCL	15	288	3	96	144	4
NMTAP	15	336	3
NMTTP	16	0	0	C	1	M1
NMTAP	16	144	7
NMTAP	16	192	7
NMTAP	16	240	2
NMTAP	16	288	2
NMTAP	16	336	6
NMSTR	17	0	7
NMSI_	17	0	7	96	48	3
NMSTR	17	48	0
NMSI_	17	48	0	96	48	4
NMSTR	17	96	7
NMSI_	17	96	7	96	48	5
NMSTR	17	144	0
NMSI_	17	144	0	96	48	2
NMSTR	17	192	7
NMSI_	17	192	7	96	48	3
NMTAP	17	240	0
NMTAP	17	288	7
NMTTP	18	0	1	A	0	M1
NMTTP	18	0	1	D	0	M1
NMTTP	18	0	2	A	0	M1
NMTTP	18	0	2	D	1	M1
NMTTP	18	0	3	D	0	M1
NMTTP	18	96	5	A	0	M1
NMTTP	18	96	5	D	0	M1
NMTTP	18	96	6	A	0	M1
NMTTP	18	96	6	D	1	M1
NMTTP	18	96	7	D	0	M1
NMTAP	18	192	2
NMTAP	18	216	4
NMTAP	18	240	3
NMTAP	18	264	5
BXSTR	18	288	0
NMSI_	18	288	0	96	48	4
BRTAP	19	0	0
BRTAP	19	0	7
NMTAP	19	96	3
NMTAP	19	96	5
NMHLD	19	144	3	96
NMTAP	19	144	5
NMTAP	19	192	4
NMHLD	19	240	6	96
NMTAP	19	288	4
NMHLD	19	336	2	96
NMTAP	20	0	4
NMHLD	20	48	7	96
NMTAP	20	96	4
NMHLD	20	144	1	96
NMTAP	20	192	4
NMTAP	20	240	6
NMSTR	20	288	7
NMSI_	20	288	7	96	48	2
NMSI_	20	288	7	96	48	4
NMTAP	20	336	0
EXTAP	21	0	7
NMTAP	21	96	1
NMSTR	21	96	3
NMSI_	21	96	3	96	48	7
NMSTR	21	144	1
NMSLR	21	144	1	96	48	5
NMTAP	21	144	3
NMTAP	21	288	7
NMTAP	21	336	7
NMTAP	22	0	5
NMTAP	22	48	4
NMTAP	22	48	6
NMSTR	22	96	3
NMSI_	22	96	3	96	48	7
NMTAP	22	144	2
NMTAP	22	144	4
NMTAP	22	192	0
NMTAP	22	240	0
NMTAP	22	288	6
NMTAP	22	336	6
NMTAP	23	0	1
NMTAP	23	0	5
NMTAP	23	96	2
NMTAP	23	96	4
NMHLD	23	144	2	96
NMTAP	23	144	4
NMTAP	23	192	3
NMHLD	23	240	5	96
NMTAP	23	288	3
NMHLD	23	336	1	96
NMTAP	24	0	3
NMHLD	24	48	6	96
NMTAP	24	96	3
NMTAP	24	144	1
NMSTR	24	192	0
NMSI_	24	192	0	96	48	3
NMSI_	24	192	0	96	48	5
NMTAP	24	240	7
EXTAP	24	288	0
NMTAP	25	0	4
NMTAP	25	0	6
NMTAP	25	48	4
NMTAP	25	48	6
NMTAP	25	96	3
NMTAP	25	96	5
NMTAP	25	144	3
NMTAP	25	144	5
NMTAP	25	192	2
NMTAP	25	192	4
NMTAP	25	240	2
NMTAP	25	240	4
NMSTR	25	288	1
NMSI_	25	288	1	96	48	4
NMSTR	25	288	3
NMSI_	25	288	3	96	48	6
NMTAP	26	0	1
NMTAP	26	0	3
NMTAP	26	96	7
BRSTR	26	192	0
BRSV_	26	192	0	96	48	3
BRSTR	26	192	6
BRSV_	26	192	6	96	48	3
BRTAP	26	288	0
BRTAP	26	288	6
EXTAP	27	0	2
EXHLD	27	0	3	96
NMTAP	27	48	0
NMHLD	27	96	2	96
NMTAP	27	144	0
NMHLD	27	192	4	96
NMTAP	27	240	0
NMTAP	27	288	3
NMTAP	27	336	3
NMTAP	28	0	5
NMTAP	28	24	4
NMTAP	28	48	6
NMTAP	28	96	2
NMTAP	28	120	3
NMTAP	28	144	1
NMTAP	28	192	4
NMTAP	28	240	4
NMTAP	28	288	5
NMTAP	28	312	4
NMTAP	28	336	6
NMTAP	29	0	3
NMTAP	29	0	5
NMTAP	29	48	2
NMTAP	29	48	4
NMTAP	29	96	1
NMTAP	29	120	3
NMTAP	29	144	1
NMSTR	29	192	0
NMSI_	29	192	0	96	48	2
NMTAP	29	192	3
NMTAP	29	240	0
NMTAP	29	240	3
EXTAP	30	0	4
NMTAP	30	24	1
NMTAP	30	48	4
NMTAP	30	72	1
NMTAP	30	96	5
NMTAP	30	120	2
NMTAP	30	144	5
NMTAP	30	168	2
BRTAP	30	192	7
NMTAP	30	288	2
NMTAP	30	288	6
NMTAP	30	336	1
NMTAP	30	360	0
NMTAP	31	0	2
NMTAP	31	24	7
NMTAP	31	48	3
NMTAP	31	72	6
NMTAP	31	96	2
NMTAP	31	120	5
NMTAP	31	144	1
NMTAP	31	168	4
NMTAP	31	192	0
NMTAP	31	216	0
NMTAP	31	240	3
NMTAP	31	264	3
NMTAP	31	288	4
NMTAP	31	312	4
NMTAP	31	336	6
NMTAP	31	360	6
NMTAP	32	0	0
NMTAP	32	24	5
NMTAP	32	48	1
NMTAP	32	72	4
NMTAP	32	96	2
NMTAP	32	120	5
NMTAP	32	144	3
NMTAP	32	168	6
NMTAP	32	192	4
NMTAP	32	216	4
NMTAP	32	240	7
NMTAP	32	264	7
NMTAP	32	288	0
NMTAP	32	312	0
NMTAP	32	336	3
NMTAP	33	0	1
NMTAP	33	0	2
NMTAP	33	48	3
NMTAP	33	48	4
NMTAP	33	96	5
NMTAP	33	96	6
NMTAP	33	144	0
NMTAP	33	144	7
NMTAP	33	192	1
NMTAP	33	216	6
NMTAP	33	240	1
NMTAP	33	264	6
NMSTR	33	288	0
BRSCL	33	288	0	96	144	1
NMTAP	33	312	7
NMTAP	33	336	0
NMTTP	34	2	0	C	1	M1
NMTAP	34	240	1
NMTAP	34	240	6
BRTAP	34	288	1
BRTAP	34	288	6
NMHLD	35	0	2	24
NMHLD	35	48	2	24
NMHLD	35	96	3	24
NMHLD	35	144	3	24
NMSTR	35	192	2
NMSI_	35	192	2	96	48	0
NMTAP	35	192	4
NMTAP	35	288	3
NMHLD	35	336	4	24
NMHLD	36	0	4	24
NMHLD	36	48	4	24
NMHLD	36	96	3	24
NMHLD	36	144	3	24
NMHLD	36	192	2	24
NMTAP	36	192	4
NMHLD	36	240	2	24
NMHLD	36	288	3	24
NMTAP	36	288	5
NMHLD	36	336	3	24
NMHLD	37	0	4	24
NMHLD	37	48	4	24
NMHLD	37	96	3	24
NMTAP	37	96	5
NMHLD	37	144	3	24
NMHLD	37	192	4	24
NMTAP	37	192	5
NMHLD	37	240	4	24
NMSTR	37	288	3
NMSI_	37	288	3	96	48	1
NMTAP	37	288	5
NMTAP	38	0	5
NMHLD	38	48	4	24
NMHLD	38	96	4	24
NMHLD	38	144	4	24
NMHLD	38	192	3	24
NMHLD	38	240	3	24
NMHLD	38	288	2	24
NMTAP	38	288	4
NMHLD	38	336	2	24
NMHLD	39	0	3	24
NMTAP	39	0	5
NMHLD	39	48	3	24
NMTAP	39	96	4
NMTAP	39	144	4
NMTAP	39	192	3
NMHLD	39	192	5	24
NMHLD	39	240	5	24
NMTAP	39	288	3
NMHLD	39	288	4	24
NMHLD	39	336	4	24
NMTAP	40	0	3
NMSTR	40	0	5
NMSI_	40	0	5	96	48	7
NMTAP	40	96	4
NMHLD	40	144	3	24
NMHLD	40	192	3	24
NMHLD	40	240	3	24
NMHLD	40	288	4	24
NMHLD	40	336	4	24
NMTAP	41	0	3
NMHLD	41	0	5	24
NMHLD	41	48	5	24
NMTAP	41	96	2
NMHLD	41	96	4	24
NMHLD	41	144	4	24
NMTAP	41	192	3
NMTAP	41	240	3
NMTAP	41	288	2
NMTAP	41	336	2
NMTAP	42	0	1
NMTAP	42	0	3
NMTAP	42	48	1
NMTAP	42	48	3
NMTAP	42	96	2
NMTAP	42	96	4
NMTAP	42	144	2
NMTAP	42	144	4
NMTAP	42	192	3
NMTAP	42	192	5
NMTAP	42	240	3
NMTAP	42	240	5
NMTAP	42	288	6
NMTAP	42	312	4
NMTAP	42	336	6
NMTAP	42	360	4
NMTAP	43	0	5
NMTAP	43	24	3
NMTAP	43	48	5
NMTAP	43	72	3
NMTAP	43	96	4
NMTAP	43	120	2
NMTAP	43	144	3
NMTAP	43	168	1
BRTAP	43	192	7
NMTAP	43	288	6
NMSTR	43	288	7
NMSI_	43	288	7	96	48	3
NMTAP	43	360	0
NMTAP	44	0	7
NMTAP	44	48	1
NMTAP	44	96	2
NMSTR	44	96	4
NMSI_	44	96	4	96	48	0
NMTAP	44	168	5
NMTAP	44	192	4
NMTAP	44	240	6
NMSTR	44	288	1
NMSLL	44	288	1	96	96	3
NMTAP	44	288	7
NMTAP	44	360	3
NMTAP	45	0	1
NMTAP	45	48	4
NMSTR	45	96	4
NMSF_	45	96	4	96	48	0
NMTAP	45	192	4
NMTAP	45	288	2
NMTAP	45	288	6
NMTAP	45	360	0
NMTAP	46	0	7
NMTAP	46	48	7
NMTAP	46	96	2
NMTAP	46	144	2
NMTAP	46	192	1
NMSTR	46	192	3
NMSI_	46	192	3	96	48	6
NMSTR	46	288	2
NMSI_	46	288	2	96	48	7
NMTAP	46	288	3
NMTAP	47	0	2
NMSTR	47	0	3
NMSI_	47	0	3	96	48	6
NMTAP	47	96	2
NMTAP	47	96	3
NMTAP	47	192	0
NMTAP	47	192	7
NMSTR	47	288	4
NMSI_	47	288	4	96	48	0
NMTAP	47	288	5
NMTAP	47	360	3
NMTAP	48	0	4
NMTAP	48	48	2
NMTAP	48	96	1
NMSTR	48	96	7
NMSI_	48	96	7	96	48	3
NMTAP	48	168	6
NMTAP	48	192	7
NMTAP	48	240	5
NMSTR	48	288	2
NMSLR	48	288	2	96	96	0
NMTAP	48	288	4
NMTAP	48	360	3
NMTAP	49	0	2
NMTAP	49	48	7
NMSTR	49	96	7
NMSF_	49	96	7	96	48	3
NMTAP	49	192	7
NMTAP	49	288	1
NMTAP	49	288	5
NMTAP	49	360	6
NMTAP	50	0	0
NMTAP	50	48	0
NMTAP	50	96	4
NMTAP	50	144	4
NMTAP	50	192	3
NMTAP	50	192	5
NMSTR	50	288	4
NMSI_	50	288	4	96	48	1
NMSTR	50	288	5
NMSI_	50	288	5	96	48	0
NMTAP	51	0	4
NMTAP	51	0	5
NMSTR	51	96	6
NMSI_	51	96	6	96	48	3
NMSTR	51	96	7
NMSI_	51	96	7	96	48	2
NMTAP	51	192	6
NMTAP	51	192	7
EXTAP	51	288	1
EXTAP	51	288	4
NMTAP	51	336	2
NMTAP	51	360	3
EXTAP	52	0	2
NMTAP	52	48	1
NMTAP	52	72	3
EXTAP	52	96	1
NMTAP	52	144	2
NMTAP	52	168	3
EXTAP	52	192	2
NMTAP	52	240	4
NMTAP	52	264	4
EXTAP	52	288	3
NMTAP	52	336	5
NMTAP	52	360	4
EXTAP	53	0	5
NMTAP	53	48	6
NMTAP	53	72	4
EXTAP	53	96	6
NMTAP	53	144	5
NMTAP	53	168	4
EXTAP	53	192	5
NMTAP	53	240	3
NMTAP	53	264	3
EXTAP	53	288	4
NMTAP	53	336	1
NMTAP	53	360	3
EXTAP	54	0	2
NMTAP	54	48	4
NMTAP	54	72	4
EXTAP	54	96	3
NMTAP	54	144	6
NMTAP	54	168	4
EXTAP	54	192	5
NMTAP	54	240	3
NMTAP	54	264	3
EXTAP	54	288	4
NMTAP	54	336	1
NMTAP	54	360	3
EXTAP	55	0	2
NMTAP	55	48	4
NMTAP	55	72	4
EXTAP	55	96	3
NMTAP	55	144	6
NMTAP	55	168	4
EXTAP	55	192	5
NMTAP	55	240	3
NMTAP	55	240	4
NMTAP	55	288	3
NMTAP	55	288	4
NMTAP	55	336	2
NMHLD	56	0	2	48
NMTAP	56	48	1
NMHLD	56	96	1	48
NMTAP	56	144	0
NMHLD	56	192	0	48
NMTAP	56	240	7
NMHLD	56	288	7	48
NMTAP	56	336	6
NMHLD	57	0	6	48
NMTAP	57	48	5
NMHLD	57	96	5	48
NMTAP	57	144	4
NMSTR	57	192	4
NMSCR	57	192	4	96	144	3
NMTTP	57	288	0	C	1	M1
NMSTR	58	192	3
BRSI_	58	192	3	96	48	0
NMSTR	58	192	4
BRSI_	58	192	4	96	48	7
EXTAP	58	288	3
EXTAP	58	288	4
NMSTR	59	96	0
BRSI_	59	96	0	96	48	4
NMSSL	59	96	0	96	48	4
BRTAP	59	192	0
NMSTR	59	288	1
NMSCL	59	288	1	96	48	6
NMTAP	59	336	2
NMTAP	59	360	3
NMTAP	60	0	1
NMTAP	60	48	4
NMSTR	60	96	5
NMSCL	60	96	5	96	48	2
NMTAP	60	144	6
NMTAP	60	168	7
NMTAP	60	192	5
NMTAP	60	240	0
NMTAP	60	288	1
EXSTR	60	288	3
NMSI_	60	288	3	96	48	0
NMTAP	60	336	2
EXSTR	61	0	3
NMSI_	61	0	3	96	48	6
NMTAP	61	0	5
NMTAP	61	48	4
NMTAP	61	96	1
EXSTR	61	96	3
NMSI_	61	96	3	96	48	7
NMTAP	61	144	2
EXTAP	61	192	3
BRTAP	61	192	5
NMTAP	61	240	4
NMSTR	61	288	6
NMSCR	61	288	6	96	48	1
NMTAP	61	336	5
NMTAP	61	360	4
NMTAP	62	0	6
NMTAP	62	48	3
NMSTR	62	96	2
NMSCR	62	96	2	96	48	5
NMTAP	62	144	1
NMTAP	62	168	0
NMTAP	62	192	2
NMTAP	62	240	7
EXSTR	62	288	4
NMSI_	62	288	4	96	48	7
NMTAP	62	288	6
NMTAP	62	336	5
NMTAP	63	0	2
EXSTR	63	0	4
NMSI_	63	0	4	96	48	1
NMTAP	63	48	3
EXSTR	63	96	4
NMSI_	63	96	4	96	48	0
NMTAP	63	96	6
NMTAP	63	144	5
BRTAP	63	192	2
EXTAP	63	192	4
NMSTR	63	288	1
NMSI_	63	288	1	96	48	5
NMSTR	63	336	5
NMSI_	63	336	5	96	48	2
NMTAP	64	0	1
NMSTR	64	48	7
NMSCR	64	48	7	96	96	5
CNSI_	64	96	2	0	48	7
NMTAP	64	144	4
NMTAP	64	192	6
NMSTR	64	288	6
NMSI_	64	288	6	96	48	2
NMSTR	64	336	2
NMSI_	64	336	2	96	48	5
NMTAP	65	0	6
NMSTR	65	48	0
NMSCL	65	48	0	96	96	2
CNSI_	65	96	5	0	48	0
NMTAP	65	144	3
NMTAP	65	192	1
NMTAP	65	288	0
NMTAP	65	312	0
NMTAP	65	336	2
NMTAP	65	360	2
NMTAP	66	0	3
NMTAP	66	24	3
NMTAP	66	48	5
NMTAP	66	72	5
BRTAP	66	96	0
NMTAP	66	168	1
NMTAP	66	168	3
NMTAP	66	240	4
NMTAP	66	240	5
NMSTR	66	288	7
NMSI_	66	288	7	96	48	4
NMSI_	66	288	7	96	48	5
NMSTR	67	0	7
NMSI_	67	0	7	96	48	1
NMSI_	67	0	7	96	48	2
NMTAP	67	96	7
NMTAP	67	192	0
NMTAP	67	192	6
NMSTR	67	288	5
NMSCL	67	288	5	96	48	2
NMTAP	67	312	7
NMTAP	67	336	6
NMTAP	67	360	7
NMTAP	68	0	5
NMTAP	68	48	0
NMSTR	68	96	1
NMSCL	68	96	1	96	48	6
NMTAP	68	120	3
NMTAP	68	144	2
NMTAP	68	168	3
NMTAP	68	192	1
NMTAP	68	240	4
NMTAP	68	288	5
EXSTR	68	288	7
NMSI_	68	288	7	96	48	4
NMTAP	68	336	6
NMTAP	69	0	1
EXSTR	69	0	7
NMSI_	69	0	7	96	48	2
NMTAP	69	48	0
NMTAP	69	96	5
EXSTR	69	96	7
NMSI_	69	96	7	96	48	3
NMTAP	69	144	6
BRTAP	69	192	0
EXTAP	69	192	7
NMTAP	69	240	1
NMSTR	69	288	2
NMSCR	69	288	2	96	48	5
NMTAP	69	312	0
NMTAP	69	336	1
NMTAP	69	360	0
NMTAP	70	0	2
NMTAP	70	48	7
NMSTR	70	96	6
NMSCR	70	96	6	96	48	1
NMTAP	70	120	4
NMTAP	70	144	5
NMTAP	70	168	4
NMTAP	70	192	6
NMTAP	70	240	3
EXSTR	70	288	0
NMSI_	70	288	0	96	48	3
NMTAP	70	288	2
NMTAP	70	336	1
EXSTR	71	0	0
NMSI_	71	0	0	96	48	5
NMTAP	71	0	6
NMTAP	71	48	7
EXSTR	71	96	0
NMSI_	71	96	0	96	48	4
NMTAP	71	96	2
NMTAP	71	144	1
EXTAP	71	192	0
BRTAP	71	192	6
NMTAP	71	288	4
NMTAP	71	288	6
NMTAP	71	336	4
NMTAP	71	336	6
NMTAP	72	0	3
NMTAP	72	0	5
NMTAP	72	48	2
NMTAP	72	48	4
NMTAP	72	96	1
NMTAP	72	96	3
NMTAP	72	144	0
NMTAP	72	144	2
NMTAP	72	192	1
NMTAP	72	192	7
NMTAP	72	240	0
NMTAP	72	240	6
NMTAP	72	288	5
NMTAP	72	312	7
NMTAP	72	336	6
NMTAP	72	360	0
NMTAP	73	0	7
NMTAP	73	24	1
NMTAP	73	48	0
NMTAP	73	72	2
NMTAP	73	96	1
EXHLD	73	144	3	48
NMTAP	73	192	1
NMTAP	73	208	0
NMTAP	73	224	7
NMTAP	73	240	6
NMTAP	73	256	5
NMTAP	73	272	4
BRSTR	73	288	3
NMSF_	73	288	3	96	48	7
NMTAP	73	336	2
NMTAP	73	336	4
EXTAP	74	96	0
EXTAP	74	96	6
NMTAP	74	168	4
NMTAP	74	168	6
NMTAP	74	240	1
NMTAP	74	240	3
NMTAP	74	288	0
NMTAP	74	312	3
NMTAP	74	336	1
NMTAP	74	360	4
NMTAP	75	0	2
NMTAP	75	24	5
NMTAP	75	48	3
NMSTR	75	96	0
NMSCR	75	96	0	96	48	3
NMSTR	75	96	7
NMSCL	75	96	7	96	48	4
NMTAP	75	144	1
NMTAP	75	144	6
BRTAP	75	192	0
BRTAP	75	192	7
NMSTR	75	288	5
NMSI_	75	288	5	96	48	0
NMTAP	75	336	6
NMSTR	76	0	1
NMSI_	76	0	1	96	48	4
NMTAP	76	48	2
NMTAP	76	96	5
NMTAP	76	144	6
NMTAP	76	192	7
NMTAP	76	240	4
NMSTR	76	288	3
NMSCR	76	288	3	96	48	6
NMSTR	76	336	3
NMSCL	76	336	3	96	48	0
NMTAP	77	96	6
NMTAP	77	144	7
NMTAP	77	192	0
NMTAP	77	240	2
NMTAP	77	264	3
NMTAP	77	288	1
NMTAP	77	336	1
NMSTR	78	0	0
NMSI_	78	0	0	96	48	3
NMTAP	78	0	3
NMTAP	78	48	0
NMTAP	78	48	3
NMTAP	78	96	4
NMTAP	78	144	5
NMTAP	78	192	5
NMTAP	78	240	4
NMTAP	78	288	3
NMSTR	78	336	2
NMSCR	78	336	2	96	144	7
NMTAP	79	0	1
NMTAP	79	48	1
NMTAP	79	144	3
NMTAP	79	192	3
NMSTR	79	288	2
NMSI_	79	288	2	96	48	7
NMTAP	79	336	1
NMSTR	80	0	6
NMSI_	80	0	6	96	48	3
NMTAP	80	48	5
NMTAP	80	96	2
NMTAP	80	144	1
NMTAP	80	192	1
NMTAP	80	240	0
NMSTR	80	288	7
NMSCR	80	288	7	96	48	2
NMSTR	80	336	7
NMSCL	80	336	7	96	48	4
NMTAP	81	96	2
NMTAP	81	144	2
NMTAP	81	192	3
NMTAP	81	240	4
NMTAP	81	288	4
NMTAP	81	336	2
NMTAP	81	352	3
NMTAP	81	368	2
NMTAP	82	0	3
NMTAP	82	48	5
NMTAP	82	64	4
NMTAP	82	80	5
NMTAP	82	96	4
BRTAP	82	168	6
BRTAP	82	168	7
BRTAP	82	240	1
BRTAP	82	240	5
NMTAP	82	288	6
NMTAP	82	312	0
NMTAP	82	336	5
NMTAP	82	360	1
NMTAP	83	0	4
NMTAP	83	24	2
NMTAP	83	48	3
EXSTR	83	96	2
NMSI_	83	96	2	96	48	7
EXSTR	83	96	3
NMSI_	83	96	3	96	48	0
EXTAP	83	288	0
EXTAP	83	304	7
NMTAP	83	320	0
NMTAP	83	336	7
NMTAP	83	352	0
NMTAP	83	368	7
NMTAP	84	0	1
NMTAP	84	16	6
NMTAP	84	32	1
NMTAP	84	48	6
NMTAP	84	64	1
NMTAP	84	80	6
NMTAP	84	96	2
NMTAP	84	112	5
NMTAP	84	128	2
NMTAP	84	144	5
NMTAP	84	160	2
NMTAP	84	176	5
EXTAP	84	192	3
EXTAP	84	216	3
EXTAP	84	240	4
EXTAP	84	264	4
NMTAP	84	288	1
NMTAP	84	300	2
NMTAP	84	312	3
NMTAP	84	324	4
NMTAP	84	336	5
NMTAP	84	348	6
NMTAP	84	360	7
NMTAP	84	372	0
NMTAP	85	0	1
NMTAP	85	12	2
NMTAP	85	24	3
NMTAP	85	36	4
NMTAP	85	48	5
NMTAP	85	60	6
NMTAP	85	72	7
NMTAP	85	84	0
NMSTR	85	96	1
BRSF_	85	96	1	96	48	5
BRTAP	85	192	1
NMTAP	85	288	3
NMTAP	85	288	7
NMSTR	85	336	5
NMSI_	85	336	5	96	48	2
NMTAP	85	360	4
NMTAP	86	0	6
NMTTP	86	48	5	A	1	M1
NMTAP	86	48	6
CNSI_	86	96	2	0	48	4
NMTAP	86	96	7
CNSI_	86	144	4	0	48	0
NMTAP	86	144	7
NMTAP	86	192	6
NMTAP	86	240	6
NMTAP	86	288	0
NMTAP	86	288	5
NMSTR	86	336	2
NMSI_	86	336	2	96	48	5
NMTAP	86	360	3
NMTAP	87	0	1
NMTAP	87	48	1
NMTTP	87	48	2	A	1	M1
NMTAP	87	96	0
CNSI_	87	96	5	0	48	3
NMTAP	87	144	0
CNSI_	87	144	3	0	48	6
NMTAP	87	192	1
NMTAP	87	240	1
NMTAP	87	288	2
NMTAP	87	288	7
NMSTR	87	336	5
NMSI_	87	336	5	96	48	1
NMTAP	87	360	4
NMTAP	88	0	6
NMTTP	88	48	5	A	1	M1
NMTAP	88	48	6
CNSI_	88	96	1	0	48	4
NMTAP	88	96	7
CNSI_	88	144	4	0	48	0
NMTAP	88	144	7
NMTAP	88	192	6
NMTAP	88	240	6
NMTAP	88	288	0
NMTAP	88	288	5
NMSTR	88	336	2
NMSI_	88	336	2	96	48	6
NMTAP	88	360	3
NMTAP	89	0	1
NMTAP	89	48	1
NMTTP	89	48	2	A	1	M1
NMTAP	89	96	0
CNSI_	89	96	6	0	48	3
NMTAP	89	144	0
CNSI_	89	144	3	0	48	7
NMTAP	89	192	1
NMTAP	89	240	1
NMTAP	89	288	1
NMTAP	89	312	0
NMTAP	89	336	1
NMTAP	89	360	0
BRTAP	90	0	1
EXTAP	90	16	2
EXTAP	90	32	3
NMTAP	90	48	5
NMTAP	90	72	4
NMTAP	90	96	6
NMTAP	90	120	7
NMTAP	90	144	6
NMTAP	90	168	7
BRTAP	90	192	6
EXTAP	90	208	5
EXTAP	90	224	4
NMTAP	90	240	2
NMTAP	90	264	3
NMTAP	90	288	1
NMTAP	90	312	4
NMTAP	90	336	0
NMTAP	90	360	5
BRTAP	91	0	1
EXTAP	91	16	2
EXTAP	91	32	3
NMTAP	91	48	7
NMTAP	91	72	4
NMTAP	91	96	6
NMTAP	91	120	3
NMTAP	91	144	5
NMTAP	91	168	2
BRTAP	91	192	6
EXTAP	91	208	7
EXTAP	91	224	0
NMTAP	91	240	3
NMTAP	91	264	3
BRTAP	91	288	6
NMTAP	91	304	5
NMTAP	91	320	4
BRTAP	91	336	2
NMTAP	91	352	1
NMTAP	91	368	0
BRTAP	92	0	6
NMTAP	92	16	5
NMTAP	92	32	4
BRTAP	92	48	2
NMTAP	92	64	1
NMTAP	92	80	0
BRTAP	92	96	7
NMTAP	92	112	6
NMTAP	92	128	5
BRTAP	92	144	3
NMTAP	92	160	2
NMTAP	92	176	1
BRTAP	92	192	7
NMTAP	92	208	6
NMTAP	92	224	5
BRTAP	92	240	3
NMTAP	92	256	2
NMTAP	92	272	1
BRTAP	92	288	7
NMTAP	92	304	6
NMTAP	92	320	5
NMTAP	92	336	4
NMTAP	92	352	3
NMTAP	92	368	2
NMTAP	93	0	1
BRTAP	93	0	6
NMTAP	93	16	5
NMTAP	93	32	4
NMTAP	93	48	3
NMTAP	93	64	2
NMTAP	93	80	1
NMTAP	93	96	0
NMTAP	93	96	5
NMTAP	93	144	2
NMSTR	93	144	7
BRSI_	93	144	7	96	48	3
NMSSR	93	144	7	96	48	3
NMTAP	93	192	1
NMTAP	93	192	5
BRTAP	93	240	7

T_REC_TAP	671
T_REC_BRK	37
T_REC_XTP	43
T_REC_BXX	0
T_REC_HLD	70
T_REC_XHO	2
T_REC_BHO	0
T_REC_BXH	0
T_REC_STR	81
T_REC_BST	4
T_REC_XST	14
T_REC_XBS	1
T_REC_TTP	17
T_REC_THO	0
T_REC_SLD	99
T_REC_BSL	8
T_REC_ALL	1047
T_NUM_TAP	826
T_NUM_BRK	50
T_NUM_HLD	72
T_NUM_SLD	99
T_NUM_ALL	1047
T_JUDGE_TAP	868
T_JUDGE_HLD	96
T_JUDGE_SLD	107
T_JUDGE_ALL	1071
TTM_EACHPAIRS	155
TTM_SCR_TAP	413000
TTM_SCR_BRK	130000
TTM_SCR_HLD	72000
TTM_SCR_SLD	148500
TTM_SCR_ALL	763500
TTM_SCR_S	735750
TTM_SCR_SS	758500
TTM_RAT_ACV	10065

