VERSION	0.00.00	1.04.00
FES_MODE	0
BPM_DEF	165.000	165.000	165.000	165.000
MET_DEF	4	4
RESOLUTION	384
CLK_DEF	384
COMPATIBLE_CODE	MA2

BPM	0	0	165.000
MET	0	0	4	4
MET	35	0	4	5
MET	36	96	4	4
MET	37	96	4	5
MET	38	192	4	4
MET	39	192	4	5
MET	40	288	4	4

NMTAP	2	0	2
NMTAP	2	0	4
NMTAP	2	48	2
NMTAP	2	48	4
NMHLD	2	96	2	168
NMTAP	2	96	4
EXTAP	2	192	1
EXTAP	2	264	0
NMTAP	3	0	3
NMTAP	3	0	5
NMTAP	3	48	3
NMTAP	3	48	5
NMTAP	3	96	3
NMHLD	3	96	5	168
EXTAP	3	192	6
EXTAP	3	264	7
NMTAP	4	0	2
NMTAP	4	0	4
NMTAP	4	48	2
NMTAP	4	48	4
NMHLD	4	96	2	168
NMTAP	4	96	4
EXTAP	4	192	1
EXTAP	4	264	0
NMSTR	5	0	3
NMSXR	5	0	3	96	96	4
NMTAP	5	0	4
BRTAP	5	192	7
NMTAP	6	0	2
NMTAP	6	0	4
NMTAP	6	48	2
NMTAP	6	48	4
NMHLD	6	96	2	168
NMTAP	6	96	4
EXTAP	6	192	1
EXTAP	6	264	0
NMTAP	7	0	3
NMTAP	7	0	5
NMTAP	7	48	3
NMTAP	7	48	5
NMTAP	7	96	3
NMHLD	7	96	5	168
EXTAP	7	192	6
EXTAP	7	264	7
EXTAP	8	0	1
EXTAP	8	0	6
NMTAP	8	48	1
NMTAP	8	48	6
EXTAP	8	96	2
EXTAP	8	96	5
NMTAP	8	144	2
NMTAP	8	144	5
EXTAP	8	192	3
EXTAP	8	216	4
EXTAP	8	240	3
EXTAP	8	264	4
EXTAP	8	288	3
EXTAP	8	312	4
EXTAP	8	336	3
EXTAP	8	360	4
EXSTR	9	0	3
NMSF_	9	0	3	96	192	7
NMTTP	10	0	7	E	0	M1
NMTTP	10	192	6	E	0	M1
NMTTP	11	0	5	E	0	M1
NMTTP	11	192	3	B	0	M1
NMTTP	11	192	4	B	0	M1
NMTTP	11	288	2	B	0	M1
NMTTP	11	288	5	B	0	M1
NMTTP	12	0	1	B	0	M1
NMTTP	12	0	6	B	0	M1
NMTTP	12	192	0	B	0	M1
NMTTP	12	192	1	B	0	M1
NMTTP	12	192	1	E	0	M1
NMTTP	12	288	6	B	0	M1
NMTTP	12	288	7	B	0	M1
NMTTP	12	288	7	E	0	M1
NMTHO	13	0	0	288	C	0	M1
NMTAP	14	0	7
NMTAP	14	48	7
NMHLD	14	96	7	96
NMTAP	14	192	6
NMTAP	14	240	6
NMHLD	14	288	6	96
NMTAP	15	0	5
NMTAP	15	48	5
NMHLD	15	96	5	96
NMTAP	15	192	4
NMTAP	15	240	4
NMHLD	15	288	4	96
NMTAP	16	0	3
NMTAP	16	48	2
NMTAP	16	96	1
NMTAP	16	144	0
NMTAP	16	192	7
NMTAP	16	240	6
NMTAP	16	288	5
NMTAP	16	336	4
NMHLD	17	0	2	288
NMSTR	17	0	3
NMSSR	17	0	3	96	192	7
NMTAP	18	0	2
NMTAP	18	24	2
NMTAP	18	96	7
NMTAP	18	120	7
EXTAP	18	192	4
EXTAP	18	192	5
EXTAP	18	288	1
EXTAP	18	288	3
BRTAP	19	0	0
BRTAP	19	0	7
NMTAP	19	96	6
NMTAP	19	144	5
NMTAP	19	192	4
NMTAP	19	240	3
NMHLD	19	288	2	384
NMTAP	20	0	1
NMTAP	20	48	1
NMTAP	20	96	0
NMTAP	20	192	3
NMTAP	20	240	3
NMTAP	20	288	4
NMTAP	21	0	1
NMTAP	21	48	1
NMTAP	21	96	0
NMTAP	21	96	2
NMTAP	21	192	6
NMTAP	21	240	6
NMTAP	21	288	5
NMTAP	21	288	7
NMTAP	22	0	2
NMTAP	22	48	2
NMTAP	22	96	1
NMSTR	22	96	3
NMSCL	22	96	3	96	96	6
NMTAP	23	0	0
NMTAP	23	0	7
NMTAP	23	96	1
NMTAP	23	144	2
NMTAP	23	192	3
NMTAP	23	240	4
NMHLD	23	288	5	384
NMTAP	24	0	6
NMTAP	24	48	6
NMTAP	24	96	7
NMTAP	24	192	4
NMTAP	24	240	4
NMTAP	24	288	3
NMTAP	25	0	6
NMTAP	25	48	6
NMTAP	25	96	5
NMTAP	25	96	7
NMTAP	25	144	5
NMTAP	25	144	7
NMTAP	25	192	0
NMTAP	25	192	4
NMTAP	25	240	0
NMTAP	25	240	4
NMSTR	25	288	0
NMSLR	25	288	0	96	96	6
NMSTR	25	288	4
NMSLL	25	288	4	96	96	6
NMTAP	26	192	4
NMTAP	26	192	6
NMTAP	26	288	1
NMTAP	26	288	3
BRTAP	27	0	0
BRTAP	27	0	7
NMTAP	27	96	1
NMTAP	27	144	2
NMTAP	27	192	3
NMTAP	27	240	4
NMHLD	27	288	5	384
NMTAP	28	0	6
NMTAP	28	48	6
NMTAP	28	96	7
NMTAP	28	192	4
NMTAP	28	240	4
NMTAP	28	288	3
NMTAP	29	0	6
NMTAP	29	48	6
NMTAP	29	96	4
NMTAP	29	96	7
NMTAP	29	192	1
NMTAP	29	240	1
NMTAP	29	288	0
NMTAP	29	288	3
NMTAP	30	0	6
NMTAP	30	48	6
NMSTR	30	96	4
NMSCR	30	96	4	96	96	1
NMTAP	30	96	7
NMTAP	31	0	7
NMTAP	31	48	6
NMTAP	31	96	5
NMTAP	31	144	4
NMTAP	31	192	2
NMTAP	31	216	3
NMTAP	31	240	2
NMTAP	31	288	0
NMTAP	31	288	1
NMTAP	32	0	0
NMTAP	32	48	1
NMTAP	32	96	2
NMTAP	32	144	3
NMTAP	32	192	5
NMTAP	32	216	4
NMTAP	32	240	5
NMTAP	32	288	6
NMTAP	32	288	7
NMTAP	33	0	0
NMTAP	33	0	1
NMTAP	33	48	0
NMTAP	33	48	1
NMTAP	33	96	2
NMTAP	33	96	7
NMTAP	33	144	2
NMTAP	33	144	7
NMTAP	33	192	3
NMTAP	33	192	6
NMTAP	33	240	3
NMTAP	33	240	6
NMTAP	33	288	4
NMSTR	33	288	5
BRSCR	33	288	5	96	288	2
NMTHO	34	0	0	288	C	0	M1
EXTAP	35	0	0
NMTAP	35	48	7
NMHLD	35	96	1	288
NMSTR	35	96	6
NMSI_	35	96	6	96	48	0
CNSI_	35	240	0	0	48	4
NMTAP	36	0	5
NMTAP	36	48	6
EXTAP	36	96	3
EXTAP	36	96	7
NMTAP	36	192	2
NMTAP	36	240	1
NMTAP	36	288	0
NMTAP	36	336	0
EXTAP	37	0	6
EXTAP	37	24	7
EXTAP	37	48	6
EXTAP	37	72	7
EXTAP	37	96	6
NMTAP	37	144	0
NMSTR	37	192	1
NMSI_	37	192	1	96	48	7
NMHLD	37	192	6	288
CNSI_	37	336	7	0	48	3
NMTAP	38	96	2
NMTAP	38	144	1
EXTAP	38	192	0
EXTAP	38	192	4
NMTAP	38	288	5
NMTAP	38	336	6
NMTAP	39	0	7
NMTAP	39	48	7
EXTAP	39	96	1
EXTAP	39	120	0
EXTAP	39	144	1
EXTAP	39	168	0
EXTAP	39	192	1
NMTAP	39	240	7
NMHLD	39	288	1	288
NMSTR	39	288	6
NMSI_	39	288	6	96	48	0
CNSI_	40	48	0	0	48	4
NMTAP	40	192	5
NMTAP	40	240	6
EXTAP	40	288	3
EXTAP	40	288	7
NMTAP	41	0	2
NMTAP	41	48	1
NMTAP	41	96	0
NMTAP	41	144	0
EXTAP	41	192	6
EXTAP	41	216	7
EXTAP	41	240	6
EXTAP	41	264	7
EXTAP	41	288	6
NMTAP	41	336	5
NMTAP	42	0	4
NMTAP	42	48	3
NMTAP	42	96	2
NMTAP	42	144	1
NMTAP	42	192	0
NMTAP	42	240	7
NMTAP	42	288	5
NMTAP	42	288	6
NMTAP	43	0	1
NMTAP	43	0	2
EXTAP	43	96	7
EXTAP	43	120	0
EXTAP	43	144	7
EXTAP	43	168	0
EXTAP	43	192	7
NMHLD	43	288	2	72
BRTAP	43	288	3
NMHLD	43	360	1	72
NMTAP	44	48	0
NMHLD	44	96	5	72
NMHLD	44	168	6	72
NMTAP	44	240	7
NMHLD	44	288	3	72
NMHLD	44	360	2	72
NMTAP	45	48	1
NMSTR	45	96	0
NMSI_	45	96	0	96	48	4
NMTAP	45	96	4
NMTAP	45	192	7
NMHLD	45	288	3	72
NMHLD	45	360	2	72
NMSTR	46	48	1
NMSCR	46	48	1	96	144	6
EXHLD	46	288	7	288
EXTAP	47	0	2
EXTAP	47	96	4
EXTAP	47	192	0
NMHLD	47	288	5	72
NMHLD	47	360	6	72
NMTAP	48	48	7
NMHLD	48	96	2	72
NMHLD	48	168	1	72
NMTAP	48	240	0
NMHLD	48	288	4	72
NMHLD	48	360	5	72
NMTAP	49	48	6
NMTAP	49	96	3
NMSTR	49	96	7
NMSI_	49	96	7	96	48	3
NMTAP	49	192	0
NMHLD	49	288	4	72
NMHLD	49	360	5	72
NMSTR	50	48	6
NMSCL	50	48	6	96	144	1
EXHLD	50	288	0	288
EXTAP	51	0	5
EXTAP	51	96	3
EXTAP	51	192	7
NMTAP	51	288	6
NMTAP	51	336	6
NMTAP	52	0	4
NMTAP	52	0	6
NMTAP	52	48	6
NMTAP	52	96	0
NMTAP	52	96	6
NMTAP	52	144	6
NMTAP	52	192	5
NMTAP	52	192	6
NMTAP	52	288	1
NMTAP	52	336	1
NMTAP	53	0	1
NMTAP	53	0	3
NMTAP	53	48	1
NMTAP	53	96	1
NMTAP	53	96	7
NMTAP	53	144	1
NMTAP	53	192	1
NMTAP	53	192	2
NMTAP	53	288	6
NMTAP	53	336	6
NMTAP	54	0	4
NMTAP	54	0	6
NMTAP	54	48	6
NMTAP	54	96	0
NMTAP	54	96	6
NMTAP	54	144	6
NMTAP	54	192	5
NMTAP	54	192	6
NMTAP	54	288	1
NMTAP	54	336	1
NMTAP	55	0	1
NMTAP	55	0	3
NMTAP	55	48	1
NMTAP	55	96	1
NMTAP	55	96	7
NMTAP	55	144	1
NMTAP	55	192	1
NMTAP	55	192	2
EXTAP	55	288	4
EXHLD	55	288	5	672
NMTTP	56	0	6	B	0	M1
NMTTP	56	48	5	B	0	M1
NMTTP	56	96	4	B	0	M1
NMTTP	56	144	3	B	0	M1
NMTTP	56	192	2	B	0	M1
NMTTP	56	240	1	B	0	M1
NMTTP	56	288	0	E	0	M1
NMTTP	56	336	7	E	0	M1
NMTTP	57	0	6	E	0	M1
NMTTP	57	48	5	E	0	M1
NMTTP	57	96	4	E	0	M1
NMTTP	57	144	3	E	0	M1
NMTTP	57	192	2	E	0	M1
EXTAP	57	288	7
EXTAP	57	312	6
EXTAP	57	336	5
EXTAP	57	360	4
EXTAP	58	0	3
EXTAP	58	24	2
EXTAP	58	48	1
EXTAP	58	72	0
EXTAP	58	96	7
EXTAP	58	120	6
EXTAP	58	144	5
EXTAP	58	168	4
EXTAP	58	192	3
EXTAP	58	216	2
EXTAP	58	240	1
EXTAP	58	264	0
BXHLD	58	288	7	288
BRTAP	59	288	0
BRSTR	59	288	1
NMSCR	59	288	1	96	48	4
NMTAP	60	0	7
NMHLD	60	48	6	240
NMTAP	60	144	5
NMTAP	60	192	5
EXSTR	60	288	7
NMSI_	60	288	7	96	48	3
EXSTR	61	0	6
NMSI_	61	0	6	96	48	2
EXSTR	61	96	5
NMSI_	61	96	5	96	48	1
EXTAP	61	192	4
NMTAP	61	288	3
NMTAP	61	336	3
NMTAP	62	0	2
NMTAP	62	48	0
NMSTR	62	48	1
NMSI_	62	48	1	96	48	4
NMTAP	62	144	7
NMTAP	62	192	7
NMSTR	62	240	6
NMSCL	62	240	6	96	144	2
NMTAP	63	0	7
NMSTR	63	96	0
NMSI_	63	96	0	96	48	4
NMTAP	63	192	7
EXTAP	63	288	5
NMTAP	63	336	5
NMTAP	64	0	4
NMHLD	64	48	3	144
NMTAP	64	48	7
NMTAP	64	144	0
NMTAP	64	192	0
EXTAP	64	288	2
NMTAP	64	336	2
NMTAP	65	0	3
NMTAP	65	48	0
NMHLD	65	48	4	144
NMTAP	65	144	7
NMTAP	65	192	7
NMSTR	65	288	5
NMSI_	65	288	5	96	48	2
NMSTR	65	288	6
NMSI_	65	288	6	96	48	1
EXTAP	66	96	0
EXTAP	66	96	7
EXTAP	66	168	4
EXTAP	66	168	6
EXTAP	66	240	1
EXTAP	66	240	3
EXTAP	66	288	1
EXSTR	66	288	3
NMSI_	66	288	3	96	48	7
EXTAP	67	0	7
NMTAP	67	96	1
NMTAP	67	192	3
NMTAP	67	192	6
BRSTR	67	288	6
NMSCL	67	288	6	96	48	3
BRTAP	67	288	7
NMTAP	68	0	0
NMHLD	68	48	1	240
NMTAP	68	144	2
NMTAP	68	192	2
EXSTR	68	288	0
NMSI_	68	288	0	96	48	4
EXSTR	69	0	1
NMSI_	69	0	1	96	48	5
EXSTR	69	96	2
NMSI_	69	96	2	96	48	6
EXTAP	69	192	3
NMTAP	69	288	4
NMTAP	69	336	4
NMTAP	70	0	5
NMSTR	70	48	6
NMSI_	70	48	6	96	48	3
NMTAP	70	48	7
NMTAP	70	144	0
NMTAP	70	192	0
NMSTR	70	240	1
NMSCR	70	240	1	96	144	5
NMTAP	71	0	0
NMSTR	71	96	7
NMSI_	71	96	7	96	48	3
NMTAP	71	192	0
NMTAP	71	288	4
NMTAP	71	288	5
NMTAP	71	336	4
NMTAP	71	336	5
NMTAP	72	0	3
NMTAP	72	0	6
NMTAP	72	48	3
NMTAP	72	48	6
NMTAP	72	96	2
NMTAP	72	96	7
NMTAP	72	144	2
NMTAP	72	144	7
NMTAP	72	192	0
NMTAP	72	192	1
NMTAP	72	288	7
NMTAP	72	312	0
NMTAP	72	336	7
NMTAP	72	360	0
NMTAP	73	0	7
NMTAP	73	24	0
NMTAP	73	48	7
NMTAP	73	72	0
NMSTR	73	96	7
NMSI_	73	96	7	96	48	3
NMTAP	73	192	2
NMTAP	73	288	1
NMTAP	73	288	4
NMTAP	73	336	1
NMTAP	73	336	4
NMTAP	74	0	2
NMTAP	74	0	5
NMTAP	74	48	2
NMTAP	74	48	5
NMTAP	74	96	3
NMTAP	74	96	6
NMTAP	74	144	3
NMTAP	74	144	6
NMHLD	74	192	4	96
EXSTR	74	192	7
BRSCL	74	192	7	96	192	0
NMTTP	75	96	0	C	1	M1
NMHLD	75	288	6	144
NMTAP	76	0	4
NMSTR	76	48	3
NMSI_	76	48	3	96	48	7
NMTAP	76	144	0
NMTAP	76	192	0
NMHLD	76	288	1	144
NMTAP	77	0	3
NMSTR	77	48	4
NMSI_	77	48	4	96	48	0
NMTAP	77	144	7
NMTAP	77	192	7
EXTAP	77	288	2
EXTAP	77	288	3
EXTAP	78	0	4
EXTAP	78	0	6
EXTAP	78	48	4
EXTAP	78	48	6
NMTAP	78	144	1
NMTAP	78	144	5
NMTAP	78	240	3
NMTAP	78	264	4
NMTAP	78	288	3
NMTAP	79	0	0
NMTAP	79	0	5
NMSTR	79	48	6
NMSI_	79	48	6	96	48	4
NMSTR	79	48	7
NMSI_	79	48	7	96	48	3
NMHLD	79	288	1	144
NMTAP	80	0	3
NMSTR	80	48	4
NMSI_	80	48	4	96	48	0
NMTAP	80	144	7
NMTAP	80	192	7
NMHLD	80	288	6	144
NMTAP	81	0	4
NMSTR	81	48	3
NMSI_	81	48	3	96	48	7
NMTAP	81	144	0
NMTAP	81	192	0
EXTAP	81	288	5
EXTAP	81	288	6
NMTAP	81	336	4
NMTAP	82	0	3
NMTAP	82	48	2
EXTAP	82	96	0
EXTAP	82	96	1
EXTAP	82	144	7
EXTAP	82	192	6
EXTAP	82	240	5
NMTHO	82	288	0	192	C	1	M1
NMTAP	83	0	7
NMTAP	83	48	7
BRTAP	83	96	7
NMTAP	83	288	0
NMTAP	83	288	7
NMTAP	83	336	1
NMTAP	83	336	6
NMTAP	84	0	2
NMHLD	84	0	5	96
NMHLD	84	96	3	192
NMSTR	84	192	7
NMSCR	84	192	7	96	192	6
EXSTR	85	96	0
BRSI_	85	96	0	96	48	4
BRTAP	85	192	7
EXTAP	85	288	3
EXTAP	85	288	6
NMTAP	85	336	6
NMTAP	86	0	6
NMTAP	86	0	7
EXSTR	86	48	6
NMSI_	86	48	6	96	48	2
EXHLD	86	48	7	96
EXTAP	86	288	1
EXTAP	86	288	4
NMTAP	86	336	1
NMTAP	87	0	0
NMTAP	87	0	1
EXHLD	87	48	0	96
EXSTR	87	48	1
NMSI_	87	48	1	96	48	5
EXTAP	87	288	3
EXTAP	87	288	6
NMTAP	87	336	6
NMTAP	88	0	6
NMTAP	88	0	7
EXSTR	88	48	6
NMSI_	88	48	6	96	48	2
EXHLD	88	48	7	96
EXTAP	88	288	1
EXTAP	88	288	4
NMTAP	88	336	1
NMTAP	89	0	0
NMTAP	89	0	1
EXSTR	89	48	0
NMSI_	89	48	0	96	48	4
EXSTR	89	48	1
NMSI_	89	48	1	96	48	5
EXTAP	89	288	3
EXTAP	89	288	6
NMTAP	89	336	5
NMTAP	89	360	4
NMTAP	90	0	5
NMTAP	90	24	4
NMHLD	90	48	5	144
NMTAP	90	96	6
NMTAP	90	144	7
NMTAP	90	192	0
NMTAP	90	240	1
EXTAP	90	288	2
EXTAP	90	288	4
NMTAP	90	336	2
NMTAP	90	360	3
NMTAP	91	0	2
NMTAP	91	24	3
NMHLD	91	48	2	144
NMTAP	91	96	1
NMTAP	91	144	0
NMTAP	91	192	7
NMTAP	91	240	6
EXTAP	91	288	3
EXTAP	91	288	5
NMTAP	91	336	2
NMTAP	91	336	4
NMTAP	92	0	1
NMTAP	92	0	3
NMTAP	92	48	0
NMTAP	92	48	2
NMTAP	92	96	1
NMTAP	92	96	7
NMTAP	92	144	0
NMTAP	92	144	6
NMTAP	92	192	5
NMTAP	92	192	7
NMTAP	92	240	4
NMTAP	92	240	6
NMTAP	92	288	3
NMTAP	92	288	5
NMTAP	92	336	2
NMTAP	92	336	4
NMTAP	93	0	1
NMTAP	93	0	3
NMTAP	93	48	0
NMTAP	93	48	2
BRTAP	93	96	1
BRTAP	93	96	7
BRTAP	93	144	1
BRTAP	93	144	7
BRTAP	93	192	1
BRTAP	93	192	7
BRTAP	93	240	4
BRTAP	93	240	5

T_REC_TAP	380
T_REC_BRK	18
T_REC_XTP	115
T_REC_BXX	0
T_REC_HLD	45
T_REC_XHO	6
T_REC_BHO	0
T_REC_BXH	1
T_REC_STR	30
T_REC_BST	2
T_REC_XST	15
T_REC_XBS	0
T_REC_TTP	29
T_REC_THO	3
T_REC_SLD	44
T_REC_BSL	3
T_REC_ALL	691
T_NUM_TAP	569
T_NUM_BRK	24
T_NUM_HLD	54
T_NUM_SLD	44
T_NUM_ALL	691
T_JUDGE_TAP	589
T_JUDGE_HLD	204
T_JUDGE_SLD	47
T_JUDGE_ALL	840
TTM_EACHPAIRS	139
TTM_SCR_TAP	284500
TTM_SCR_BRK	62400
TTM_SCR_HLD	54000
TTM_SCR_SLD	66000
TTM_SCR_ALL	466900
TTM_SCR_S	450600
TTM_SCR_SS	464500
TTM_RAT_ACV	10051

