VERSION	0.00.00	1.04.00
FES_MODE	0
BPM_DEF	165.000	165.000	165.000	165.000
MET_DEF	4	4
RESOLUTION	384
CLK_DEF	384
COMPATIBLE_CODE	MA2

BPM	0	0	165.000
MET	0	0	4	4
MET	35	0	4	4
MET	36	0	4	5
MET	37	96	4	4
MET	38	96	4	5
MET	39	192	4	4
MET	40	192	4	5
MET	41	288	4	4

NMTAP	2	0	1
NMTAP	2	96	1
NMTAP	2	192	1
NMTAP	2	288	1
NMTAP	3	0	2
NMTAP	3	96	2
NMTAP	3	192	2
NMTAP	3	288	2
NMTAP	4	0	3
NMTAP	4	96	3
NMTAP	4	192	3
NMTAP	4	288	3
NMHLD	5	0	4	192
NMHLD	5	0	5	192
NMTAP	6	0	6
NMTAP	6	96	6
NMTAP	6	192	6
NMTAP	6	288	6
NMTAP	7	0	5
NMTAP	7	96	5
NMTAP	7	192	5
NMTAP	7	288	5
NMTAP	8	0	4
NMTAP	8	96	4
NMTAP	8	192	4
NMTAP	8	288	4
NMHLD	9	0	2	192
NMHLD	9	0	3	192
NMHLD	10	0	2	192
NMHLD	10	192	3	192
NMHLD	11	0	4	192
NMTAP	11	192	5
NMHLD	12	0	5	192
NMHLD	12	192	4	192
NMHLD	13	0	3	192
NMTAP	13	192	2
NMHLD	14	0	1	192
NMHLD	14	192	2	192
NMHLD	15	0	3	192
NMTAP	15	192	4
NMHLD	16	0	6	192
NMHLD	16	192	5	192
NMHLD	17	0	4	192
NMTAP	17	192	3
BRTAP	18	0	2
BRTAP	18	96	2
BRTAP	18	192	2
NMTAP	19	0	1
NMTAP	19	96	1
NMTAP	19	192	2
NMTAP	19	192	3
NMTAP	19	288	2
NMTAP	19	288	3
NMTAP	20	0	4
NMTAP	20	48	4
NMTAP	20	96	4
NMTAP	20	192	4
NMTAP	20	192	5
NMTAP	21	0	6
NMTAP	21	96	6
NMTAP	21	192	4
NMTAP	21	192	5
NMTAP	21	288	4
NMTAP	21	288	5
NMTAP	22	0	3
NMTAP	22	48	3
NMTAP	22	96	3
NMTAP	22	192	2
NMTAP	22	192	3
NMTAP	23	0	1
NMTAP	23	96	1
NMTAP	23	192	2
NMTAP	23	192	3
NMTAP	23	288	2
NMTAP	23	288	3
NMTAP	24	0	4
NMTAP	24	48	4
NMTAP	24	96	4
NMTAP	24	192	4
NMTAP	24	192	5
NMTAP	25	0	6
NMTAP	25	96	6
NMTAP	25	192	4
NMTAP	25	192	5
NMTAP	25	288	4
NMTAP	25	288	5
NMTAP	26	0	3
NMTAP	26	48	3
NMTAP	26	96	3
NMTAP	26	192	2
NMTAP	26	192	3
NMTAP	27	0	2
NMTAP	27	96	2
NMTAP	27	192	0
NMTAP	27	192	1
NMTAP	27	288	0
NMTAP	27	288	1
NMTAP	28	0	7
NMTAP	28	48	7
NMTAP	28	96	7
NMTAP	28	192	6
NMTAP	28	192	7
NMTAP	29	0	5
NMTAP	29	96	5
NMTAP	29	192	6
NMTAP	29	192	7
NMTAP	29	288	6
NMTAP	29	288	7
NMTAP	30	0	0
NMTAP	30	48	0
NMTAP	30	96	0
NMTAP	30	192	0
NMTAP	30	192	1
NMTAP	31	0	1
NMTAP	31	48	1
NMTAP	31	96	1
NMTAP	31	192	2
NMTAP	31	240	2
NMTAP	31	288	2
NMTAP	32	0	3
NMTAP	32	48	3
NMTAP	32	96	3
NMTAP	32	192	4
NMTAP	32	240	4
NMTAP	32	288	4
NMTAP	33	0	5
NMTAP	33	48	5
NMTAP	33	96	5
NMTAP	33	192	6
NMTAP	33	240	6
NMTAP	33	288	6
BRTAP	34	0	0
BRTAP	34	0	7
NMSTR	35	0	1
NMSI_	35	0	1	96	192	4
NMTAP	36	0	5
NMTAP	36	96	5
NMTAP	36	192	5
NMTAP	36	288	6
NMTAP	37	0	6
NMSTR	37	96	6
NMSI_	37	96	6	96	192	3
NMTAP	38	96	2
NMTAP	38	192	2
NMTAP	38	288	2
NMTAP	39	0	1
NMTAP	39	96	1
NMSTR	39	192	1
NMSI_	39	192	1	96	192	4
NMTAP	40	192	5
NMTAP	40	288	5
NMTAP	41	0	5
NMTAP	41	96	6
NMTAP	41	192	6
NMSTR	41	288	6
NMSI_	41	288	6	96	192	3
NMTAP	42	288	2
NMTAP	43	0	2
EXTAP	43	96	0
EXTAP	43	96	1
NMTTP	43	288	1	B	0	L1
NMTTP	44	0	2	B	0	L1
NMTTP	44	96	3	B	0	L1
NMTTP	44	288	6	B	0	L1
NMTTP	45	0	5	B	0	L1
NMTTP	45	96	4	B	0	L1
NMTTP	45	288	2	E	0	L1
NMTTP	46	0	3	E	0	L1
NMTTP	46	96	4	E	0	L1
NMTTP	46	192	5	E	0	L1
NMTTP	46	288	6	E	0	L1
NMTTP	47	96	0	C	0	L1
NMTTP	47	288	7	B	0	L1
NMTTP	48	0	6	B	0	L1
NMTTP	48	96	4	B	0	L1
NMTTP	48	96	5	B	0	L1
NMTTP	48	288	0	B	0	L1
NMTTP	49	0	1	B	0	L1
NMTTP	49	96	2	B	0	L1
NMTTP	49	96	3	B	0	L1
NMTTP	49	288	6	E	0	L1
NMTTP	50	0	5	E	0	L1
NMTTP	50	96	4	E	0	L1
NMTTP	50	192	3	E	0	L1
NMTTP	50	288	2	E	0	L1
NMTTP	51	96	0	C	0	L1
NMHLD	51	288	1	192
NMHLD	52	96	2	192
NMHLD	52	288	3	192
NMHLD	53	96	4	192
NMHLD	53	288	5	192
NMTAP	54	96	6
NMTAP	54	288	6
NMTAP	54	288	7
NMTAP	55	0	6
NMTAP	55	0	7
NMTAP	55	96	6
NMTAP	55	96	7
NMHLD	55	288	6	192
NMHLD	56	96	5	192
NMHLD	56	288	4	192
NMHLD	57	96	3	192
NMHLD	57	288	2	192
NMTAP	58	96	1
BXTAP	58	288	0
BXTAP	58	288	1
BXTAP	59	0	0
BXTAP	59	0	1
BXTAP	59	96	2
BXTAP	59	96	7
NMTAP	59	288	0
NMTAP	59	288	1
NMTAP	60	0	0
NMTAP	60	0	1
NMTAP	60	96	2
NMTAP	60	96	3
NMTAP	60	192	2
NMTAP	60	192	3
NMTAP	60	288	4
NMTAP	60	288	5
NMTAP	61	0	4
NMTAP	61	0	5
NMTAP	61	96	6
NMTAP	61	96	7
NMTAP	61	192	6
NMTAP	61	192	7
NMTAP	61	288	5
NMTAP	61	336	5
NMTAP	62	0	5
NMTAP	62	96	4
NMTAP	62	144	4
NMTAP	62	192	4
NMTAP	62	288	3
NMTAP	62	336	3
NMTAP	63	0	3
NMTAP	63	96	2
NMTAP	63	96	3
NMTAP	63	288	2
NMTAP	63	336	2
NMTAP	64	0	3
NMTAP	64	48	3
NMTAP	64	96	2
NMTAP	64	192	2
NMTAP	64	192	3
NMTAP	64	288	4
NMTAP	64	336	4
NMTAP	65	0	3
NMTAP	65	48	3
NMTAP	65	96	4
NMTAP	65	192	3
NMTAP	65	192	4
NMTAP	65	288	5
NMTAP	65	336	5
NMTAP	66	0	4
NMTAP	66	48	4
NMTAP	66	96	5
NMTAP	66	192	4
NMTAP	66	192	5
EXTAP	66	288	6
EXTAP	66	288	7
EXTAP	67	0	6
EXTAP	67	0	7
BRTAP	67	96	0
BRTAP	67	96	5
NMTAP	67	288	6
NMTAP	67	288	7
NMTAP	68	0	6
NMTAP	68	0	7
NMTAP	68	96	4
NMTAP	68	96	5
NMTAP	68	192	4
NMTAP	68	192	5
NMTAP	68	288	2
NMTAP	68	288	3
NMTAP	69	0	2
NMTAP	69	0	3
NMTAP	69	96	0
NMTAP	69	96	1
NMTAP	69	192	0
NMTAP	69	192	1
NMTAP	69	288	2
NMTAP	69	336	2
NMTAP	70	0	2
NMTAP	70	96	3
NMTAP	70	144	3
NMTAP	70	192	3
NMTAP	70	288	4
NMTAP	70	336	4
NMTAP	71	0	4
NMTAP	71	96	4
NMTAP	71	96	5
NMTAP	71	288	5
NMTAP	71	336	5
NMTAP	72	0	4
NMTAP	72	48	4
NMTAP	72	96	5
NMTAP	72	192	4
NMTAP	72	192	5
NMTAP	72	288	3
NMTAP	72	336	3
NMTAP	73	0	4
NMTAP	73	48	4
NMTAP	73	96	3
NMTAP	73	192	3
NMTAP	73	192	4
NMTAP	73	288	2
NMTAP	73	336	2
NMTAP	74	0	3
NMTAP	74	48	3
NMTAP	74	96	2
NMTAP	74	192	2
NMTAP	74	192	3
EXTAP	74	288	0
EXTAP	74	288	1
EXTAP	75	0	0
EXTAP	75	0	1
BRTAP	75	96	2
BRTAP	75	96	7
NMTAP	75	288	0
NMTAP	75	288	1
NMTAP	76	0	0
NMTAP	76	0	1
NMTAP	76	96	2
NMTAP	76	144	2
NMTAP	76	192	2
NMTAP	76	288	3
NMTAP	76	288	4
NMTAP	77	0	3
NMTAP	77	0	4
NMTAP	77	96	5
NMTAP	77	144	5
NMTAP	77	192	5
NMTAP	77	288	6
NMTAP	77	336	6
NMTAP	78	0	6
NMTAP	78	96	6
NMTAP	78	96	7
NMTAP	78	192	6
NMTAP	78	192	7
NMTAP	78	288	0
NMTAP	78	336	0
NMTAP	79	0	0
NMTAP	79	96	0
NMTAP	79	96	1
NMTAP	79	288	6
NMTAP	79	288	7
NMTAP	80	0	6
NMTAP	80	0	7
NMTAP	80	96	5
NMTAP	80	144	5
NMTAP	80	192	5
NMTAP	80	288	3
NMTAP	80	288	4
NMTAP	81	0	3
NMTAP	81	0	4
NMTAP	81	96	2
NMTAP	81	144	2
NMTAP	81	192	2
NMTAP	81	288	1
NMTAP	81	336	1
NMTAP	82	0	1
NMTAP	82	96	0
NMTAP	82	96	1
NMTAP	82	192	0
NMTAP	82	192	1
NMTAP	82	288	7
NMTAP	82	336	7
NMTAP	83	0	7
NMTAP	83	96	6
NMTAP	83	96	7
NMTHO	83	288	0	384	C	1	L1
NMTAP	85	288	1
NMTAP	85	336	1
NMTAP	86	0	0
NMTAP	86	48	0
NMTAP	86	96	1
NMTAP	86	192	0
NMTAP	86	192	1
NMTAP	86	288	6
NMTAP	86	336	6
NMTAP	87	0	7
NMTAP	87	48	7
NMTAP	87	96	6
NMTAP	87	192	6
NMTAP	87	192	7
NMTAP	87	288	1
NMTAP	87	336	1
NMTAP	88	0	0
NMTAP	88	48	0
NMTAP	88	96	1
NMTAP	88	192	0
NMTAP	88	192	1
NMTAP	88	288	6
NMTAP	88	336	6
NMTAP	89	0	7
NMTAP	89	48	7
NMTAP	89	96	6
NMTAP	89	192	6
NMTAP	89	192	7
NMTAP	89	288	0
NMTAP	89	336	0
NMTAP	90	0	0
NMTAP	90	96	1
NMTAP	90	144	1
NMTAP	90	192	1
NMTAP	90	288	2
NMTAP	90	336	2
NMTAP	91	0	2
NMTAP	91	96	3
NMTAP	91	144	3
NMTAP	91	192	3
NMTAP	91	288	4
NMTAP	91	336	4
NMTAP	92	0	4
NMTAP	92	96	5
NMTAP	92	144	5
NMTAP	92	192	5
NMTAP	92	288	6
NMTAP	92	336	6
NMTAP	93	0	6
NMTAP	93	96	0
NMTAP	93	96	7
BRTAP	93	192	0
BRTAP	93	192	7

T_REC_TAP	336
T_REC_BRK	11
T_REC_XTP	10
T_REC_BXX	6
T_REC_HLD	26
T_REC_XHO	0
T_REC_BHO	0
T_REC_BXH	0
T_REC_STR	4
T_REC_BST	0
T_REC_XST	0
T_REC_XBS	0
T_REC_TTP	26
T_REC_THO	1
T_REC_SLD	4
T_REC_BSL	0
T_REC_ALL	424
T_NUM_TAP	376
T_NUM_BRK	17
T_NUM_HLD	27
T_NUM_SLD	4
T_NUM_ALL	424
T_JUDGE_TAP	393
T_JUDGE_HLD	112
T_JUDGE_SLD	4
T_JUDGE_ALL	509
TTM_EACHPAIRS	78
TTM_SCR_TAP	188000
TTM_SCR_BRK	44200
TTM_SCR_HLD	27000
TTM_SCR_SLD	6000
TTM_SCR_ALL	265200
TTM_SCR_S	255600
TTM_SCR_SS	263500
TTM_RAT_ACV	10064

