VERSION	0.00.00	1.04.00
FES_MODE	0
BPM_DEF	154.000	154.000	154.000	154.000
MET_DEF	4	4
RESOLUTION	384
CLK_DEF	384
COMPATIBLE_CODE	MA2

BPM	0	0	154.000
MET	0	0	4	4
MET	57	0	4	6
MET	63	0	4	4

NMTAP	1	288	0
NMTAP	1	288	7
NMTAP	2	0	2
NMTAP	2	24	3
NMTAP	2	72	3
NMTAP	2	96	1
NMTAP	2	144	3
NMTAP	2	144	4
NMTAP	2	192	5
NMTAP	2	216	4
NMTAP	2	264	4
NMTAP	2	288	6
NMTAP	2	336	3
NMTAP	2	336	4
NMTAP	3	0	2
NMTAP	3	24	3
NMTAP	3	72	3
NMTAP	3	96	1
NMTAP	3	144	0
NMTAP	3	144	7
NMTAP	3	192	1
NMTAP	3	192	6
NMTTP	3	240	5	D	0	M1
NMTTP	3	264	4	E	0	M1
NMTTP	3	288	3	D	0	M1
NMSTR	4	0	1
NMSCR	4	0	1	96	48	4
NMTAP	4	96	5
NMHLD	4	192	7	72
NMHLD	4	264	6	72
NMSTR	4	336	5
NMSI_	4	336	5	96	48	2
NMTAP	5	48	0
NMTAP	5	96	0
NMTAP	5	144	3
NMHLD	5	192	1	72
NMHLD	5	264	2	72
NMTAP	5	336	3
NMSTR	6	0	6
NMSCL	6	0	6	96	48	3
NMTAP	6	96	2
NMHLD	6	192	0	72
NMHLD	6	264	1	72
NMSTR	6	336	2
NMSI_	6	336	2	96	48	5
NMTAP	7	48	6
NMTAP	7	96	6
NMTAP	7	144	4
NMTAP	7	192	5
NMTAP	7	240	6
NMTAP	7	288	1
NMTAP	7	288	7
NMSTR	8	0	5
NMSCR	8	0	5	96	48	0
NMTAP	8	96	3
NMHLD	8	192	1	72
NMHLD	8	264	3	72
NMSTR	8	336	4
NMSI_	8	336	4	96	48	0
NMTAP	9	48	7
NMTAP	9	96	7
NMTAP	9	144	0
NMHLD	9	192	6	72
NMHLD	9	264	5	72
NMTAP	9	336	4
NMSTR	10	0	2
NMSCL	10	0	2	96	48	7
NMTAP	10	96	4
NMHLD	10	192	6	72
NMHLD	10	264	4	72
NMSTR	10	336	3
NMSI_	10	336	3	96	48	7
NMTAP	11	48	0
NMTAP	11	96	0
NMTAP	11	144	7
NMTAP	11	192	0
NMTAP	11	192	6
NMTAP	11	240	1
NMTAP	11	240	5
NMTAP	11	288	2
NMTAP	11	288	4
NMTTP	12	0	3	A	0	M1
NMTTP	12	24	2	A	0	M1
NMTTP	12	48	1	A	0	M1
NMTTP	12	72	0	A	0	M1
NMTTP	12	144	4	A	0	M1
NMTTP	12	168	5	A	0	M1
NMTTP	12	192	6	A	0	M1
NMTTP	12	216	7	A	0	M1
NMTTP	12	288	0	C	1	M1
NMTAP	13	0	0
NMTAP	13	0	7
NMTAP	13	48	1
NMTAP	13	96	1
NMTAP	13	144	3
NMHLD	13	192	2	72
NMTAP	13	264	3
NMSTR	13	336	1
NMSI_	13	336	1	96	48	4
NMTAP	13	336	4
NMTAP	14	48	1
NMTAP	14	96	5
NMTAP	14	144	5
NMTAP	14	192	6
NMTAP	14	192	7
NMTAP	14	264	4
NMTAP	14	264	5
NMTAP	14	336	2
NMTAP	14	336	7
NMTAP	15	48	1
NMTAP	15	96	1
NMTAP	15	144	3
NMHLD	15	192	0	72
NMHLD	15	264	1	72
NMTAP	15	336	2
NMTAP	16	48	5
NMTAP	16	72	4
NMTAP	16	96	6
NMTAP	16	144	2
NMTAP	16	168	3
NMTAP	16	192	1
NMTAP	16	240	7
NMTAP	16	288	0
NMTAP	16	288	6
NMTAP	17	0	3
NMTAP	17	0	4
NMTAP	17	48	2
NMTAP	17	96	2
NMTAP	17	144	3
NMTAP	17	192	0
NMSTR	17	240	1
NMSI_	17	240	1	96	48	4
NMTAP	17	240	7
NMSTR	17	336	6
NMSI_	17	336	6	96	48	3
NMTAP	18	48	6
NMTAP	18	96	2
NMTAP	18	144	2
NMTAP	18	192	0
NMTAP	18	192	1
NMTAP	18	264	2
NMTAP	18	264	3
NMTAP	18	336	0
NMTAP	18	336	5
NMTAP	19	48	6
NMTAP	19	96	6
NMTAP	19	144	4
NMHLD	19	192	7	72
NMHLD	19	264	6	72
NMHLD	19	336	5	72
NMTAP	20	24	4
NMTAP	20	48	5
NMTAP	20	96	2
NMTAP	20	120	3
NMTAP	20	144	2
NMTAP	20	168	3
NMTAP	20	192	1
NMTAP	20	240	0
NMTAP	20	288	1
NMTAP	20	288	7
BRTAP	20	336	2
BRTAP	20	336	6
NMTAP	21	0	3
NMTAP	21	0	5
NMTAP	21	96	1
NMTAP	21	96	3
NMTAP	21	192	3
NMTAP	21	192	5
NMTAP	21	240	3
NMTAP	21	240	5
NMSTR	21	336	1
NMSI_	21	336	1	96	48	7
NMTAP	21	336	3
NMSTR	22	48	5
NMSI_	22	48	5	96	48	3
NMSTR	22	144	1
NMSI_	22	144	1	96	48	5
NMTAP	22	240	6
NMTAP	22	288	6
NMTAP	22	336	3
NMTAP	23	0	2
NMTAP	23	0	4
NMTAP	23	96	4
NMTAP	23	96	6
NMTAP	23	192	2
NMTAP	23	192	4
NMTAP	23	240	2
NMTAP	23	240	4
NMTAP	23	336	4
NMHLD	23	336	6	96
NMSTR	24	48	0
NMSI_	24	48	0	96	48	4
NMSTR	24	96	6
NMSI_	24	96	6	96	48	2
NMTAP	24	144	0
NMTAP	24	192	6
NMSTR	24	288	7
NMSXR	24	288	7	96	192	0
BRTAP	25	0	5
CNSCR	25	192	0	0	96	5
NMHLD	25	336	7	96
NMTAP	26	48	0
NMTAP	26	96	6
NMTAP	26	144	4
NMTAP	26	192	5
NMTAP	26	240	1
NMTAP	26	288	3
NMTAP	26	336	2
NMTAP	27	0	1
NMTAP	27	0	3
NMTAP	27	96	4
NMTAP	27	96	6
NMTAP	27	192	1
NMTAP	27	192	3
NMTAP	27	240	1
NMTAP	27	240	3
NMTAP	27	288	0
NMTAP	27	336	1
NMSTR	27	336	7
NMSI_	27	336	7	96	48	3
NMTAP	28	48	7
NMSTR	28	96	1
NMSI_	28	96	1	96	48	5
NMTAP	28	144	0
NMTAP	28	192	1
NMTAP	28	288	3
NMTAP	28	288	7
NMTAP	29	0	4
NMTAP	29	0	5
NMTAP	29	48	4
NMTAP	29	48	5
NMTAP	29	96	2
NMTAP	29	96	3
NMTAP	29	144	2
NMTAP	29	144	3
NMTAP	29	192	0
NMTAP	29	192	1
NMTAP	29	240	0
NMTAP	29	240	1
NMTAP	29	288	6
NMTAP	29	288	7
NMTAP	29	336	0
NMSTR	29	336	5
NMSCL	29	336	5	96	48	2
NMTAP	30	48	5
NMTAP	30	96	1
NMTAP	30	144	6
NMTAP	30	192	0
NMTAP	30	216	7
NMTAP	30	240	0
NMTAP	30	264	7
BRSTR	30	288	1
BRSI_	30	288	1	96	48	5
BXTAP	30	288	6
NMTAP	31	0	0
NMTAP	31	0	1
NMSTR	31	96	6
NMSCL	31	96	6	96	48	3
NMTAP	31	144	7
NMTAP	31	192	6
NMSTR	31	288	1
NMSCL	31	288	1	96	48	6
NMTAP	31	336	2
NMTAP	32	0	1
NMSTR	32	96	4
NMSI_	32	96	4	96	48	0
NMTAP	32	144	5
NMTAP	32	192	4
NMTAP	32	288	6
NMTAP	32	288	7
NMTAP	32	336	0
NMTAP	33	0	1
NMHLD	33	0	7	96
NMTAP	33	96	5
NMTAP	33	144	4
NMHLD	33	144	6	48
NMTAP	33	192	3
NMTAP	33	240	2
NMHLD	33	240	4	48
NMTAP	33	288	1
NMTAP	33	336	0
NMHLD	33	336	2	48
NMTAP	34	0	7
BRTAP	34	48	1
BRTAP	34	48	5
NMTAP	34	144	0
NMTAP	34	144	6
NMSTR	34	192	7
NMSCL	34	192	7	96	48	4
NMTAP	34	240	7
NMSTR	34	288	0
BRSCR	34	288	0	96	48	3
NMTAP	34	336	0
NMTAP	35	0	6
NMSTR	35	96	4
NMSI_	35	96	4	96	48	0
NMTAP	35	144	5
NMTAP	35	192	4
NMSTR	35	288	6
NMSCL	35	288	6	96	48	3
NMTAP	35	336	7
NMTAP	36	0	6
NMSTR	36	96	1
NMSCL	36	96	1	96	48	6
NMTAP	36	144	2
NMTAP	36	192	1
NMTAP	36	288	4
NMTAP	36	288	5
NMTAP	36	336	2
NMTAP	36	336	3
NMTAP	37	0	0
NMSTR	37	0	1
NMSUR	37	0	1	96	48	5
NMTAP	37	96	1
NMSTR	37	96	7
NMSCL	37	96	7	96	48	4
NMSTR	37	192	0
NMSCR	37	192	0	96	48	3
NMTAP	37	192	7
NMTAP	37	288	0
NMSTR	37	288	6
NMSUL	37	288	6	96	48	2
NMTAP	38	0	2
NMTAP	38	0	6
NMTAP	38	96	0
NMTAP	38	96	1
NMTAP	38	144	2
NMTAP	38	144	3
NMTAP	38	192	1
NMTAP	38	192	4
NMSTR	38	288	6
BRSI_	38	288	6	96	48	2
NMTAP	38	312	7
NMTAP	38	336	6
NMTAP	38	360	7
NMTAP	39	0	6
NMSTR	39	96	1
NMSCR	39	96	1	96	48	4
NMTAP	39	144	0
NMTAP	39	192	1
NMSTR	39	288	6
NMSCR	39	288	6	96	48	1
NMTAP	39	336	5
NMTAP	40	0	6
NMSTR	40	96	3
NMSI_	40	96	3	96	48	7
NMTAP	40	144	2
NMTAP	40	192	3
NMTAP	40	288	0
NMTAP	40	288	1
NMTAP	40	336	7
NMHLD	41	0	0	96
NMTAP	41	0	6
NMTAP	41	96	2
NMHLD	41	144	1	48
NMTAP	41	144	3
NMTAP	41	192	4
NMHLD	41	240	3	48
NMTAP	41	240	5
NMTAP	41	288	6
NMHLD	41	336	5	48
NMTAP	41	336	7
NMTAP	42	0	0
BRTAP	42	48	2
BRTAP	42	48	6
NMTAP	42	144	1
NMTAP	42	144	7
NMSTR	42	192	0
NMSCR	42	192	0	96	48	3
NMTAP	42	240	0
NMSTR	42	288	7
BRSCL	42	288	7	96	48	4
NMTAP	42	336	7
NMTAP	43	0	1
NMSTR	43	96	3
NMSI_	43	96	3	96	48	7
NMTAP	43	144	2
NMTAP	43	192	3
NMSTR	43	288	1
NMSCR	43	288	1	96	48	4
NMTAP	43	336	0
NMTAP	44	0	1
NMSTR	44	96	6
NMSCR	44	96	6	96	48	1
NMTAP	44	144	5
NMTAP	44	192	6
NMTAP	44	288	2
NMTAP	44	288	3
NMTAP	44	336	4
NMTAP	44	336	5
NMSTR	45	0	6
NMSUL	45	0	6	96	48	2
NMTAP	45	0	7
NMSTR	45	96	0
NMSCR	45	96	0	96	48	3
NMTAP	45	96	6
NMTAP	45	192	0
NMSTR	45	192	7
NMSCL	45	192	7	96	48	4
NMSTR	45	288	1
NMSUR	45	288	1	96	48	5
NMTAP	45	288	7
NMTAP	46	0	1
NMTAP	46	0	5
NMTAP	46	96	6
NMTAP	46	96	7
NMTAP	46	144	0
NMTAP	46	144	1
NMTAP	46	192	2
NMSTR	46	192	7
NMSI_	46	192	7	96	48	3
NMTAP	46	288	0
NMTAP	46	288	7
NMTAP	47	0	1
NMTAP	47	24	3
NMTAP	47	72	3
NMTAP	47	96	2
NMTAP	47	144	5
NMTAP	47	168	4
NMTAP	47	192	6
NMTAP	47	216	4
NMTAP	47	264	4
NMTAP	47	288	5
NMTAP	47	336	2
NMTAP	47	360	3
NMTAP	48	0	1
NMTAP	48	24	3
NMTAP	48	72	3
NMTAP	48	96	2
NMTAP	48	144	4
NMTAP	48	168	3
NMTAP	48	192	4
NMTTP	48	240	3	D	0	M1
NMTTP	48	264	4	E	0	M1
NMTTP	48	288	5	D	0	M1
NMTAP	49	0	0
NMSTR	49	0	6
NMSCL	49	0	6	96	48	3
NMTAP	49	96	2
NMHLD	49	192	0	72
NMHLD	49	264	1	72
NMSTR	49	336	2
NMSI_	49	336	2	96	48	5
NMTAP	50	48	7
NMTAP	50	96	7
NMTAP	50	144	4
NMHLD	50	192	6	72
NMHLD	50	264	5	72
NMTAP	50	336	4
NMSTR	51	0	1
NMSCR	51	0	1	96	48	4
NMTAP	51	0	7
NMTAP	51	96	5
NMHLD	51	192	7	72
NMHLD	51	264	6	72
NMSTR	51	336	5
NMSI_	51	336	5	96	48	2
NMTAP	52	48	1
NMTAP	52	96	1
NMTAP	52	144	3
NMTAP	52	192	2
NMTAP	52	240	1
NMTAP	52	288	0
NMTAP	52	288	6
NMSTR	53	0	2
NMSCL	53	0	2	96	48	7
NMTAP	53	0	3
NMTAP	53	96	5
NMHLD	53	192	6	72
NMHLD	53	264	4	72
NMSTR	53	336	3
NMSI_	53	336	3	96	48	7
NMTAP	54	48	2
NMTAP	54	96	2
NMTAP	54	144	0
NMTAP	54	144	1
NMHLD	54	192	7	72
NMHLD	54	264	1	72
NMTAP	54	336	3
NMTAP	55	0	4
NMSTR	55	0	5
NMSCR	55	0	5	96	48	0
NMTAP	55	96	2
NMHLD	55	192	1	72
NMHLD	55	264	3	72
NMSTR	55	336	4
NMSI_	55	336	4	96	48	0
NMTAP	56	48	5
NMTAP	56	96	5
NMTAP	56	144	6
NMTAP	56	144	7
NMTAP	56	192	0
NMTAP	56	216	7
NMTAP	56	240	0
NMTAP	56	264	7
NMTAP	56	288	0
NMTAP	56	312	7
NMTAP	56	336	0
NMTAP	56	360	7
BRTAP	57	0	1
NMTAP	57	96	2
NMHLD	57	192	3	96
NMTAP	57	288	4
NMHLD	57	336	4	96
NMTAP	58	48	3
NMTAP	58	96	3
NMTAP	58	96	4
NMTAP	58	192	6
NMTAP	58	288	5
NMHLD	59	0	4	96
NMTAP	59	96	3
NMHLD	59	144	3	96
NMTAP	59	240	4
NMTAP	59	288	3
NMTAP	59	288	4
NMTAP	60	0	1
NMTAP	60	96	2
NMHLD	60	192	3	96
NMTAP	60	288	5
NMHLD	60	336	5	96
NMTAP	61	48	4
NMTAP	61	96	3
NMTAP	61	96	5
NMTAP	61	192	6
NMTAP	61	288	5
NMHLD	62	0	4	96
NMTAP	62	96	2
NMHLD	62	144	2	96
NMTAP	62	240	3
NMTAP	62	288	2
NMTAP	62	288	4
NMTAP	63	0	1
NMTAP	63	24	3
NMTAP	63	72	3
NMTAP	63	96	2
NMTAP	63	144	5
NMTAP	63	168	4
NMTAP	63	192	6
NMTAP	63	216	4
NMTAP	63	264	4
NMTAP	63	288	5
NMTAP	63	336	2
NMTAP	63	360	3
NMTAP	64	0	1
NMTAP	64	24	3
NMTAP	64	72	3
NMTAP	64	96	2
NMTAP	64	144	5
NMTAP	64	168	4
NMTAP	64	192	6
NMTAP	64	216	4
NMTAP	64	264	4
NMTAP	64	288	5
NMTAP	64	336	1
NMTAP	64	360	0
EXTAP	65	0	2
NMTAP	65	24	3
EXTAP	65	72	3
NMTAP	65	96	1
EXTAP	65	144	6
NMTAP	65	168	7
EXTAP	65	192	5
NMTAP	65	216	4
EXTAP	65	264	4
NMTAP	65	288	6
EXTAP	65	336	0
NMTAP	65	360	7
EXHLD	66	0	0	48
NMHLD	66	72	4	48
EXHLD	66	72	6	48
EXTAP	66	144	1
NMTAP	66	144	3
EXTAP	66	192	1
NMTAP	66	192	3
NMTAP	66	240	7
NMTAP	66	264	7
BXTAP	66	288	0
BXSTR	66	288	6
BRSI_	66	288	6	96	48	2
NMTAP	67	0	6
NMTAP	67	0	7
NMTAP	67	96	0
NMSTR	67	96	1
NMSCR	67	96	1	96	48	4
NMTAP	67	144	7
NMTAP	67	192	1
NMTAP	67	192	6
NMSTR	67	288	6
NMSCR	67	288	6	96	48	1
NMTAP	67	336	5
NMTAP	68	0	4
NMTAP	68	0	6
NMSTR	68	96	3
NMSI_	68	96	3	96	48	7
NMTAP	68	144	2
NMTAP	68	192	1
NMTAP	68	192	3
NMTAP	68	288	0
NMTAP	68	288	1
NMTAP	68	336	7
NMHLD	69	0	0	96
NMTAP	69	0	6
NMTAP	69	96	2
NMHLD	69	144	1	48
NMTAP	69	144	3
NMTAP	69	192	4
NMHLD	69	240	3	48
NMTAP	69	240	5
NMTAP	69	288	6
NMHLD	69	336	5	48
NMTAP	69	336	7
NMTAP	70	0	0
BRTAP	70	48	2
BRTAP	70	48	6
NMSTR	70	144	1
NMSI_	70	144	1	96	48	5
NMTAP	70	144	5
NMTAP	70	192	2
NMTAP	70	192	4
NMTAP	70	240	1
NMTAP	70	240	5
NMSTR	70	288	7
BRSCL	70	288	7	96	48	4
BRSCR	70	288	7	96	48	2
NMTAP	70	336	7
NMSTR	71	96	3
NMSI_	71	96	3	96	48	7
NMTAP	71	144	2
NMTAP	71	192	1
NMTAP	71	192	3
NMTAP	71	288	0
NMSTR	71	288	1
NMSCR	71	288	1	96	48	4
NMTAP	71	336	7
NMTAP	72	0	1
NMTAP	72	0	6
NMSTR	72	96	6
NMSCR	72	96	6	96	48	1
NMTAP	72	144	5
NMTAP	72	192	4
NMTAP	72	192	6
NMTAP	72	288	2
NMTAP	72	288	3
NMTAP	72	336	4
NMTAP	72	336	5
NMTAP	73	0	6
NMSTR	73	0	7
NMSCR	73	0	7	96	48	2
NMSTR	73	96	6
NMSI_	73	96	6	96	48	3
NMTAP	73	96	7
NMSTR	73	192	1
NMSI_	73	192	1	96	48	4
NMTAP	73	192	6
NMSTR	73	288	0
NMSCL	73	288	0	96	48	5
NMTAP	73	288	1
NMTAP	74	0	0
NMTAP	74	0	4
NMTAP	74	96	2
NMTAP	74	96	3
NMTAP	74	144	0
NMTAP	74	144	1
NMTAP	74	192	6
NMTAP	74	216	7
NMTAP	74	264	1
NMSTR	74	288	0
BRSI_	74	288	0	96	48	4
NMTAP	74	312	1
NMTAP	74	336	0
NMTAP	74	360	1
NMTAP	75	0	0
NMSTR	75	96	2
NMSCL	75	96	2	96	48	7
NMTAP	75	96	3
NMTAP	75	144	4
NMTAP	75	192	2
NMTAP	75	192	5
NMSTR	75	288	5
NMSCL	75	288	5	96	48	2
NMTAP	75	336	7
NMTAP	76	0	1
NMTAP	76	0	5
NMSTR	76	96	7
NMSI_	76	96	7	96	48	3
NMTAP	76	144	0
NMTAP	76	192	1
NMTAP	76	192	7
NMTAP	76	288	4
NMTAP	76	288	5
NMTAP	76	336	6
NMTAP	77	0	1
NMHLD	77	0	7	96
NMTAP	77	96	5
NMTAP	77	144	4
NMHLD	77	144	6	48
NMTAP	77	192	3
NMTAP	77	240	2
NMHLD	77	240	4	48
NMTAP	77	288	1
NMTAP	77	336	0
NMHLD	77	336	2	48
NMTAP	78	0	7
BRTAP	78	48	1
BRTAP	78	48	5
NMTAP	78	144	2
NMSTR	78	144	6
NMSI_	78	144	6	96	48	2
NMTAP	78	192	3
NMTAP	78	192	5
NMTAP	78	240	2
NMTAP	78	240	6
NMSTR	78	288	0
BRSCL	78	288	0	96	48	5
BRSCR	78	288	0	96	48	3
NMTAP	78	336	0
NMSTR	79	96	4
NMSI_	79	96	4	96	48	0
NMTAP	79	144	5
NMTAP	79	192	4
NMTAP	79	192	6
NMSTR	79	288	6
NMSCL	79	288	6	96	48	3
NMTAP	79	288	7
NMTAP	79	336	0
NMTAP	80	0	1
NMTAP	80	0	6
NMSTR	80	96	1
NMSCL	80	96	1	96	48	6
NMTAP	80	144	2
NMTAP	80	192	1
NMTAP	80	192	3
NMTAP	80	288	4
NMTAP	80	288	5
NMTAP	80	336	2
NMTAP	80	336	3
NMSTR	81	0	0
NMSI_	81	0	0	96	48	4
NMTAP	81	0	1
NMSTR	81	96	0
NMSCL	81	96	0	96	48	5
NMTAP	81	96	7
NMSTR	81	192	0
NMSCR	81	192	0	96	48	3
NMTAP	81	192	1
NMTAP	81	288	0
NMTAP	81	288	7
NMTAP	82	0	6
NMTAP	82	24	4
NMTAP	82	48	5
NMTAP	82	72	3
NMTAP	82	96	4
NMTAP	82	120	2
NMTAP	82	144	3
NMTAP	82	168	1
NMTAP	82	192	7
NMTAP	82	216	0
NMTAP	82	264	0
NMTAP	82	288	7
NMTAP	82	312	1
NMTAP	82	336	6
NMTAP	82	360	2
NMTAP	83	0	5
NMTAP	83	24	3
NMTAP	83	72	3
NMTAP	83	96	4
NMTAP	83	144	2
NMTAP	83	168	3
NMTAP	83	192	2
NMTAP	83	216	6
NMTAP	83	264	6
NMTAP	83	288	7
NMTAP	83	336	5
NMTAP	83	360	4
NMTAP	84	0	5
NMTAP	84	24	1
NMTAP	84	72	1
NMTAP	84	96	0
NMTAP	84	144	3
NMTAP	84	168	4
NMTAP	84	192	3
NMTTP	84	240	4	E	1	M1
NMTTP	84	264	0	C	1	M1
NMTTP	84	288	0	E	1	M1
NMSTR	85	0	1
NMSCR	85	0	1	96	48	4
NMTAP	85	0	6
NMTAP	85	96	0
NMTAP	85	96	1
NMHLD	85	192	7	72
NMHLD	85	264	6	72
NMSTR	85	336	5
NMSI_	85	336	5	96	48	2
NMTAP	86	48	0
NMTAP	86	96	0
NMTAP	86	144	3
NMHLD	86	192	1	72
NMHLD	86	264	2	72
NMTAP	86	336	3
NMTAP	87	0	0
NMSTR	87	0	6
NMSCL	87	0	6	96	48	3
NMTAP	87	96	6
NMTAP	87	96	7
NMHLD	87	192	0	72
NMHLD	87	264	1	72
NMSTR	87	336	2
NMSI_	87	336	2	96	48	5
NMTAP	88	48	6
NMTAP	88	96	6
NMTAP	88	144	4
NMTAP	88	192	5
NMTAP	88	240	6
NMTAP	88	288	1
NMTAP	88	288	7
NMTAP	89	0	3
NMSTR	89	0	5
NMSCR	89	0	5	96	48	0
NMTAP	89	96	4
NMTAP	89	96	5
NMHLD	89	192	1	72
NMHLD	89	264	3	72
NMSTR	89	336	4
NMSI_	89	336	4	96	48	0
NMTAP	90	48	5
NMTAP	90	96	5
NMTAP	90	144	6
NMTAP	90	144	7
NMHLD	90	192	0	72
NMHLD	90	264	6	72
NMTAP	90	336	4
NMSTR	91	0	2
NMSCL	91	0	2	96	48	7
NMTAP	91	0	4
NMTAP	91	96	2
NMTAP	91	96	3
NMHLD	91	192	6	72
NMHLD	91	264	4	72
NMSTR	91	336	3
NMSI_	91	336	3	96	48	7
NMTAP	92	48	0
NMTAP	92	96	0
NMTAP	92	144	1
NMTAP	92	144	6
NMTAP	92	192	2
NMTAP	92	192	5
NMTAP	92	240	3
NMTAP	92	240	4
NMTAP	92	288	1
NMTAP	92	288	6
NMTAP	93	0	2
NMTAP	93	24	3
NMTAP	93	48	1
NMTAP	93	72	1
NMTAP	93	144	5
NMTAP	93	168	4
NMTAP	93	192	6
NMTAP	93	216	6
BRTAP	93	288	0
BRTAP	93	288	7

T_REC_TAP	570
T_REC_BRK	14
T_REC_XTP	8
T_REC_HLD	69
T_REC_XHO	2
T_REC_STR	86
T_REC_BST	2
T_REC_XST	0
T_REC_TTP	18
T_REC_THO	0
T_REC_SLD	90
T_REC_ALL	859
T_NUM_TAP	682
T_NUM_BRK	16
T_NUM_HLD	71
T_NUM_SLD	90
T_NUM_ALL	859
T_JUDGE_TAP	698
T_JUDGE_HLD	127
T_JUDGE_SLD	90
T_JUDGE_ALL	915
TTM_EACHPAIRS	163
TTM_SCR_TAP	341000
TTM_SCR_BRK	41600
TTM_SCR_HLD	71000
TTM_SCR_SLD	135000
TTM_SCR_ALL	588600
TTM_SCR_S	569400
TTM_SCR_SS	587000
TTM_RAT_ACV	10027

