VERSION	0.00.00	1.04.00
FES_MODE	0
BPM_DEF	154.000	154.000	154.000	154.000
MET_DEF	4	4
RESOLUTION	384
CLK_DEF	384
COMPATIBLE_CODE	MA2

BPM	0	0	154.000
MET	0	0	4	4

EXHLD	2	0	2	72
EXHLD	2	0	4	72
EXTAP	2	144	3
EXTAP	2	144	5
EXHLD	2	192	3	72
EXHLD	2	192	5	72
EXTAP	2	336	2
EXTAP	2	336	4
EXHLD	3	0	2	72
EXHLD	3	0	4	72
EXTAP	3	144	1
EXTAP	3	144	5
EXTAP	3	192	1
EXTAP	3	192	5
NMTAP	4	0	4
NMTAP	4	96	3
NMTAP	4	96	5
NMTAP	4	192	7
NMTAP	4	288	4
NMTAP	4	288	6
NMTAP	5	0	3
NMTAP	5	96	2
NMTAP	5	96	4
NMTAP	5	192	0
NMTAP	5	288	1
NMTAP	5	288	3
NMTAP	6	0	4
NMTAP	6	96	3
NMTAP	6	96	5
NMTAP	6	192	7
NMTAP	6	288	4
NMTAP	6	288	6
NMTAP	7	0	3
NMTAP	7	0	5
NMTAP	7	96	3
NMTAP	7	96	5
NMTAP	7	192	2
NMTAP	7	192	4
NMTAP	7	288	2
NMTAP	7	288	4
NMTAP	8	0	2
NMTAP	8	96	1
NMTAP	8	96	3
NMTAP	8	192	0
NMTAP	8	288	2
NMTAP	8	288	3
NMTAP	9	0	5
NMTAP	9	96	4
NMTAP	9	96	6
NMTAP	9	192	7
NMTAP	9	288	4
NMTAP	9	288	5
NMTAP	10	0	3
NMTAP	10	96	1
NMTAP	10	192	7
NMHLD	10	288	6	192
NMTAP	11	0	7
NMTAP	11	96	7
NMTAP	11	192	0
NMTAP	11	192	6
NMTAP	11	240	0
NMTAP	11	240	6
NMSTR	11	288	0
NMSI_	11	288	0	96	48	4
NMHLD	11	288	6	96
NMTAP	12	288	3
NMTAP	12	288	4
NMHLD	13	0	5	1152
NMTAP	13	96	4
NMTAP	13	192	4
NMTAP	13	288	3
NMTAP	14	0	4
NMTAP	14	96	4
NMTAP	14	192	4
NMTAP	14	288	3
NMTAP	15	0	4
NMTAP	15	96	4
NMTAP	15	192	4
NMTAP	15	288	6
NMTAP	16	0	4
NMTAP	16	96	4
NMTAP	16	192	4
NMTAP	16	192	5
NMTAP	16	288	3
NMHLD	17	0	2	1152
NMTAP	17	96	3
NMTAP	17	192	3
NMTAP	17	288	4
NMTAP	18	0	3
NMTAP	18	96	3
NMTAP	18	192	3
NMTAP	18	288	1
NMTAP	19	0	3
NMTAP	19	96	3
NMTAP	19	192	3
NMTAP	19	288	4
NMTAP	20	0	3
NMTAP	20	96	2
NMTAP	20	96	3
NMTAP	20	192	1
NMTAP	20	192	5
NMTAP	20	240	1
NMTAP	20	240	5
NMTAP	20	288	1
NMTAP	20	288	5
NMTAP	21	0	6
NMSTR	21	96	6
NMSCR	21	96	6	96	96	1
NMTAP	22	0	2
NMSTR	22	96	2
NMSCR	22	96	2	96	96	5
NMTTP	23	0	7	E	0	M1
NMTTP	23	96	6	E	0	M1
NMTTP	23	192	5	E	0	M1
NMTTP	23	288	4	E	0	M1
NMTTP	24	0	0	C	0	M1
NMTTP	24	96	0	E	0	M1
NMTTP	24	192	1	B	0	M1
NMTTP	24	192	1	A	0	M1
NMTTP	24	192	6	B	0	M1
NMTTP	24	192	6	A	0	M1
NMTAP	25	0	7
NMSTR	25	96	6
NMSCL	25	96	6	96	96	3
NMTAP	26	0	0
NMSTR	26	96	1
NMSCR	26	96	1	96	96	4
NMHLD	27	0	5	96
NMTAP	27	96	4
NMHLD	27	192	2	96
NMTAP	27	288	3
NMTAP	28	0	1
NMTAP	28	0	4
NMTAP	28	96	2
NMTAP	28	96	3
NMTAP	28	192	4
NMTAP	28	192	5
NMSTR	28	288	7
NMSCL	28	288	7	96	240	1
EXHLD	29	336	0	144
NMTAP	30	48	7
NMTAP	30	96	7
NMTAP	30	192	2
NMTAP	30	192	5
BXTAP	31	0	0
BXSTR	31	0	1
NMSI_	31	0	1	96	48	4
EXSTR	31	192	6
NMSI_	31	192	6	96	48	3
EXTAP	31	192	7
EXTAP	32	0	0
EXSTR	32	0	1
NMSI_	32	0	1	96	48	4
EXSTR	32	192	6
NMSI_	32	192	6	96	48	3
EXTAP	32	192	7
EXTAP	33	0	0
EXSTR	33	0	1
NMSI_	33	0	1	96	48	5
EXSTR	33	192	6
NMSI_	33	192	6	96	48	2
EXTAP	33	192	7
EXTAP	34	0	0
EXTAP	34	0	1
NMTAP	34	96	0
NMTAP	34	96	1
NMTAP	34	192	6
NMTAP	34	192	7
NMTAP	34	288	6
NMTAP	34	288	7
EXTAP	35	0	0
EXSTR	35	0	5
NMSI_	35	0	5	96	48	2
EXTAP	35	192	0
EXSTR	35	192	1
NMSI_	35	192	1	96	48	5
EXSTR	36	0	6
NMSI_	36	0	6	96	48	2
EXTAP	36	0	7
EXTAP	36	192	0
EXSTR	36	192	1
NMSI_	36	192	1	96	48	4
NMHLD	37	0	6	96
NMHLD	37	96	4	96
NMHLD	37	192	3	96
NMTAP	37	288	1
NMTAP	38	0	0
NMTAP	38	0	1
NMTAP	38	96	0
NMTAP	38	96	1
BXTAP	38	192	2
BXTAP	38	192	7
NMSTR	39	0	6
NMSI_	39	0	6	96	48	2
NMTAP	39	0	7
NMTAP	39	192	0
NMSTR	39	192	1
NMSI_	39	192	1	96	48	4
NMSTR	40	0	6
NMSI_	40	0	6	96	48	3
NMTAP	40	0	7
NMTAP	40	192	0
NMSTR	40	192	1
NMSI_	40	192	1	96	48	5
NMSTR	41	0	6
NMSI_	41	0	6	96	48	2
NMTAP	41	0	7
NMTAP	41	192	0
NMSTR	41	192	1
NMSI_	41	192	1	96	48	5
NMTAP	42	0	6
NMTAP	42	0	7
NMTAP	42	96	6
NMTAP	42	96	7
NMTAP	42	192	0
NMTAP	42	192	1
NMTAP	42	288	0
NMTAP	42	288	1
NMSTR	43	0	2
NMSI_	43	0	2	96	48	5
NMTAP	43	0	7
NMSTR	43	192	6
NMSI_	43	192	6	96	48	2
NMTAP	43	192	7
NMTAP	44	0	0
NMSTR	44	0	1
NMSCR	44	0	1	96	48	4
NMSTR	44	192	6
NMSI_	44	192	6	96	48	2
NMTAP	44	192	7
NMHLD	45	0	1	96
NMHLD	45	96	3	96
NMHLD	45	192	4	96
NMTAP	45	288	6
NMTAP	46	0	6
NMTAP	46	0	7
NMTAP	46	96	6
NMTAP	46	96	7
BXTAP	46	192	0
BXTAP	46	192	5
NMHLD	47	0	1	72
NMHLD	47	72	2	72
NMTAP	47	144	3
NMHLD	47	192	6	72
NMHLD	47	264	5	72
NMTAP	47	336	4
NMHLD	48	0	2	72
NMHLD	48	72	1	72
NMTAP	48	144	0
NMTAP	48	192	0
EXTAP	48	288	1
EXTAP	48	288	7
NMTAP	49	0	2
NMTAP	49	96	2
NMTAP	49	96	3
NMTAP	49	192	0
NMTAP	49	192	1
NMTAP	49	288	6
NMTAP	49	288	7
NMTAP	50	0	5
NMTAP	50	96	4
NMTAP	50	96	5
NMTAP	50	192	2
NMTAP	50	288	1
NMTAP	50	288	3
NMTAP	51	0	5
NMTAP	51	96	4
NMTAP	51	96	5
NMTAP	51	192	6
NMTAP	51	192	7
NMTAP	51	288	0
NMTAP	51	288	1
NMTAP	52	0	2
NMTAP	52	96	2
NMTAP	52	96	3
NMTAP	52	192	1
NMTAP	52	192	4
NMTAP	52	240	1
NMTAP	52	240	4
NMTAP	52	288	1
NMTAP	52	288	4
NMTAP	53	0	5
NMTAP	53	96	4
NMTAP	53	96	6
NMTAP	53	192	7
NMTAP	53	288	3
NMTAP	53	288	6
NMTAP	54	0	2
NMTAP	54	96	1
NMTAP	54	96	3
NMTAP	54	192	0
NMTAP	54	288	1
NMTAP	54	288	4
NMTAP	55	0	5
NMTAP	55	96	4
NMTAP	55	96	6
NMTAP	55	192	7
NMSTR	55	288	3
NMSCL	55	288	3	96	96	0
NMSTR	55	288	6
NMSCL	55	288	6	96	96	3
EXTAP	56	192	0
EXTAP	56	288	0
NMHLD	57	0	1	192
NMTAP	57	0	7
NMTTP	57	192	1	E	0	M1
NMTTP	57	288	2	E	0	M1
NMTTP	58	0	3	E	0	M1
NMTTP	58	96	4	E	0	M1
NMHLD	58	192	5	192
NMTTP	59	0	7	E	0	M1
NMTTP	59	96	6	E	0	M1
NMTTP	59	192	5	E	0	M1
NMTTP	59	288	4	E	0	M1
NMHLD	60	0	2	192
NMTTP	60	192	3	B	0	M1
NMTTP	60	288	0	C	0	M1
NMTTP	61	0	7	B	0	M1
NMTTP	61	96	7	A	0	M1
NMHLD	61	192	6	192
NMTTP	62	0	0	A	0	M1
NMTTP	62	96	0	B	0	M1
NMTTP	62	192	0	C	0	M1
NMTTP	62	288	4	B	0	M1
NMTHO	63	0	0	576	C	0	M1
EXHLD	65	0	0	72
EXTAP	65	144	1
EXTAP	65	144	7
EXHLD	65	192	1	72
EXHLD	65	192	7	72
EXTAP	65	336	2
EXTAP	65	336	6
EXHLD	66	0	2	72
EXHLD	66	0	6	72
EXTAP	66	144	3
EXTAP	66	144	5
EXTAP	66	192	3
EXTAP	66	192	5
EXTAP	66	288	2
EXTAP	66	288	4
BXSTR	67	0	0
NMSI_	67	0	0	96	48	4
BXSTR	67	0	1
NMSI_	67	0	1	96	48	4
EXSTR	67	192	6
NMSI_	67	192	6	96	48	3
EXSTR	67	192	7
NMSI_	67	192	7	96	48	3
EXSTR	68	0	0
NMSI_	68	0	0	96	48	4
EXSTR	68	0	1
NMSI_	68	0	1	96	48	4
EXSTR	68	192	6
NMSI_	68	192	6	96	48	3
EXSTR	68	192	7
NMSI_	68	192	7	96	48	3
EXSTR	69	0	0
NMSI_	69	0	0	96	48	5
EXSTR	69	0	1
NMSI_	69	0	1	96	48	5
EXSTR	69	192	6
NMSI_	69	192	6	96	48	2
EXSTR	69	192	7
NMSI_	69	192	7	96	48	2
BRTAP	70	0	0
BRTAP	70	0	1
NMTAP	70	96	0
NMTAP	70	96	1
NMTAP	70	192	2
NMTAP	70	192	3
NMTAP	70	288	4
NMTAP	70	288	5
BXSTR	71	0	6
NMSI_	71	0	6	96	48	3
BXSTR	71	0	7
NMSI_	71	0	7	96	48	3
EXSTR	71	192	0
NMSI_	71	192	0	96	48	4
EXSTR	71	192	1
NMSI_	71	192	1	96	48	4
EXSTR	72	0	6
NMSI_	72	0	6	96	48	3
EXSTR	72	0	7
NMSI_	72	0	7	96	48	3
EXSTR	72	192	0
NMSI_	72	192	0	96	48	4
EXSTR	72	192	1
NMSI_	72	192	1	96	48	4
NMHLD	73	0	5	96
NMHLD	73	96	7	96
NMHLD	73	192	0	96
NMTAP	73	288	2
NMTAP	74	0	2
NMTAP	74	0	3
NMTAP	74	96	2
NMTAP	74	96	3
BXTAP	74	192	1
BXTAP	74	192	5
BXSTR	75	0	6
NMSCL	75	0	6	96	48	3
BXSTR	75	0	7
NMSI_	75	0	7	96	48	2
EXSTR	75	192	0
NMSI_	75	192	0	96	48	5
EXSTR	75	192	1
NMSCR	75	192	1	96	48	4
EXSTR	76	0	6
NMSCL	76	0	6	96	48	3
EXSTR	76	0	7
NMSI_	76	0	7	96	48	2
EXSTR	76	192	0
NMSI_	76	192	0	96	48	5
EXSTR	76	192	1
NMSCR	76	192	1	96	48	4
EXSTR	77	0	6
NMSI_	77	0	6	96	48	2
EXSTR	77	0	7
NMSCR	77	0	7	96	48	2
EXSTR	77	192	0
NMSCL	77	192	0	96	48	5
EXSTR	77	192	1
NMSI_	77	192	1	96	48	5
NMTAP	78	0	6
NMTAP	78	0	7
NMTAP	78	96	6
NMTAP	78	96	7
NMTAP	78	192	0
NMTAP	78	192	5
NMTAP	78	288	2
NMTAP	78	288	3
EXSTR	79	0	0
NMSCL	79	0	0	96	48	5
EXSTR	79	0	1
NMSI_	79	0	1	96	48	4
EXSTR	79	192	6
NMSCL	79	192	6	96	48	3
EXSTR	79	192	7
NMSI_	79	192	7	96	48	2
EXSTR	80	0	0
NMSI_	80	0	0	96	48	5
EXSTR	80	0	1
NMSCR	80	0	1	96	48	4
EXSTR	80	192	6
NMSCL	80	192	6	96	48	3
EXSTR	80	192	7
NMSI_	80	192	7	96	48	2
NMHLD	81	0	1	96
NMHLD	81	96	3	96
NMHLD	81	192	4	96
NMTAP	81	288	6
EXSTR	82	0	6
NMSUL	82	0	6	96	48	2
EXSTR	82	0	7
NMSCR	82	0	7	96	48	2
BXTAP	82	192	0
BXTAP	82	192	4
NMHLD	83	0	1	72
NMHLD	83	72	2	72
NMTAP	83	144	3
NMHLD	83	192	6	72
NMHLD	83	264	5	72
NMTAP	83	336	4
NMHLD	84	0	2	72
NMHLD	84	72	1	72
NMTAP	84	144	0
NMTAP	84	192	0
EXTAP	84	288	1
EXTAP	84	288	7
NMSTR	85	0	2
NMSI_	85	0	2	96	48	5
NMTAP	85	192	6
NMTAP	85	288	6
NMTAP	85	288	7
NMSTR	86	0	5
NMSI_	86	0	5	96	48	2
NMTAP	86	192	1
NMTAP	86	288	0
NMTAP	86	288	1
NMHLD	87	0	2	96
NMTAP	87	0	7
NMHLD	87	96	3	96
NMHLD	87	192	4	96
NMTAP	87	288	5
NMTAP	88	0	3
NMHLD	88	0	6	96
NMHLD	88	96	5	96
NMTAP	88	192	4
NMTAP	88	288	3
NMTAP	88	288	4
NMSTR	89	0	1
NMSI_	89	0	1	96	48	6
NMTAP	89	192	5
NMTAP	89	288	4
NMTAP	89	288	5
NMSTR	90	0	6
NMSI_	90	0	6	96	48	1
NMTAP	90	192	2
NMTAP	90	288	2
NMTAP	90	288	3
NMHLD	91	0	1	96
NMTAP	91	0	4
NMHLD	91	96	3	96
NMHLD	91	192	4	96
NMTAP	91	288	6
NMTAP	92	0	0
NMTAP	92	0	7
NMTAP	92	96	1
NMTAP	92	96	3
NMTAP	92	192	3
NMTAP	92	192	4
NMTAP	92	288	3
NMTAP	92	288	4
EXTAP	93	0	5
EXTAP	93	24	4
EXTAP	93	48	5
EXTAP	93	72	4
EXTAP	93	144	2
EXTAP	93	168	3
EXTAP	93	192	2
EXTAP	93	216	3
BXTAP	93	288	0
BXTAP	93	288	5

T_REC_TAP	237
T_REC_BRK	2
T_REC_XTP	43
T_REC_BXX	11
T_REC_HLD	42
T_REC_XHO	12
T_REC_BHO	0
T_REC_BXH	0
T_REC_STR	22
T_REC_BST	0
T_REC_XST	45
T_REC_XBS	7
T_REC_TTP	26
T_REC_THO	1
T_REC_SLD	74
T_REC_BSL	0
T_REC_ALL	522
T_NUM_TAP	373
T_NUM_BRK	20
T_NUM_HLD	55
T_NUM_SLD	74
T_NUM_ALL	522
T_JUDGE_TAP	393
T_JUDGE_HLD	175
T_JUDGE_SLD	74
T_JUDGE_ALL	642
TTM_EACHPAIRS	142
TTM_SCR_TAP	186500
TTM_SCR_BRK	52000
TTM_SCR_HLD	55000
TTM_SCR_SLD	111000
TTM_SCR_ALL	404500
TTM_SCR_S	390450
TTM_SCR_SS	402500
TTM_RAT_ACV	10049

