VERSION	0.00.00	1.04.00
FES_MODE	0
BPM_DEF	200.000	200.000	200.000	200.000
MET_DEF	4	4
RESOLUTION	384
CLK_DEF	384
COMPATIBLE_CODE	MA2

BPM	0	0	200.000
MET	0	0	4	4

NMHLD	2	0	2	96
NMTAP	2	96	4
NMHLD	2	144	2	96
NMTAP	2	240	3
NMSTR	2	288	2
NMSXR	2	288	2	96	192	2
NMTAP	3	0	3
NMTAP	3	288	4
NMTAP	3	312	3
NMTAP	3	336	4
NMTAP	3	360	3
NMHLD	4	0	5	96
NMTAP	4	96	3
NMHLD	4	144	5	96
NMTAP	4	240	4
NMSTR	4	288	5
NMSUL	4	288	5	96	192	3
EXTAP	5	0	3
NMTAP	5	240	2
NMTAP	5	288	2
NMTAP	6	0	3
NMHLD	6	0	5	96
NMTAP	6	96	3
NMHLD	6	144	4	96
NMTAP	6	144	6
NMTAP	6	240	6
NMTAP	6	288	6
NMHLD	7	0	2	96
NMTAP	7	0	4
NMTAP	7	96	4
NMTAP	7	144	1
NMHLD	7	144	3	96
NMTAP	7	240	1
NMTAP	7	288	0
NMTAP	7	288	4
NMTTP	8	0	6	E	0	M1
NMTTP	8	48	5	E	0	M1
NMTTP	8	96	3	E	0	M1
NMTTP	8	144	2	E	0	M1
NMTTP	8	240	5	B	0	M1
NMTTP	8	288	4	E	0	M1
NMTTP	8	336	2	B	0	M1
NMTAP	9	48	0
NMTAP	9	144	1
NMTAP	9	144	6
NMTAP	9	240	2
NMTAP	9	240	5
NMTAP	9	288	2
NMSTR	9	288	5
NMSLL	9	288	5	96	288	0
NMHLD	10	0	3	288
NMHLD	11	0	7	96
NMHLD	11	144	0	96
NMHLD	11	144	6	96
NMSTR	11	288	1
NMSLR	11	288	1	96	288	7
NMTAP	11	288	5
NMHLD	12	0	3	288
NMHLD	13	0	0	96
NMHLD	13	144	1	96
NMHLD	13	144	7	96
NMTAP	13	288	2
NMTAP	13	288	6
NMTAP	14	0	3
NMTAP	14	0	5
NMTAP	14	48	4
NMTAP	14	96	3
NMTAP	14	144	2
NMTAP	14	144	6
NMTAP	14	192	5
NMTAP	14	240	4
NMTAP	14	288	1
NMTAP	14	288	3
NMTAP	14	336	1
NMTAP	15	0	3
NMTAP	15	48	4
NMHLD	15	96	1	48
NMTAP	15	96	5
NMTTP	15	192	4	E	0	M1
NMTTP	15	216	4	B	0	M1
NMTTP	15	240	5	B	0	M1
NMTTP	15	264	6	E	0	M1
NMTTP	15	288	2	E	0	M1
NMTTP	15	312	2	B	0	M1
NMTTP	15	336	3	B	0	M1
NMTTP	15	360	4	E	0	M1
NMSTR	16	0	6
NMSI_	16	0	6	96	48	3
NMTAP	16	96	0
NMSTR	16	144	1
NMSI_	16	144	1	96	48	4
NMTAP	16	240	4
NMTAP	16	288	5
NMHLD	16	336	6	96
NMSTR	17	48	7
BRSF_	17	48	7	96	48	3
NMTTP	17	144	7	B	1	M1
NMTTP	17	168	0	C	0	M1
NMTTP	17	180	3	B	0	M1
EXTAP	17	288	1
EXTAP	17	288	5
NMSTR	18	0	2
NMSI_	18	0	2	96	48	4
NMTAP	18	96	4
NMTAP	18	144	5
NMSTR	18	192	6
NMSI_	18	192	6	96	48	2
NMSTR	18	288	0
NMSLR	18	288	0	96	96	7
NMTAP	19	0	3
NMSTR	19	96	5
NMSI_	19	96	5	96	48	2
NMTAP	19	192	0
NMTAP	19	288	0
NMTAP	19	288	1
NMTAP	20	0	2
NMSTR	20	0	7
NMSI_	20	0	7	96	48	3
NMTAP	20	96	3
NMTAP	20	144	2
NMSTR	20	192	1
NMSI_	20	192	1	96	48	4
NMSTR	20	288	6
NMSLL	20	288	6	96	96	0
NMTAP	21	0	3
NMTAP	21	96	1
NMTAP	21	192	3
NMTAP	21	192	7
NMSTR	21	288	2
NMSI_	21	288	2	96	48	4
NMSTR	21	288	6
NMSI_	21	288	6	96	48	4
NMSTR	22	96	2
NMSI_	22	96	2	96	48	6
NMTAP	22	96	6
NMSTR	22	192	7
NMSI_	22	192	7	96	48	1
NMSTR	22	288	3
NMSI_	22	288	3	96	48	5
NMSTR	23	0	6
NMSI_	23	0	6	96	48	2
NMSTR	23	96	1
NMSI_	23	96	1	96	48	7
NMSTR	23	192	5
NMSI_	23	192	5	96	48	3
NMTAP	23	288	2
NMTAP	23	336	1
NMHLD	24	0	0	96
NMHLD	24	96	6	96
NMHLD	24	192	4	96
NMSTR	24	288	2
NMSCL	24	288	2	96	384	4
NMTAP	26	0	3
NMTAP	26	96	3
NMTAP	26	192	3
NMTAP	26	288	2
NMTAP	26	288	4
NMTAP	26	336	2
NMTAP	27	0	2
NMTAP	27	0	4
NMTAP	27	96	4
NMTAP	27	192	4
NMTAP	27	288	4
NMTAP	27	312	3
NMTAP	27	336	4
NMTAP	27	360	3
NMHLD	28	0	5	384
NMTAP	28	96	4
NMTAP	28	192	4
NMTAP	28	288	3
NMTAP	28	336	3
NMHLD	29	0	2	192
NMTAP	29	96	5
NMTAP	29	192	5
NMTAP	29	288	4
NMTAP	29	312	3
NMTAP	29	336	4
NMTAP	29	360	3
NMTAP	30	0	5
NMTAP	30	48	5
NMTAP	30	96	6
NMTAP	30	144	6
NMTAP	30	192	7
NMTAP	30	240	7
NMTAP	30	288	0
NMTAP	30	336	0
NMTAP	31	0	1
NMTAP	31	48	1
NMTAP	31	96	2
NMTAP	31	144	2
NMTAP	31	192	3
NMTAP	31	240	3
NMTAP	31	288	3
NMTAP	31	312	4
NMTAP	31	336	3
NMTAP	31	360	4
BXTAP	32	0	2
EXTAP	32	0	5
BXTAP	32	64	1
EXTAP	32	64	3
BXTAP	32	128	0
EXTAP	32	128	7
BXTAP	32	192	4
EXTAP	32	192	6
BXTAP	32	256	3
EXTAP	32	256	4
EXTAP	32	320	1
BXTAP	32	320	3
EXTAP	33	0	0
BXTAP	33	0	1
EXTAP	33	64	2
BXTAP	33	64	4
EXTAP	33	128	3
BXTAP	33	128	5
BXTAP	33	192	6
BXTAP	33	192	7
BXTAP	33	256	3
BXTAP	33	256	4
BXTAP	33	320	0
BXTAP	33	320	1
NMHLD	34	0	2	48
NMTAP	34	0	7
NMHLD	34	96	2	48
NMTAP	34	96	7
NMTAP	34	144	6
NMHLD	34	192	2	48
NMSTR	34	192	5
NMSI_	34	192	5	96	48	0
NMHLD	34	288	2	48
NMSTR	35	0	1
NMSCL	35	0	1	96	48	6
NMHLD	35	0	3	48
NMHLD	35	96	3	48
EXTAP	35	192	4
NMTAP	35	240	4
NMTAP	35	288	3
NMTAP	35	288	5
NMTAP	35	336	2
NMTAP	35	336	4
NMHLD	36	0	1	48
NMTAP	36	0	3
NMHLD	36	96	1	48
NMTAP	36	96	3
NMTAP	36	144	4
NMHLD	36	192	1	48
NMSTR	36	192	5
NMSI_	36	192	5	96	48	2
NMHLD	36	288	1	48
NMTAP	37	0	0
NMTAP	37	48	0
NMTAP	37	96	1
NMTAP	37	96	7
NMTAP	37	144	2
NMTAP	37	144	6
NMTAP	37	192	3
NMTAP	37	192	5
NMTAP	37	240	2
NMTAP	37	240	4
NMTAP	37	288	3
NMTAP	37	288	5
BXTAP	37	336	4
BXTAP	37	336	6
NMTAP	38	0	3
NMHLD	38	0	7	48
NMTAP	38	96	3
NMHLD	38	96	7	48
NMTAP	38	144	2
NMSTR	38	192	1
NMSI_	38	192	1	96	48	5
NMHLD	38	192	7	48
EXHLD	38	288	7	48
EXSTR	39	0	4
NMSI_	39	0	4	96	48	0
NMHLD	39	0	6	48
NMHLD	39	96	6	48
NMTAP	39	192	1
NMTAP	39	192	5
NMTAP	39	240	1
NMTAP	39	240	5
BXTAP	39	288	2
BXTAP	39	288	4
BXTAP	39	336	3
BXTAP	39	336	5
NMTAP	40	0	4
NMHLD	40	0	6	48
NMTAP	40	96	4
NMHLD	40	96	6	48
NMTAP	40	144	3
NMTAP	40	192	2
NMHLD	40	192	6	48
NMHLD	40	288	0	288
NMSTR	40	288	6
NMSLL	40	288	6	96	96	2
CNSLL	41	96	2	0	96	5
EXTAP	41	288	1
EXTAP	41	288	4
NMTAP	42	0	2
NMHLD	42	0	3	288
NMTAP	42	96	2
NMTAP	42	192	2
NMSTR	42	288	2
NMSCL	42	288	2	96	96	7
NMTAP	43	0	3
NMTAP	43	96	3
NMTAP	43	192	3
NMTAP	43	192	7
NMTAP	43	240	0
NMTAP	43	288	1
NMTAP	43	288	4
NMTAP	43	336	2
NMTAP	44	0	3
NMTAP	44	0	5
NMSTR	44	96	4
NMSUL	44	96	4	96	96	7
NMTAP	44	96	6
NMTAP	44	192	6
NMTAP	44	288	6
NMTAP	45	0	6
NMTAP	45	0	7
NMTAP	45	48	0
NMTAP	45	96	1
NMTAP	45	96	6
NMTAP	45	144	2
NMTAP	45	192	3
NMTAP	45	192	5
NMTAP	45	240	4
NMTAP	45	288	1
NMTAP	45	288	5
BXTAP	45	336	6
NMSTR	46	0	0
NMSUR	46	0	0	96	96	4
NMTAP	46	96	7
NMTAP	46	192	7
NMSTR	46	288	7
NMSI_	46	288	7	96	96	5
NMTAP	47	0	4
NMTAP	47	96	3
CNSI_	47	96	5	0	96	0
CNSI_	47	192	0	0	96	4
NMTAP	47	192	2
EXTAP	47	288	1
EXTAP	47	336	1
NMTAP	48	0	2
NMTAP	48	48	3
NMTAP	48	96	4
NMTAP	48	144	5
NMTAP	48	192	1
NMTAP	48	192	6
NMTAP	48	240	1
NMTAP	48	240	6
NMSTR	48	288	0
NMSSL	48	288	0	96	192	4
NMTAP	48	312	7
NMTAP	48	336	0
NMTAP	48	360	7
NMTAP	49	0	0
EXTAP	49	240	6
EXSTR	49	288	3
NMSXR	49	288	3	96	288	0
EXSTR	49	288	6
NMSI_	49	288	6	96	48	4
BXTAP	50	0	6
BRTAP	50	192	7
NMSTR	50	288	6
NMSUL	50	288	6	96	96	0
NMSTR	51	0	0
NMSUR	51	0	0	96	96	6
EXTAP	51	192	7
NMSTR	51	288	0
NMSI_	51	288	0	96	48	2
NMSTR	51	288	6
NMSXR	51	288	6	96	288	3
BXTAP	52	0	0
BRTAP	52	192	7
NMTAP	52	288	0
NMHLD	53	0	1	96
NMHLD	53	0	5	96
NMHLD	53	144	2	96
NMHLD	53	144	6	96
NMSTR	53	288	1
NMSI_	53	288	1	96	48	4
NMSTR	53	288	5
NMSXL	53	288	5	96	288	3
NMTTP	54	0	1	A	1	M1
BRTAP	54	192	0
NMSTR	54	288	1
NMSUL	54	288	1	96	96	3
NMSTR	55	0	3
NMSUR	55	0	3	96	96	1
EXTAP	55	192	7
NMSTR	55	288	0
NMSXL	55	288	0	96	288	4
NMSTR	55	288	6
NMSI_	55	288	6	96	48	3
NMTTP	56	0	6	A	1	M1
BRTAP	56	192	7
NMTAP	56	288	6
NMHLD	57	0	2	96
NMHLD	57	0	5	96
NMSTR	57	144	2
NMSI_	57	144	2	96	48	0
NMSTR	57	144	5
NMSI_	57	144	5	96	48	7
EXTAP	57	240	2
EXTAP	57	240	5
NMHLD	58	0	1	96
NMTAP	58	0	6
NMTAP	58	96	3
NMTAP	58	144	3
NMTTP	58	192	2	E	0	M1
NMTTP	58	240	4	E	0	M1
NMTTP	58	288	3	E	0	M1
NMTTP	58	336	5	E	0	M1
NMTAP	59	0	7
NMTAP	59	48	0
NMHLD	59	96	1	288
NMTTP	59	192	0	C	0	M1
NMHLD	60	0	7	96
NMTAP	60	96	4
NMTAP	60	144	4
NMTTP	60	192	6	E	0	M1
NMTTP	60	240	4	E	0	M1
NMTTP	60	288	5	E	0	M1
NMTTP	60	336	3	E	0	M1
NMTAP	61	0	0
NMTAP	61	48	7
NMHLD	61	96	6	144
NMSTR	61	144	0
NMSI_	61	144	0	96	48	4
NMHLD	62	0	3	144
NMSTR	62	0	5
NMSCL	62	0	5	96	192	0
EXTAP	62	288	3
NMSTR	63	0	2
NMSCR	63	0	2	96	192	7
NMHLD	63	0	4	144
EXTAP	63	288	4
NMTAP	64	0	0
NMHLD	64	0	5	96
NMTAP	64	96	0
NMHLD	64	144	1	96
NMTAP	64	144	6
NMTAP	64	240	6
NMTAP	64	288	2
NMHLD	64	288	7	96
NMTAP	65	0	2
NMHLD	65	48	1	96
NMTAP	65	48	6
NMTAP	65	144	6
NMTAP	65	192	2
NMTAP	65	192	5
NMTAP	65	288	2
NMTAP	65	288	5
BRTAP	66	0	3
BRTAP	66	0	4
NMSTR	66	96	2
NMSCL	66	96	2	96	96	7
NMTTP	66	240	1	D	0	M1
NMSTR	66	240	6
NMSCL	66	240	6	96	96	3
NMSTR	67	0	2
NMSCL	67	0	2	96	96	7
NMTTP	67	0	5	D	0	M1
NMTTP	67	144	1	D	0	M1
NMSTR	67	144	6
NMSCL	67	144	6	96	96	3
NMTAP	67	288	2
NMTTP	67	288	5	D	0	M1
NMTAP	68	0	1
NMSTR	68	96	1
NMSCR	68	96	1	96	96	4
NMTAP	68	96	4
NMTTP	68	240	3	D	0	M1
NMSTR	68	240	5
NMSCR	68	240	5	96	96	0
NMSTR	69	0	1
NMSCR	69	0	1	96	96	4
NMTTP	69	0	7	D	0	M1
NMTTP	69	144	3	D	0	M1
NMSTR	69	144	5
NMSCR	69	144	5	96	96	0
NMTAP	69	288	1
NMTTP	69	288	7	D	0	M1
NMTAP	70	0	2
NMSTR	70	96	2
NMSCR	70	96	2	96	96	5
NMTAP	70	96	6
NMTTP	70	240	4	D	0	M1
NMSTR	70	240	6
NMSCR	70	240	6	96	96	1
NMTTP	71	0	0	D	0	M1
NMSTR	71	0	2
NMSCR	71	0	2	96	96	5
NMTTP	71	144	4	D	0	M1
NMSTR	71	144	6
NMSCR	71	144	6	96	96	1
NMTTP	71	288	0	D	0	M1
NMTAP	71	288	2
NMTAP	72	0	2
NMHLD	72	96	2	96
NMHLD	72	96	7	96
NMHLD	72	240	1	96
NMHLD	72	240	5	96
BXHLD	73	0	2	96
BXHLD	73	0	4	96
NMTTP	73	144	2	B	0	M1
NMTTP	73	144	2	E	0	M1
NMTTP	73	144	4	B	0	M1
NMTTP	73	144	5	E	0	M1
NMTAP	73	240	7
NMHLD	73	288	7	96
NMSTR	74	0	0
NMSCR	74	0	0	96	96	3
BRSTR	74	96	3
NMSCR	74	96	3	96	96	6
NMSTR	74	192	6
NMSCR	74	192	6	96	96	1
NMTTP	74	240	5	D	1	M1
NMSTR	74	288	1
NMSCR	74	288	1	96	96	4
NMTTP	75	0	1	A	1	M1
NMSTR	75	0	4
NMSCR	75	0	4	96	96	7
NMSTR	75	96	7
NMSCR	75	96	7	96	96	2
NMTTP	75	144	6	D	1	M1
NMTAP	75	192	2
BRTAP	75	288	4
NMTAP	76	0	2
NMSTR	76	0	6
NMSCL	76	0	6	96	96	3
BRSTR	76	96	3
NMSCL	76	96	3	96	96	0
NMSTR	76	192	0
NMSCL	76	192	0	96	96	5
NMTTP	76	240	2	D	1	M1
NMSTR	76	288	5
NMSCL	76	288	5	96	96	2
BRSTR	77	0	2
NMSCL	77	0	2	96	96	7
NMTTP	77	0	5	A	1	M1
NMSTR	77	96	7
NMSCL	77	96	7	96	96	4
NMTTP	77	144	1	D	1	M1
NMTAP	77	192	4
BRTAP	77	288	3
NMSTR	78	0	2
BRSCR	78	0	2	96	96	5
BRSTR	78	96	5
BRSCR	78	96	5	96	96	0
NMSTR	78	192	0
BRSCR	78	192	0	96	96	3
NMTTP	78	240	7	D	1	M1
NMSTR	78	288	3
BRSCR	78	288	3	96	96	6
NMTTP	79	0	3	A	1	M1
BRSTR	79	0	6
BRSCR	79	0	6	96	96	1
NMSTR	79	96	1
BRSCR	79	96	1	96	96	4
NMTTP	79	144	0	D	1	M1
NMTAP	79	192	4
BRTAP	79	288	6
NMSTR	80	0	0
BRSCL	80	0	0	96	96	5
NMTAP	80	0	1
BRSTR	80	96	5
BRSCL	80	96	5	96	96	2
NMSTR	80	192	2
BRSCL	80	192	2	96	96	7
NMTTP	80	240	4	D	1	M1
NMSTR	80	288	7
BRSCL	80	288	7	96	96	4
BRSTR	81	0	4
BRSCL	81	0	4	96	96	1
NMTTP	81	0	7	A	1	M1
NMSTR	81	96	1
BRSCL	81	96	1	96	96	6
NMTTP	81	144	3	D	1	M1
NMTAP	81	192	6
BRTAP	81	288	4
NMTAP	82	0	4
NMHLD	82	0	5	192
NMTAP	82	192	3
NMTAP	82	288	3
NMTAP	83	0	2
NMTAP	83	0	4
NMTAP	83	96	2
NMTAP	83	96	4
NMTAP	83	192	1
NMTAP	83	192	5
NMTAP	83	288	6
NMTAP	83	336	6
NMTAP	84	0	4
NMTAP	84	0	6
NMTAP	84	96	5
NMTAP	84	192	3
NMTAP	84	192	5
NMTAP	84	288	2
NMTAP	84	288	4
NMTAP	84	336	2
NMTAP	85	0	2
NMTAP	85	0	4
NMTTP	85	96	2	D	0	M1
NMTTP	85	192	3	D	0	M1
NMTTP	85	288	4	D	0	M1
NMTAP	86	0	4
NMTAP	86	0	5
NMTAP	86	48	4
NMTAP	86	48	5
NMTAP	86	96	3
NMTAP	86	96	6
NMTAP	86	144	3
NMTAP	86	144	6
NMTAP	86	192	2
NMTAP	86	192	7
NMTAP	86	240	2
NMTAP	86	240	7
NMTAP	86	288	0
NMTAP	86	288	1
NMTAP	86	336	0
NMTAP	86	336	1
NMTAP	87	0	6
NMTAP	87	0	7
NMTAP	87	48	6
NMTAP	87	48	7
NMTAP	87	96	0
NMTAP	87	96	5
NMTAP	87	144	0
NMTAP	87	144	5
NMTAP	87	192	1
NMTAP	87	192	4
NMTAP	87	240	1
NMTAP	87	240	4
NMTAP	87	288	2
NMTAP	87	288	3
NMTAP	87	336	2
NMTAP	87	336	3
NMTAP	88	0	4
NMTAP	88	24	3
NMTAP	88	48	4
NMTAP	88	72	3
NMTAP	88	96	5
NMTAP	88	120	2
NMTAP	88	144	4
NMTAP	88	168	3
NMTAP	88	192	6
NMTAP	88	216	1
NMTAP	88	240	5
NMTAP	88	264	2
NMTAP	88	288	7
NMTAP	88	312	0
NMTAP	88	336	7
NMTAP	88	360	0
BRTAP	89	0	1
BRTAP	89	0	6
NMTAP	89	96	2
NMTAP	89	96	3
NMTAP	89	144	1
NMTAP	89	144	5
NMTAP	89	240	3
NMTAP	89	240	7
BRTAP	89	288	2
BRTAP	89	288	6
NMSTR	90	0	1
NMSI_	90	0	1	96	48	5
NMSTR	90	48	0
NMSI_	90	48	0	96	48	4
NMTAP	90	96	1
NMTAP	90	144	0
BRTAP	90	192	2
NMTAP	90	216	3
EXTAP	90	240	4
NMTAP	90	264	5
EXTAP	90	288	6
NMTAP	90	312	7
EXSTR	90	336	0
NMSI_	90	336	0	96	48	5
NMSTR	91	0	5
NMSI_	91	0	5	96	48	3
NMTAP	91	48	0
EXSTR	91	96	7
NMSCR	91	96	7	96	48	2
NMSTR	91	192	4
NMSLL	91	192	4	96	96	7
NMTAP	91	192	7
NMTAP	91	288	0
NMTAP	91	336	6
NMTAP	92	48	3
NMTAP	92	96	0
NMTAP	92	144	0
NMTAP	92	192	1
NMTAP	92	192	7
NMTAP	92	240	2
NMTAP	92	288	3
NMTAP	92	288	4
NMTAP	92	336	5
NMTAP	93	0	6
NMTAP	93	48	0
NMTAP	93	48	1
NMHLD	93	96	2	96
NMTAP	93	96	7
NMTAP	93	192	6
NMTAP	93	216	5
NMTAP	93	240	4
NMTAP	93	264	3
NMTAP	93	288	7
NMTAP	93	312	0
NMTAP	93	336	1
NMTAP	93	360	2
NMSTR	94	0	5
NMSI_	94	0	5	96	48	0
NMTAP	94	48	5
NMSTR	94	96	1
NMSI_	94	96	1	96	48	4
NMTAP	94	144	1
NMTAP	94	192	7
CNSLL	94	240	4	0	96	7
NMTAP	94	240	6
NMTAP	94	288	5
NMHLD	94	336	4	144
EXSTR	95	48	7
NMSI_	95	48	7	96	48	3
EXTAP	95	96	7
BRSTR	95	144	7
BRSI_	95	144	7	96	48	4
BRSI_	95	144	7	96	48	5
BRSTR	95	240	7
BRSI_	95	240	7	96	48	1
BRSI_	95	240	7	96	48	2
BRTAP	95	336	7
NMTAP	96	96	0
NMTAP	96	96	4
NMTAP	96	144	0
NMTAP	96	192	1
NMTAP	96	216	3
NMTAP	96	240	1
NMTAP	96	264	3
NMTAP	96	288	2
NMTAP	96	312	4
NMTAP	96	336	2
NMTAP	96	360	4
NMTTP	97	48	0	C	1	M1
BRTAP	97	48	5
NMTTP	97	144	0	C	1	M1
BRTAP	97	144	1
NMTTP	97	240	0	C	1	M1
BRTAP	97	240	7
BRTAP	97	336	1
BRHLD	97	336	5	96
NMSTR	98	48	7
NMSI_	98	48	7	96	48	3
NMTAP	98	96	6
NMTAP	98	144	7
BRTAP	98	192	5
NMTAP	98	216	4
EXTAP	98	240	3
NMTAP	98	264	2
EXTAP	98	288	1
NMTAP	98	312	0
EXSTR	98	336	7
NMSI_	98	336	7	96	48	2
NMSTR	99	0	2
NMSI_	99	0	2	96	48	4
NMTAP	99	48	7
EXSTR	99	96	0
NMSCL	99	96	0	96	48	5
NMTAP	99	192	0
NMSTR	99	192	3
NMSLR	99	192	3	96	96	0
NMTAP	99	288	7
NMTAP	99	336	1
NMTAP	100	48	2
NMTAP	100	96	2
NMTAP	100	144	7
NMTAP	100	192	0
NMTAP	100	192	6
NMTAP	100	240	5
NMTAP	100	288	3
NMTAP	100	288	4
NMTAP	100	336	2
NMTAP	100	336	3
NMTAP	101	0	1
NMTAP	101	48	6
NMTAP	101	48	7
NMTAP	101	96	0
NMHLD	101	96	5	96
NMTAP	101	192	1
NMTAP	101	216	2
NMTAP	101	240	3
NMTAP	101	264	4
NMTAP	101	288	0
NMTAP	101	312	7
NMTAP	101	336	6
NMTAP	101	360	5
NMSTR	102	0	1
NMSCR	102	0	1	96	48	4
NMSTR	102	48	0
NMSCL	102	48	0	96	48	5
NMTAP	102	96	1
NMTAP	102	144	0
NMTTP	102	192	2	B	0	M1
NMTTP	102	192	2	E	0	M1
NMTTP	102	192	2	A	0	M1
NMTTP	102	240	6	B	0	M1
NMTTP	102	240	6	E	0	M1
NMTTP	102	240	6	A	0	M1
NMTTP	102	288	4	B	0	M1
NMTTP	102	288	4	E	0	M1
NMTTP	102	288	4	A	0	M1
NMTHO	102	336	0	96	C	0	M1
EXSTR	103	48	0
NMSI_	103	48	0	96	48	4
EXTAP	103	96	0
BRSTR	103	144	0
NMSCL	103	144	0	96	48	6
NMSCR	103	144	0	96	48	2
BRSTR	103	240	0
BRSF_	103	240	0	96	48	4
BRTAP	103	336	0
NMTAP	104	96	3
NMTAP	104	96	7
NMTAP	104	144	3
NMTAP	104	144	7
NMTAP	104	192	6
NMTAP	104	216	4
NMTAP	104	240	6
NMTAP	104	264	4
NMTAP	104	288	5
NMTAP	104	312	3
NMTAP	104	336	5
NMTAP	104	360	3
NMTAP	105	48	2
NMTAP	105	48	6
NMTAP	105	96	2
NMTAP	105	96	6
NMTAP	105	144	2
NMTAP	105	144	6
BXTAP	105	192	1
BXTAP	105	192	5
NMTAP	105	288	0
NMTAP	105	312	7
NMTAP	105	336	0
NMTAP	105	360	7
BRTAP	106	0	0
NMTAP	106	24	7
NMTAP	106	48	1
NMTAP	106	72	6
NMTAP	106	96	2
NMTAP	106	120	5
NMTAP	106	144	3
NMTAP	106	168	4
BRTAP	106	192	2
NMTAP	106	216	3
NMTAP	106	240	1
NMTAP	106	264	4
NMTAP	106	288	0
NMTAP	106	312	5
NMTAP	106	336	7
NMTAP	106	360	6
BRTAP	107	0	0
NMTAP	107	24	1
NMTAP	107	48	2
NMTAP	107	72	3
BRTAP	107	96	7
NMTAP	107	120	0
NMTAP	107	144	1
NMTAP	107	168	2
BRTAP	107	192	6
NMTAP	107	216	7
NMTAP	107	240	0
NMTAP	107	264	1
NMTAP	107	288	2
BRTAP	107	288	5
BRTAP	108	0	4
NMTAP	108	24	3
NMTAP	108	48	5
NMTAP	108	72	2
NMTAP	108	96	6
NMTAP	108	120	1
NMTAP	108	144	7
NMTAP	108	168	0
BRTAP	108	192	6
NMTAP	108	216	7
NMTAP	108	240	5
NMTAP	108	264	0
NMTAP	108	288	4
NMTAP	108	312	1
NMTAP	108	336	3
NMTAP	108	360	2
BRTAP	109	0	4
NMTAP	109	24	5
NMTAP	109	48	6
NMTAP	109	72	7
BRTAP	109	96	3
NMTAP	109	120	4
NMTAP	109	144	5
NMTAP	109	168	6
BRTAP	109	192	2
NMTAP	109	216	3
NMTAP	109	240	4
NMTAP	109	264	5
BRTAP	109	288	1
NMTAP	109	288	6
NMSTR	110	0	2
NMSI_	110	0	2	96	48	7
NMTAP	110	48	2
NMSTR	110	96	6
NMSI_	110	96	6	96	48	3
NMTAP	110	144	6
NMTAP	110	192	0
NMTAP	110	240	1
CNSLR	110	240	3	0	96	0
NMTAP	110	288	2
NMHLD	110	336	3	96
NMTAP	111	48	2
NMSTR	111	96	2
NMSI_	111	96	2	96	48	6
NMTAP	111	192	0
NMSTR	111	240	0
BRSF_	111	240	0	96	48	4
BRTAP	111	336	0
NMTAP	112	96	2
NMTAP	112	96	5
NMTAP	112	144	2
NMTAP	112	144	5
NMTAP	112	192	3
NMTAP	112	216	4
NMTAP	112	240	2
NMTAP	112	264	3
NMTAP	112	288	1
NMTAP	112	336	0
NMTAP	112	336	4
NMTAP	113	0	1
NMTAP	113	0	5
NMTAP	113	48	1
NMTAP	113	48	5
NMTAP	113	96	2
NMTAP	113	96	6
NMTAP	113	144	2
NMTAP	113	144	6
NMTAP	113	192	3
NMTAP	113	192	7
NMTAP	113	216	2
NMTAP	113	216	6
BRTAP	113	240	1
BRTAP	113	240	5
NMSTR	113	336	0
BRSCR	113	336	0	96	96	4
NMSTR	114	48	4
NMSCR	114	48	4	96	96	0
NMSTR	114	144	0
BRSCR	114	144	0	96	96	4
NMSTR	114	240	4
NMSCR	114	240	4	96	96	0
NMSTR	114	336	0
BRSCR	114	336	0	96	96	4
NMSTR	115	48	4
NMSCR	115	48	4	96	96	0
NMSTR	115	144	0
BRSCR	115	144	0	96	96	4
NMSTR	115	240	4
NMSI_	115	240	4	96	48	2
BRTAP	115	336	0
CNSI_	116	0	2	0	48	0
CNSCL	116	48	0	0	48	6
BRSTR	116	48	4
BRSCL	116	48	4	96	96	0
CNSCL	116	96	6	0	48	4
BRSTR	116	144	0
NMSCL	116	144	0	96	96	4
BRSTR	116	240	4
BRSCL	116	240	4	96	96	0
BRSTR	116	336	0
NMSCL	116	336	0	96	96	4
BRSTR	117	48	4
BRSCL	117	48	4	96	96	0
BRTAP	117	144	0
NMTAP	117	240	7
NMTAP	117	288	7
NMTAP	117	336	0
NMSTR	118	0	1
NMSV_	118	0	1	96	96	7
NMSTR	118	0	7
NMSV_	118	0	7	96	96	1
NMSTR	118	96	1
NMSCR	118	96	1	96	24	2
NMSTR	118	96	7
NMSCL	118	96	7	96	24	6
NMTTP	118	192	2	A	0	M1
NMTTP	118	192	6	A	1	M1
CNSI_	118	216	2	0	24	4
CNSI_	118	216	6	0	24	4
NMSTR	118	336	0
NMSV_	118	336	0	96	96	6
NMSTR	118	336	6
NMSV_	118	336	6	96	96	0
NMSTR	119	48	0
NMSCR	119	48	0	96	24	1
NMSTR	119	48	6
NMSCL	119	48	6	96	24	5
NMTTP	119	144	1	A	1	M1
NMTTP	119	144	5	A	0	M1
CNSI_	119	168	1	0	24	3
CNSI_	119	168	5	0	24	3
BXTAP	119	336	1
BXTAP	119	336	7
BXTAP	119	342	2
BXTAP	119	342	6
BXTAP	119	348	3
BXTAP	119	348	5
BXSTR	119	354	4
NMSUL	119	354	4	96	66	0
NMSUR	119	354	4	96	66	0
BXTAP	120	192	1
BXTAP	120	192	7
NMTTP	120	200	2	E	0	M1
NMTTP	120	200	7	E	0	M1
NMTTP	120	208	2	B	0	M1
NMTTP	120	208	6	B	0	M1
NMTTP	120	216	3	B	0	M1
NMTTP	120	216	5	B	0	M1
NMTTP	120	224	4	E	0	M1
NMTTP	120	224	5	E	0	M1
NMTTP	120	232	4	A	1	M1
NMTTP	121	0	0	C	1	M1
NMTTP	121	0	0	E	0	M1
NMTTP	121	0	3	B	0	M1
NMTTP	121	0	3	E	0	M1
NMTTP	121	0	3	A	0	M1
NMTTP	121	0	4	E	0	M1
NMTTP	121	0	7	B	0	M1
NMTTP	121	0	7	E	0	M1
NMTTP	121	0	7	A	0	M1
NMHLD	121	192	1	48
NMHLD	121	192	5	48
BRSTR	121	288	0
BRSXR	121	288	0	96	864	4
BRTAP	121	288	4
BRSTR	121	336	2
BRSXR	121	336	2	96	816	4
BRTAP	121	336	6

T_REC_TAP	479
T_REC_BRK	41
T_REC_XTP	30
T_REC_BXX	34
T_REC_HLD	71
T_REC_XHO	1
T_REC_BHO	1
T_REC_BXH	2
T_REC_STR	108
T_REC_BST	18
T_REC_XST	9
T_REC_XBS	1
T_REC_TTP	94
T_REC_THO	1
T_REC_SLD	112
T_REC_BSL	28
T_REC_ALL	1030
T_NUM_TAP	720
T_NUM_BRK	125
T_NUM_HLD	73
T_NUM_SLD	112
T_NUM_ALL	1030
T_JUDGE_TAP	814
T_JUDGE_HLD	164
T_JUDGE_SLD	140
T_JUDGE_ALL	1118
TTM_EACHPAIRS	172
TTM_SCR_TAP	360000
TTM_SCR_BRK	325000
TTM_SCR_HLD	73000
TTM_SCR_SLD	168000
TTM_SCR_ALL	926000
TTM_SCR_S	886100
TTM_SCR_SS	913500
TTM_RAT_ACV	10136

