VERSION	0.00.00	1.04.00
FES_MODE	0
BPM_DEF	200.000	200.000	200.000	200.000
MET_DEF	4	4
RESOLUTION	384
CLK_DEF	384
COMPATIBLE_CODE	MA2

BPM	0	0	200.000
MET	0	0	4	4

NMHLD	2	0	1	384
NMTAP	2	192	3
NMHLD	3	0	3	384
NMTAP	3	192	2
NMHLD	4	0	4	384
NMTAP	4	192	5
NMHLD	5	0	6	384
NMTAP	5	192	4
NMHLD	6	0	3	384
NMTAP	6	192	2
NMHLD	7	0	4	384
NMTAP	7	192	5
NMHLD	8	0	2	192
NMHLD	8	192	3	192
NMHLD	9	0	4	192
NMHLD	9	192	5	192
NMTHO	10	0	0	2688	C	1	M1
EXTAP	12	0	6
EXTAP	14	0	7
EXTAP	14	192	6
EXTAP	15	0	5
EXTAP	15	96	5
EXTAP	15	192	5
EXSTR	15	288	5
NMSCR	15	288	5	96	384	2
NMTAP	18	0	1
NMTAP	18	96	1
NMTAP	18	96	3
NMTAP	18	192	2
NMTAP	18	288	2
NMTAP	18	288	3
NMTAP	19	0	3
NMTAP	19	96	3
NMTAP	19	96	4
EXTAP	19	192	5
NMTAP	19	240	5
EXTAP	19	288	4
NMTAP	20	0	6
NMTAP	20	96	4
NMTAP	20	96	6
NMTAP	20	192	5
NMTAP	20	288	4
NMTAP	20	288	5
NMTAP	21	0	4
NMTAP	21	96	3
NMTAP	21	96	4
EXTAP	21	192	2
NMTAP	21	240	2
EXTAP	21	288	3
NMTAP	22	0	1
NMTAP	22	96	2
NMTAP	22	96	3
NMTAP	22	192	4
NMTAP	22	288	2
NMTAP	22	288	3
NMTAP	23	0	1
NMTAP	23	96	2
NMTAP	23	96	3
EXTAP	23	192	4
NMTAP	23	240	4
EXTAP	23	288	3
NMTAP	24	0	6
NMTAP	24	96	4
NMTAP	24	96	5
NMTAP	24	192	3
NMTAP	24	288	4
NMSTR	24	288	5
NMSUL	24	288	5	96	288	3
NMTTP	26	0	2	B	0	M1
NMTTP	26	96	1	B	0	M1
NMTTP	26	192	0	B	0	M1
NMTTP	26	288	7	B	0	M1
NMTTP	27	0	6	B	0	M1
NMTTP	27	96	5	B	0	M1
NMTTP	27	192	4	B	0	M1
NMTTP	27	288	0	C	0	M1
NMTTP	28	0	1	E	0	M1
NMTTP	28	96	2	E	0	M1
NMTTP	28	192	3	E	0	M1
NMTTP	28	288	4	E	0	M1
NMTTP	29	0	5	E	0	M1
NMTTP	29	96	6	E	0	M1
NMTTP	29	192	7	E	0	M1
NMTTP	29	288	0	E	0	M1
NMHLD	30	0	2	192
NMTAP	30	96	3
NMHLD	30	192	5	192
NMTAP	30	288	4
NMHLD	31	0	1	192
NMTAP	31	96	3
NMHLD	31	192	6	192
NMTAP	31	288	4
EXTAP	32	0	0
EXTAP	32	64	0
EXTAP	32	128	0
EXTAP	32	192	0
EXTAP	32	256	0
EXTAP	32	320	0
EXTAP	33	0	1
EXTAP	33	0	7
EXTAP	33	64	1
EXTAP	33	64	7
EXTAP	33	128	1
EXTAP	33	128	7
EXTAP	33	192	1
EXTAP	33	192	7
EXTAP	33	256	1
EXTAP	33	256	7
EXTAP	33	320	1
EXTAP	33	320	7
BRTAP	34	0	2
BRTAP	34	0	6
NMTAP	34	96	4
NMTAP	34	192	3
NMTAP	34	192	5
NMTAP	34	288	4
NMTAP	35	0	4
NMHLD	35	0	6	96
NMTAP	35	96	7
NMTAP	35	144	7
NMTAP	35	240	0
NMTAP	35	240	6
EXTAP	35	288	0
EXTAP	35	288	6
NMTAP	36	0	1
NMTAP	36	0	5
NMTAP	36	96	3
NMTAP	36	192	2
NMTAP	36	192	4
NMTAP	36	288	3
NMHLD	37	0	1	96
NMTAP	37	0	3
NMTAP	37	96	0
NMTAP	37	144	0
NMTAP	37	240	1
NMTAP	37	240	7
EXTAP	37	288	1
EXTAP	37	288	7
NMTAP	38	0	2
NMTAP	38	0	6
NMSTR	38	96	4
NMSI_	38	96	4	96	48	2
NMSI_	38	96	4	96	48	6
EXTAP	38	288	0
NMTAP	39	0	2
NMTAP	39	0	6
NMSTR	39	96	4
NMSI_	39	96	4	96	48	2
NMSI_	39	96	4	96	48	6
EXTAP	39	288	0
NMTAP	40	0	1
NMTAP	40	0	7
NMTAP	40	96	3
NMTAP	40	96	4
NMTAP	40	192	0
NMTAP	40	192	6
NMTAP	40	288	3
NMSTR	40	288	4
NMSXL	40	288	4	96	192	3
EXTAP	41	288	1
EXTAP	41	288	7
NMTAP	42	0	4
NMTAP	42	96	4
NMTAP	42	192	4
NMTAP	42	288	4
NMHLD	43	0	3	192
NMHLD	43	0	7	192
EXTAP	43	240	3
EXTAP	43	240	7
EXTAP	43	336	1
EXTAP	43	336	5
NMHLD	44	0	1	240
NMHLD	44	0	5	240
EXTAP	44	288	1
EXTAP	44	288	5
NMTAP	45	0	2
NMTAP	45	0	3
NMTAP	45	96	4
NMTAP	45	96	5
NMTAP	45	192	0
NMTAP	45	192	1
NMTAP	45	288	6
NMTAP	45	288	7
NMTAP	46	0	1
NMTAP	46	0	5
NMSTR	46	96	3
NMSI_	46	96	3	96	48	1
NMSI_	46	96	3	96	48	5
EXTAP	46	288	7
NMTAP	47	0	1
NMTAP	47	0	5
NMSTR	47	96	3
NMSI_	47	96	3	96	48	1
NMSI_	47	96	3	96	48	5
EXTAP	47	288	7
NMTAP	48	0	0
NMTAP	48	0	6
NMTAP	48	96	3
NMTAP	48	96	4
NMTAP	48	192	1
NMTAP	48	192	7
NMSTR	48	288	3
NMSXR	48	288	3	96	192	4
NMTAP	48	288	4
BRTAP	49	288	0
BRTAP	49	288	6
NMTAP	50	0	1
NMSTR	50	0	5
NMSCL	50	0	5	96	96	2
NMSTR	50	192	0
NMSI_	50	192	0	96	48	3
NMSTR	51	0	5
NMSCL	51	0	5	96	96	2
NMSTR	51	192	7
NMSI_	51	192	7	96	48	4
NMSTR	52	0	5
NMSCL	52	0	5	96	96	2
NMTAP	52	192	6
NMHLD	53	0	5	144
NMHLD	53	144	3	144
NMTAP	53	288	1
NMSTR	54	0	2
NMSCR	54	0	2	96	96	5
NMTAP	54	0	6
NMSTR	54	192	7
NMSI_	54	192	7	96	48	4
NMSTR	55	0	2
NMSCR	55	0	2	96	96	5
NMSTR	55	192	0
NMSI_	55	192	0	96	48	3
NMSTR	56	0	2
NMSCR	56	0	2	96	96	5
NMTAP	56	192	1
NMTAP	57	0	3
NMTAP	57	0	4
NMTAP	57	96	1
NMTAP	57	96	6
NMTAP	57	144	1
NMSTR	57	144	6
NMSI_	57	144	6	96	48	2
NMTAP	58	0	0
NMTAP	58	96	1
NMTAP	58	192	2
NMTAP	58	288	3
NMSTR	59	0	4
NMSUL	59	0	4	96	240	3
NMTAP	60	0	1
NMTAP	60	96	2
NMTAP	60	192	3
NMTAP	60	288	2
NMTAP	60	288	4
NMTAP	61	0	6
NMTAP	61	96	5
NMTAP	61	192	4
NMTAP	61	288	3
NMTAP	61	288	5
NMHLD	62	0	2	96
NMHLD	62	144	2	96
NMTAP	62	288	1
NMTAP	62	288	3
NMHLD	63	0	5	96
NMHLD	63	144	5	96
NMTAP	63	288	4
NMTAP	63	288	6
NMHLD	64	0	3	96
NMHLD	64	144	2	96
NMHLD	64	144	4	96
NMHLD	64	288	1	96
NMHLD	64	288	5	96
NMHLD	65	48	0	96
NMHLD	65	48	6	96
NMSTR	65	192	7
NMSI_	65	192	7	96	48	3
NMTTP	66	96	1	E	0	M1
NMTTP	66	120	2	E	0	M1
NMTTP	66	144	3	E	0	M1
NMTTP	66	240	7	E	0	M1
NMTTP	66	264	6	E	0	M1
NMTTP	66	288	5	E	0	M1
NMTTP	67	0	1	D	0	M1
NMTTP	67	24	2	D	0	M1
NMTTP	67	48	3	D	0	M1
NMTTP	67	144	7	D	0	M1
NMTTP	67	168	6	D	0	M1
NMTTP	67	192	5	D	0	M1
NMTHO	67	288	0	48	C	0	M1
NMTTP	68	96	7	E	0	M1
NMTTP	68	120	6	E	0	M1
NMTTP	68	144	5	E	0	M1
NMTTP	68	240	1	E	0	M1
NMTTP	68	264	2	E	0	M1
NMTTP	68	288	3	E	0	M1
NMTTP	69	0	7	D	0	M1
NMTTP	69	24	6	D	0	M1
NMTTP	69	48	5	D	0	M1
NMTTP	69	144	1	D	0	M1
NMTTP	69	168	2	D	0	M1
NMTTP	69	192	3	D	0	M1
NMTHO	69	288	0	48	C	0	M1
NMTTP	70	96	0	E	0	M1
NMTTP	70	120	1	E	0	M1
NMTTP	70	144	2	E	0	M1
NMTTP	70	240	6	E	0	M1
NMTTP	70	264	5	E	0	M1
NMTTP	70	288	4	E	0	M1
NMTTP	71	0	0	D	0	M1
NMTTP	71	24	1	D	0	M1
NMTTP	71	48	2	D	0	M1
NMTTP	71	144	6	D	0	M1
NMTTP	71	168	5	D	0	M1
NMTTP	71	192	4	D	0	M1
NMTHO	71	288	0	48	C	0	M1
NMTTP	72	96	0	E	0	M1
NMTTP	72	120	7	E	0	M1
NMTTP	72	144	6	E	0	M1
NMTTP	72	240	2	E	0	M1
NMTTP	72	264	3	E	0	M1
NMTTP	72	288	4	E	0	M1
NMTTP	73	0	0	D	0	M1
NMTTP	73	24	7	D	0	M1
NMTTP	73	48	6	D	0	M1
NMTTP	73	144	2	D	0	M1
NMTTP	73	168	3	D	0	M1
NMTTP	73	192	4	D	0	M1
NMTHO	73	288	0	48	C	0	M1
NMHLD	74	96	2	96
NMHLD	74	240	1	96
NMHLD	74	240	3	96
NMHLD	75	0	2	96
NMHLD	75	0	4	96
NMHLD	75	144	3	96
NMHLD	75	144	5	96
NMTAP	75	288	4
NMTAP	75	288	6
NMTAP	76	0	0
NMTAP	76	0	7
NMHLD	76	96	5	96
NMHLD	76	240	4	96
NMHLD	76	240	6	96
NMHLD	77	0	3	96
NMHLD	77	0	5	96
NMHLD	77	144	2	96
NMHLD	77	144	4	96
NMTAP	77	288	1
NMTAP	77	288	3
NMTAP	78	0	0
NMTAP	78	0	7
NMHLD	78	96	2	96
NMTAP	78	192	3
NMHLD	78	240	4	96
NMTAP	78	336	3
NMHLD	79	0	1	96
NMTAP	79	96	3
NMHLD	79	144	5	96
NMTAP	79	240	3
NMTAP	79	288	2
NMTAP	79	288	4
NMTAP	80	0	0
NMTAP	80	0	6
NMHLD	80	96	5	96
NMTAP	80	192	4
NMHLD	80	240	3	96
NMTAP	80	336	4
NMHLD	81	0	6	96
NMTAP	81	96	4
NMHLD	81	144	2	96
NMTAP	81	240	4
NMTAP	81	288	3
NMTAP	81	288	5
NMTAP	82	0	1
NMTAP	82	0	7
NMTAP	82	96	0
NMTAP	82	192	1
NMTAP	82	288	1
NMTAP	83	0	2
NMTAP	83	96	2
NMTAP	83	192	3
NMTAP	83	288	3
NMTAP	84	0	7
NMTAP	84	96	7
NMTAP	84	192	6
NMTAP	84	288	6
NMTAP	85	0	5
NMTAP	85	96	5
NMTAP	85	192	4
NMTAP	85	288	4
NMTAP	86	0	3
NMTAP	86	48	3
NMTAP	86	96	3
NMTAP	86	144	3
NMTAP	86	192	5
NMTAP	86	240	5
NMTAP	86	288	5
NMTAP	86	336	5
NMTAP	87	0	1
NMTAP	87	48	1
NMTAP	87	96	1
NMTAP	87	144	1
NMTAP	87	192	7
NMTAP	87	240	7
NMTAP	87	288	7
NMTAP	87	336	7
NMTAP	88	0	0
NMTAP	88	48	1
NMTAP	88	96	2
NMTAP	88	144	3
NMTAP	88	192	4
NMTAP	88	240	5
NMTAP	88	288	6
NMTAP	88	336	7
BRTAP	89	0	0
NMTAP	89	96	6
NMTAP	89	96	7
EXTAP	89	144	0
EXTAP	89	144	5
NMTAP	89	240	0
NMTAP	89	240	1
EXTAP	89	288	2
EXTAP	89	288	7
BRTAP	90	0	3
BRTAP	90	0	4
NMTAP	90	96	7
NMTAP	90	144	7
NMTAP	90	192	0
NMTAP	90	192	6
NMTAP	90	288	2
NMTAP	90	336	2
NMTAP	91	0	1
NMTAP	91	0	3
NMTAP	91	96	5
NMTAP	91	144	5
NMTAP	91	192	4
NMTAP	91	192	6
NMSTR	91	288	1
NMSCR	91	288	1	96	72	4
NMTAP	91	288	7
NMTAP	91	336	1
NMTAP	91	336	7
NMTAP	92	96	5
NMTAP	92	192	6
NMTAP	92	240	6
NMTAP	92	288	0
NMTAP	92	336	0
NMTAP	93	0	7
NMTAP	93	96	1
NMSTR	93	96	5
NMSXL	93	96	5	96	192	3
EXTAP	94	0	0
NMTAP	94	96	2
NMTAP	94	144	3
NMTAP	94	192	1
NMTAP	94	192	4
NMTAP	94	288	5
NMTAP	94	336	4
NMTAP	95	0	3
NMTAP	95	0	6
NMTAP	95	96	1
NMTAP	95	96	7
NMTAP	95	144	1
NMTAP	95	144	7
NMSTR	95	240	0
NMSCR	95	240	0	96	72	3
NMSTR	95	240	6
NMSCL	95	240	6	96	72	3
NMTAP	96	96	1
NMTAP	96	96	5
NMTAP	96	192	7
NMTAP	96	240	7
NMTAP	96	288	0
NMTAP	96	336	0
EXTAP	97	48	4
EXTAP	97	48	5
EXTAP	97	144	1
EXTAP	97	144	2
EXTAP	97	240	6
EXSTR	97	240	7
NMSCR	97	240	7	96	144	5
NMTAP	98	192	7
NMTAP	98	240	7
NMTAP	98	288	0
NMTAP	98	336	0
NMTAP	99	0	6
NMTAP	99	0	7
NMTAP	99	96	4
NMTAP	99	96	5
NMTAP	99	192	2
NMTAP	99	192	3
EXSTR	99	288	0
NMSCL	99	288	0	96	144	2
NMTAP	99	288	1
NMTAP	100	192	0
NMTAP	100	240	0
NMTAP	100	288	7
NMTAP	100	336	7
EXTAP	101	0	0
EXTAP	101	0	1
NMTAP	101	96	2
NMTAP	101	96	3
NMTAP	101	192	4
NMTAP	101	192	5
NMSTR	101	288	6
NMSI_	101	288	6	96	48	2
NMTAP	101	288	7
NMTAP	102	96	0
NMTAP	102	144	0
NMTAP	102	192	1
NMTAP	102	192	7
NMTAP	102	288	5
NMTAP	102	336	5
NMTAP	103	0	4
NMTAP	103	0	6
NMTAP	103	96	1
NMTAP	103	96	3
NMTAP	103	144	1
NMTAP	103	144	3
NMSTR	103	240	0
NMSCR	103	240	0	96	72	3
NMSTR	103	240	6
NMSCL	103	240	6	96	72	3
NMTAP	104	96	1
NMTAP	104	96	5
NMTAP	104	192	7
NMTAP	104	240	7
NMTAP	104	288	0
NMTAP	104	336	0
EXTAP	105	48	1
EXTAP	105	48	6
EXTAP	105	96	1
EXTAP	105	96	6
EXTAP	105	144	1
EXTAP	105	144	6
EXTAP	105	192	1
EXTAP	105	192	6
EXTAP	105	240	1
EXTAP	105	240	6
BRTAP	105	288	1
BRTAP	105	288	6
NMSTR	106	0	0
NMSI_	106	0	0	96	48	4
NMSTR	106	96	6
NMSI_	106	96	6	96	48	3
NMSTR	106	192	2
NMSI_	106	192	2	96	48	7
NMSTR	106	288	5
NMSI_	106	288	5	96	48	2
NMSTR	107	0	1
NMSI_	107	0	1	96	48	6
NMSTR	107	96	4
NMSI_	107	96	4	96	48	7
NMSTR	107	192	0
NMSI_	107	192	0	96	48	3
NMTAP	107	288	4
NMSTR	108	0	7
NMSI_	108	0	7	96	48	3
NMSTR	108	96	1
NMSI_	108	96	1	96	48	4
NMSTR	108	192	5
NMSI_	108	192	5	96	48	0
NMSTR	108	288	2
NMSI_	108	288	2	96	48	5
NMSTR	109	0	6
NMSI_	109	0	6	96	48	1
NMSTR	109	96	3
NMSI_	109	96	3	96	48	0
NMSTR	109	192	7
NMSI_	109	192	7	96	48	4
NMTAP	109	288	3
EXTAP	110	0	1
EXTAP	110	0	6
NMTAP	110	96	0
NMTAP	110	144	0
NMSTR	110	192	1
NMSCR	110	192	1	96	48	4
NMSTR	110	192	7
NMSCL	110	192	7	96	48	4
NMTAP	111	0	0
NMTAP	111	96	7
NMTAP	111	144	7
NMTAP	111	192	0
NMTAP	111	192	6
NMTAP	111	288	1
NMTAP	111	288	5
BXTAP	111	336	1
BXTAP	111	336	5
NMTAP	112	96	2
NMTAP	112	96	3
NMTAP	112	192	4
NMTAP	112	192	5
NMTAP	112	288	1
NMTAP	112	288	6
BRTAP	113	0	7
NMTAP	113	48	6
NMTAP	113	96	5
NMTAP	113	144	4
BRTAP	113	192	3
NMTAP	113	240	2
NMTAP	113	288	1
NMTAP	113	336	0
EXTAP	114	0	6
EXTAP	114	0	7
NMTAP	114	96	4
NMTAP	114	96	5
NMTAP	114	192	2
NMTAP	114	192	3
NMTAP	114	288	0
NMTAP	114	288	1
NMTAP	115	0	2
NMTAP	115	0	3
NMTAP	115	96	4
NMTAP	115	96	5
NMTAP	115	192	6
NMTAP	115	192	7
NMTAP	115	288	0
NMTAP	115	288	1
NMTAP	116	0	6
NMTAP	116	0	7
NMTAP	116	96	0
NMTAP	116	96	5
NMTAP	116	192	0
NMTAP	116	192	1
NMTAP	116	288	2
NMTAP	116	288	7
NMSTR	117	0	6
NMSI_	117	0	6	96	48	4
NMTAP	117	0	7
NMSTR	117	96	0
NMSI_	117	96	0	96	48	2
NMSTR	117	192	7
NMSI_	117	192	7	96	48	3
NMTAP	117	288	0
NMHLD	118	0	2	288
NMHLD	118	192	3	96
NMTAP	118	336	1
NMTAP	118	336	4
NMHLD	119	144	4	144
NMHLD	119	144	5	144
NMTAP	119	336	3
NMTAP	119	336	6
NMSTR	120	192	7
NMSCL	120	192	7	96	48	4
NMSTR	121	0	0
NMSCR	121	0	0	96	48	3
NMHLD	121	192	0	96
NMHLD	121	192	7	96
NMSTR	121	336	1
NMSUR	121	336	1	96	816	4
NMSTR	121	336	6
NMSUL	121	336	6	96	816	3

T_REC_TAP	325
T_REC_BRK	11
T_REC_XTP	72
T_REC_HLD	61
T_REC_XHO	0
T_REC_STR	50
T_REC_BST	0
T_REC_XST	3
T_REC_TTP	64
T_REC_THO	5
T_REC_SLD	57
T_REC_ALL	648
T_NUM_TAP	514
T_NUM_BRK	11
T_NUM_HLD	66
T_NUM_SLD	57
T_NUM_ALL	648
T_JUDGE_TAP	525
T_JUDGE_HLD	252
T_JUDGE_SLD	57
T_JUDGE_ALL	834
TTM_EACHPAIRS	142
TTM_SCR_TAP	257000
TTM_SCR_BRK	28600
TTM_SCR_HLD	66000
TTM_SCR_SLD	85500
TTM_SCR_ALL	437100
TTM_SCR_S	422950
TTM_SCR_SS	436000
TTM_RAT_ACV	10025

