VERSION	0.00.00	1.04.00
FES_MODE	0
BPM_DEF	200.000	200.000	200.000	200.000
MET_DEF	4	4
RESOLUTION	384
CLK_DEF	384
COMPATIBLE_CODE	MA2

BPM	0	0	200.000
MET	0	0	4	4

NMHLD	2	0	0	384
NMHLD	3	0	1	384
NMHLD	4	0	2	384
NMHLD	5	0	3	384
NMHLD	6	0	4	384
NMHLD	7	0	5	384
NMHLD	8	0	6	384
NMTAP	9	0	7
NMTAP	10	0	6
NMTAP	10	0	7
NMTAP	11	0	4
NMTAP	11	0	5
NMTAP	12	0	2
NMTAP	12	0	3
NMTAP	13	0	0
NMTAP	13	0	1
NMTAP	14	0	0
NMTAP	14	0	7
NMTAP	14	192	0
NMTAP	14	192	7
NMTAP	15	0	0
NMTAP	15	96	0
NMTAP	15	192	0
NMTAP	16	0	7
NMTAP	16	96	7
NMTAP	16	192	7
BRTAP	17	0	0
BRTAP	17	0	7
NMTAP	18	0	6
NMTAP	18	96	6
NMTAP	18	192	6
NMTAP	18	192	7
NMTAP	19	0	5
NMTAP	19	96	5
NMTAP	19	192	4
NMTAP	19	192	5
NMTAP	20	0	2
NMTAP	20	96	2
NMTAP	20	192	2
NMTAP	20	192	3
NMTAP	21	0	1
NMTAP	21	96	1
NMTAP	21	192	0
NMTAP	21	192	7
NMTAP	22	0	1
NMTAP	22	96	1
NMTAP	22	192	0
NMTAP	22	192	1
NMTAP	23	0	2
NMTAP	23	96	2
NMTAP	23	192	2
NMTAP	23	192	3
NMTAP	24	0	5
NMTAP	24	96	5
NMTAP	24	192	4
NMTAP	24	192	5
NMTAP	25	0	6
NMTAP	25	96	6
NMTAP	25	192	0
NMTAP	25	192	7
NMTTP	26	0	1	B	0	L1
NMTTP	26	96	2	B	0	L1
NMTTP	26	192	3	B	0	L1
NMTTP	27	0	6	B	0	L1
NMTTP	27	96	5	B	0	L1
NMTTP	27	192	4	B	0	L1
NMTTP	28	0	0	B	0	L1
NMTTP	28	96	1	B	0	L1
NMTTP	28	192	2	B	0	L1
NMTTP	28	192	3	B	0	L1
NMTTP	29	0	7	B	0	L1
NMTTP	29	96	6	B	0	L1
NMTTP	29	192	4	B	0	L1
NMTTP	29	192	5	B	0	L1
NMTTP	30	0	0	B	0	L1
NMTTP	30	96	1	B	0	L1
NMTTP	30	192	2	B	0	L1
NMTTP	30	288	3	B	0	L1
NMTTP	31	0	4	B	0	L1
NMTTP	31	96	5	B	0	L1
NMTTP	31	192	6	B	0	L1
NMTHO	32	0	0	384	C	1	L1
NMHLD	34	0	2	192
NMTAP	34	192	3
NMTAP	35	0	4
NMTAP	35	96	4
NMTAP	35	192	3
NMTAP	35	192	4
NMHLD	36	0	5	192
NMTAP	36	192	4
NMTAP	37	0	3
NMTAP	37	96	3
NMTAP	37	192	3
NMTAP	37	192	4
NMTAP	38	0	2
NMTAP	38	96	2
NMTAP	38	96	3
NMTAP	38	192	2
NMTAP	38	192	3
NMTAP	39	0	5
NMTAP	39	96	4
NMTAP	39	96	5
NMTAP	39	192	4
NMTAP	39	192	5
NMTAP	40	0	6
NMTAP	40	96	6
NMTAP	40	192	7
NMTAP	40	288	7
EXTAP	41	0	0
EXTAP	41	96	0
EXTAP	41	192	0
EXTAP	41	192	7
NMHLD	42	0	1	192
NMHLD	42	192	0	192
NMHLD	43	0	7	192
NMTAP	43	192	6
NMHLD	44	0	5	192
NMHLD	44	192	4	192
NMHLD	45	0	3	192
NMTAP	45	192	2
NMTAP	46	0	1
NMTAP	46	96	0
NMTAP	46	96	1
NMTAP	46	192	0
NMTAP	46	192	1
NMTAP	47	0	6
NMTAP	47	96	6
NMTAP	47	96	7
NMTAP	47	192	6
NMTAP	47	192	7
NMTAP	48	0	5
NMTAP	48	96	5
NMTAP	48	192	4
NMTAP	48	288	4
NMTAP	49	0	3
NMTAP	49	96	3
EXTAP	49	192	2
EXTAP	49	192	3
NMSTR	50	0	1
NMSI_	50	0	1	96	192	5
NMSTR	51	0	6
NMSI_	51	0	6	96	192	2
NMSTR	52	0	1
NMSI_	52	0	1	96	192	4
NMTAP	53	0	5
NMTAP	53	96	5
NMTAP	53	192	4
NMTAP	53	192	5
NMSTR	54	0	6
NMSI_	54	0	6	96	192	2
NMSTR	55	0	1
NMSI_	55	0	1	96	192	5
NMSTR	56	0	6
NMSI_	56	0	6	96	192	3
NMTAP	57	0	2
NMTAP	57	96	2
NMTAP	57	192	3
NMTAP	57	192	4
NMHLD	58	0	5	192
NMTAP	58	192	4
NMHLD	59	0	2	192
NMTAP	59	192	3
NMHLD	60	0	5	192
NMTAP	60	192	4
NMTAP	61	0	2
NMTAP	61	192	2
NMTAP	61	192	3
NMHLD	62	0	1	192
NMTAP	62	192	0
NMHLD	63	0	6	192
NMTAP	63	192	7
EXSTR	64	0	0
NMSI_	64	0	0	96	192	3
EXSTR	65	0	4
NMSI_	65	0	4	96	192	7
EXTAP	66	96	0
NMTAP	66	240	0
NMTAP	67	0	0
NMTAP	67	144	0
NMTAP	67	288	0
EXTAP	68	96	0
EXTAP	68	96	7
NMTAP	68	240	0
NMTAP	68	240	7
NMTAP	69	0	0
NMTAP	69	0	7
NMTAP	69	144	0
NMTAP	69	144	7
NMTAP	69	288	0
NMTAP	69	288	7
EXTAP	70	96	6
NMTAP	70	240	6
NMTAP	71	0	6
NMTAP	71	144	6
NMTAP	71	288	6
EXTAP	72	96	4
EXTAP	72	96	5
NMTAP	72	240	4
NMTAP	72	240	5
NMTAP	73	0	4
NMTAP	73	0	5
NMTAP	73	144	4
NMTAP	73	144	5
NMTAP	73	288	4
NMTAP	73	288	5
BXTAP	74	96	3
NMTAP	74	240	3
NMTAP	75	0	3
NMTAP	75	144	3
NMTAP	75	288	3
EXTAP	76	96	2
EXTAP	76	96	4
NMTAP	76	240	2
NMTAP	76	240	4
NMTAP	77	0	2
NMTAP	77	0	4
NMTAP	77	144	2
NMTAP	77	144	4
NMTAP	77	288	2
NMTAP	77	288	4
EXTAP	78	96	1
NMTAP	78	240	1
NMTAP	79	0	1
NMTAP	79	144	1
NMTAP	79	288	1
EXTAP	80	96	0
EXTAP	80	96	7
NMTAP	80	240	0
NMTAP	80	240	7
NMTAP	81	0	0
NMTAP	81	0	7
NMTAP	81	144	0
NMTAP	81	144	7
NMTAP	81	288	0
NMTAP	81	288	7
EXHLD	82	0	0	576
EXHLD	82	0	7	576
NMTAP	84	0	0
NMTAP	84	96	0
NMTAP	84	192	1
NMTAP	84	288	1
NMTAP	85	0	2
NMTAP	85	96	2
NMTAP	85	192	3
NMTAP	85	288	3
NMTAP	86	0	4
NMTAP	86	96	4
NMTAP	86	192	5
NMTAP	86	288	5
NMTAP	87	0	6
NMTAP	87	96	6
NMTAP	87	192	7
NMTAP	87	288	7
NMTAP	88	0	0
NMTAP	88	0	7
NMTAP	88	96	0
NMTAP	88	96	7
NMTAP	88	192	0
NMTAP	88	192	7
NMTAP	88	288	0
NMTAP	88	288	7
BRTAP	89	0	0
BRTAP	89	0	7
NMTAP	90	0	0
NMTAP	90	96	0
NMTAP	90	192	0
NMTAP	90	192	1
NMTAP	90	288	0
NMTAP	90	288	1
NMTAP	91	0	2
NMTAP	91	96	2
NMTAP	91	192	2
NMTAP	91	192	3
NMTAP	91	288	2
NMTAP	91	288	3
NMTAP	92	0	4
NMTAP	92	96	4
NMTAP	92	192	4
NMTAP	92	192	5
NMTAP	92	288	4
NMTAP	92	288	5
NMTAP	93	0	6
NMTAP	93	96	6
NMTAP	93	192	6
NMTAP	93	192	7
NMTAP	94	0	7
NMTAP	94	96	7
NMTAP	94	192	6
NMTAP	94	192	7
NMTAP	94	288	6
NMTAP	94	288	7
NMTAP	95	0	5
NMTAP	95	96	5
NMTAP	95	192	4
NMTAP	95	192	5
NMTAP	95	288	4
NMTAP	95	288	5
NMTAP	96	0	2
NMTAP	96	0	3
NMTAP	96	96	2
NMTAP	96	96	3
NMTAP	96	192	1
NMTAP	96	288	1
BRTAP	97	0	0
BRTAP	97	0	7
NMTAP	98	0	0
NMTAP	98	0	1
NMTAP	98	96	0
NMTAP	98	96	1
NMTAP	98	192	2
NMTAP	98	240	2
NMTAP	98	288	2
NMTAP	99	0	3
NMTAP	99	48	3
NMTAP	99	96	3
NMTAP	99	192	4
NMTAP	99	240	4
NMTAP	99	288	4
NMTAP	100	0	5
NMTAP	100	48	5
NMTAP	100	96	5
NMTAP	100	192	6
NMTAP	100	288	7
NMTAP	101	0	6
NMTAP	101	0	7
NMTAP	101	96	6
NMTAP	101	96	7
NMTAP	101	192	6
NMTAP	101	192	7
NMTAP	102	0	6
NMTAP	102	0	7
NMTAP	102	96	6
NMTAP	102	96	7
NMTAP	102	192	5
NMTAP	102	240	5
NMTAP	102	288	5
NMTAP	103	0	4
NMTAP	103	48	4
NMTAP	103	96	4
NMTAP	103	192	3
NMTAP	103	240	3
NMTAP	103	288	3
NMTAP	104	0	2
NMTAP	104	48	2
NMTAP	104	96	2
NMTAP	104	192	1
NMTAP	104	288	0
BRTAP	105	0	0
BRTAP	105	0	7
NMTAP	106	0	0
NMTAP	106	0	1
NMTAP	106	96	0
NMTAP	106	96	1
NMTAP	106	192	2
NMTAP	106	240	2
NMTAP	106	288	2
NMTAP	107	0	3
NMTAP	107	0	4
NMTAP	107	96	3
NMTAP	107	96	4
NMTAP	107	192	5
NMTAP	107	240	5
NMTAP	107	288	5
NMTAP	108	0	6
NMTAP	108	0	7
NMTAP	108	96	6
NMTAP	108	96	7
NMTAP	108	192	0
NMTAP	108	240	0
NMTAP	108	288	0
NMTAP	109	0	0
NMTAP	109	0	7
NMTAP	109	96	0
NMTAP	109	96	7
NMTAP	109	192	0
NMTAP	109	192	7
NMTAP	110	0	6
NMTAP	110	0	7
NMTAP	110	96	6
NMTAP	110	96	7
NMTAP	110	192	5
NMTAP	110	240	5
NMTAP	110	288	5
NMTAP	111	0	3
NMTAP	111	0	4
NMTAP	111	96	3
NMTAP	111	96	4
NMTAP	111	192	2
NMTAP	111	240	2
NMTAP	111	288	2
NMTAP	112	0	0
NMTAP	112	0	1
NMTAP	112	96	0
NMTAP	112	96	1
NMTAP	112	192	7
NMTAP	112	240	7
NMTAP	112	288	7
NMTAP	113	0	0
NMTAP	113	0	7
NMTAP	113	96	0
NMTAP	113	96	7
NMTAP	113	192	0
NMTAP	113	192	7
NMTAP	114	0	0
NMTAP	114	96	1
NMTAP	114	192	2
NMTAP	114	288	3
NMTAP	115	0	4
NMTAP	115	96	5
NMTAP	115	192	6
NMTAP	115	192	7
NMTAP	115	288	6
NMTAP	115	288	7
NMTAP	116	0	7
NMTAP	116	96	6
NMTAP	116	192	5
NMTAP	116	288	4
NMTAP	117	0	3
NMTAP	117	96	2
NMTAP	117	192	0
NMTAP	117	192	1
NMTAP	117	288	0
NMTAP	117	288	1
NMSTR	118	0	0
NMSI_	118	0	0	96	192	5
NMSTR	118	0	1
NMSI_	118	0	1	96	192	4
EXSTR	119	336	6
NMSI_	119	336	6	96	192	3
EXSTR	119	336	7
NMSI_	119	336	7	96	192	2
EXHLD	121	336	0	912
EXHLD	121	336	7	912

T_REC_TAP	337
T_REC_BRK	8
T_REC_XTP	17
T_REC_BXX	1
T_REC_HLD	20
T_REC_XHO	4
T_REC_BHO	0
T_REC_BXH	0
T_REC_STR	8
T_REC_BST	0
T_REC_XST	4
T_REC_XBS	0
T_REC_TTP	21
T_REC_THO	1
T_REC_SLD	12
T_REC_BSL	0
T_REC_ALL	433
T_NUM_TAP	387
T_NUM_BRK	9
T_NUM_HLD	25
T_NUM_SLD	12
T_NUM_ALL	433
T_JUDGE_TAP	396
T_JUDGE_HLD	178
T_JUDGE_SLD	12
T_JUDGE_ALL	586
TTM_EACHPAIRS	103
TTM_SCR_TAP	193500
TTM_SCR_BRK	23400
TTM_SCR_HLD	25000
TTM_SCR_SLD	18000
TTM_SCR_ALL	259900
TTM_SCR_S	251250
TTM_SCR_SS	259000
TTM_RAT_ACV	10034

