VERSION	0.00.00	1.04.00
FES_MODE	0
BPM_DEF	170.000	170.000	170.000	170.000
MET_DEF	4	4
RESOLUTION	384
CLK_DEF	384
COMPATIBLE_CODE	MA2

BPM	0	0	170.000
MET	0	0	4	4

NMTAP	1	0	0
EXTAP	1	96	0
NMSTR	1	192	0
NMSI_	1	192	0	96	48	4
BXTAP	1	288	0
NMTAP	1	288	5
NMTAP	2	0	3
NMTAP	2	0	6
NMTAP	2	48	5
NMTAP	2	72	4
NMTAP	2	96	5
NMTAP	2	144	3
NMTAP	2	168	4
NMTAP	2	192	3
NMTAP	2	240	2
NMHLD	2	288	2	96
NMTAP	3	48	4
NMTAP	3	72	3
NMTAP	3	96	4
NMTAP	3	144	2
NMTAP	3	168	3
NMTAP	3	192	2
NMTAP	3	240	5
NMTAP	3	264	4
NMTAP	3	288	5
NMTAP	3	336	2
NMTAP	3	360	3
NMTAP	4	0	2
NMTAP	4	48	5
NMTAP	4	72	4
NMTAP	4	96	5
NMTAP	4	144	2
NMTAP	4	168	3
NMTAP	4	192	2
NMHLD	4	240	4	96
NMTAP	5	0	2
NMTAP	5	24	4
NMTAP	5	48	3
NMTAP	5	72	5
NMTAP	5	96	4
NMTAP	5	144	3
NMTAP	5	144	6
NMTAP	5	192	3
NMSTR	5	192	6
NMSCL	5	192	6	96	48	3
NMHLD	5	288	2	96
EXTAP	6	0	3
NMTAP	6	48	3
NMTAP	6	96	4
NMTAP	6	144	4
NMTAP	6	192	5
NMTAP	6	240	5
NMTAP	6	288	4
NMTAP	6	336	2
NMTAP	7	0	1
NMTAP	7	48	1
NMTAP	7	96	0
NMTAP	7	144	0
NMTAP	7	192	7
NMTAP	7	240	0
NMTAP	7	240	6
NMTAP	7	288	0
NMTAP	7	288	6
NMTAP	8	0	1
NMTAP	8	0	7
NMTAP	8	48	2
NMTAP	8	96	3
NMTAP	8	144	4
NMTAP	8	192	5
NMTAP	8	240	5
NMTAP	8	264	4
NMTAP	8	288	6
NMTAP	8	336	6
EXTAP	9	0	0
EXTAP	9	0	7
EXTAP	9	72	1
EXTAP	9	72	3
EXTAP	9	144	4
EXTAP	9	144	6
EXSTR	9	192	0
BRSSL	9	192	0	96	96	4
BXTAP	9	192	7
EXHLD	10	0	6	48
NMTAP	10	48	4
NMHLD	10	72	4	48
NMTAP	10	120	3
NMHLD	10	144	3	48
NMTAP	10	192	2
NMHLD	10	216	2	48
NMTAP	10	264	3
NMTAP	10	288	3
EXTAP	10	336	0
NMTAP	11	0	5
NMTAP	11	24	4
NMTAP	11	72	7
NMTAP	11	96	0
NMTAP	11	144	5
NMTAP	11	168	4
NMTAP	11	216	7
NMTAP	11	240	0
NMTAP	11	288	3
NMTAP	11	288	5
EXHLD	12	0	1	48
NMTAP	12	48	2
NMHLD	12	72	2	48
NMTAP	12	120	3
NMHLD	12	144	3	48
NMTAP	12	192	5
NMHLD	12	216	5	48
NMTAP	12	264	4
NMTAP	12	288	4
EXTAP	12	336	7
NMTAP	13	0	2
NMTAP	13	24	3
NMTAP	13	72	0
NMTAP	13	96	7
NMTAP	13	144	4
NMTAP	13	168	5
NMTAP	13	216	0
NMHLD	13	240	7	96
NMTTP	13	288	1	E	0	M1
NMTTP	13	304	2	E	0	M1
NMTTP	13	320	3	E	0	M1
NMTTP	13	336	4	E	0	M1
EXHLD	14	0	5	72
EXHLD	14	0	6	72
NMHLD	14	96	4	72
NMHLD	14	96	7	72
NMHLD	14	192	0	72
NMHLD	14	192	3	72
NMTAP	14	288	1
NMTAP	14	288	2
NMHLD	15	0	4	72
NMHLD	15	0	7	72
NMTTP	15	96	5	A	0	M1
NMTTP	15	96	6	A	0	M1
NMTTP	15	96	6	D	1	M1
NMHLD	15	192	0	72
NMHLD	15	192	3	72
NMTAP	15	288	1
NMTAP	15	288	2
EXHLD	16	0	4	48
EXHLD	16	0	5	72
EXHLD	16	96	2	48
EXHLD	16	96	3	24
EXHLD	16	192	4	24
EXHLD	16	192	6	72
EXHLD	16	288	1	48
EXHLD	16	288	3	24
NMTAP	17	0	0
NMTAP	17	0	7
NMTAP	17	48	6
NMTAP	17	96	5
NMTTP	17	144	1	B	0	M1
NMTTP	17	160	2	B	0	M1
NMTTP	17	176	3	B	0	M1
NMTTP	17	192	4	B	0	M1
NMTTP	17	240	6	E	0	M1
NMTTP	17	288	5	E	0	M1
NMTTP	17	336	4	E	0	M1
NMTAP	18	0	2
NMSTR	18	48	2
NMSCR	18	48	2	96	48	4
NMTAP	18	144	4
NMTAP	18	240	6
NMTAP	18	288	6
NMHLD	18	336	4	96
NMHLD	19	48	5	48
NMTAP	19	96	4
NMTAP	19	144	4
NMTAP	19	192	3
NMTAP	19	240	2
NMSTR	19	288	1
NMSXR	19	288	1	96	288	6
NMHLD	20	0	0	192
NMTAP	20	288	7
NMHLD	20	336	7	96
NMTAP	21	48	5
NMTAP	21	96	5
NMTAP	21	144	6
NMTAP	21	192	6
NMTAP	21	240	5
NMTAP	21	288	3
NMTAP	21	336	1
EXTAP	22	0	7
NMHLD	22	48	7	96
NMTAP	22	144	0
NMTAP	22	192	0
NMHLD	22	192	1	72
NMHLD	22	264	2	72
NMTAP	22	336	3
NMTAP	23	48	5
NMTAP	23	96	6
NMHLD	23	144	6	96
NMTAP	23	240	7
NMTAP	23	288	0
NMTAP	23	288	5
NMTAP	24	0	3
NMTAP	24	0	4
NMTAP	24	48	2
NMTAP	24	72	3
NMTAP	24	96	2
NMTAP	24	120	3
NMTAP	24	144	2
NMTAP	24	192	1
NMTAP	24	240	0
NMTAP	24	288	6
NMTAP	24	288	7
BXTAP	24	336	4
BXTAP	24	336	5
EXTAP	25	48	3
NMTAP	25	72	4
NMTAP	25	96	3
NMTAP	25	120	4
NMTAP	25	144	3
NMTAP	25	168	4
NMTAP	25	192	2
NMTAP	25	240	2
NMTAP	25	288	2
NMTAP	25	336	2
NMTAP	26	0	2
NMTAP	26	48	1
NMTAP	26	48	4
NMTAP	26	96	1
NMTAP	26	96	4
NMTAP	26	144	1
NMTAP	26	168	3
NMTAP	26	216	3
NMTAP	26	264	3
NMTAP	26	288	2
NMTAP	26	336	1
NMTAP	26	336	4
NMTAP	27	0	5
NMTAP	27	48	3
NMTAP	27	48	6
NMTAP	27	96	3
NMTAP	27	96	6
NMTAP	27	144	6
NMTAP	27	168	4
NMTAP	27	216	4
NMTAP	27	264	4
NMTAP	27	288	5
NMTAP	27	336	3
NMTAP	27	336	6
NMTAP	28	0	7
NMTAP	28	48	2
NMTAP	28	48	7
NMTAP	28	96	2
NMTAP	28	96	7
NMTAP	28	144	1
NMTAP	28	168	0
NMTAP	28	216	0
NMTAP	28	264	0
NMTAP	28	288	1
NMTAP	28	336	2
NMTAP	28	336	7
NMTAP	29	0	1
NMTAP	29	48	0
NMTAP	29	48	5
NMTAP	29	96	0
NMTAP	29	96	5
NMTAP	29	144	6
NMTAP	29	168	7
NMTAP	29	216	7
NMTAP	29	264	7
NMTAP	29	288	6
NMTAP	29	336	0
NMTAP	29	336	5
EXHLD	30	0	1	48
EXHLD	30	0	4	48
EXHLD	30	96	3	24
EXHLD	30	96	6	72
EXHLD	30	192	1	48
EXHLD	30	192	3	48
EXHLD	30	288	4	48
EXHLD	30	288	6	72
EXHLD	31	0	0	72
EXHLD	31	0	2	48
EXHLD	31	96	5	24
EXHLD	31	96	7	48
EXHLD	31	192	1	48
EXHLD	31	192	2	24
EXHLD	31	288	5	48
EXHLD	31	288	6	48
EXTAP	32	0	0
NMTAP	32	24	7
NMTAP	32	48	0
NMTAP	32	72	7
NMTAP	32	96	0
NMTAP	32	120	7
NMTAP	32	144	0
NMTAP	32	168	7
NMTTP	32	192	0	B	0	M1
NMTTP	32	204	1	B	0	M1
NMTTP	32	216	2	B	0	M1
NMTTP	32	228	3	B	0	M1
NMTTP	32	240	7	B	0	M1
NMTTP	32	252	6	B	0	M1
NMTTP	32	264	5	B	0	M1
NMTTP	32	276	4	B	0	M1
NMTTP	32	288	0	A	0	M1
NMTTP	32	300	1	A	0	M1
NMTTP	32	312	2	A	0	M1
NMTTP	32	324	3	A	0	M1
NMTTP	32	336	7	A	0	M1
NMTTP	32	348	6	A	0	M1
NMTTP	32	360	5	A	0	M1
NMTTP	32	372	4	A	0	M1
NMTHO	33	0	0	192	C	0	M1
NMSTR	33	192	7
NMSI_	33	192	7	96	48	3
BRTAP	33	288	0
BRTAP	33	288	7
EXSTR	34	0	2
NMSI_	34	0	2	96	48	0
EXTAP	34	0	3
EXTAP	34	24	2
EXTAP	34	24	3
NMTAP	34	72	5
NMTAP	34	120	5
CNSI_	34	144	0	0	48	3
NMTAP	34	168	5
CNSI_	34	192	3	0	48	7
NMTAP	34	216	5
NMTAP	34	264	5
EXTAP	34	288	0
EXTAP	34	288	6
NMTAP	35	0	1
NMTAP	35	24	0
NMTAP	35	48	1
NMHLD	35	72	0	48
NMTAP	35	120	3
NMTAP	35	168	3
NMTAP	35	192	4
NMTAP	35	240	5
NMTAP	35	288	6
NMTAP	35	288	7
NMTAP	36	0	4
NMSTR	36	0	5
NMSI_	36	0	5	96	48	7
NMTAP	36	24	4
NMTAP	36	24	5
NMTAP	36	72	2
NMTAP	36	120	2
CNSI_	36	144	7	0	48	4
NMTAP	36	168	2
CNSI_	36	192	4	0	48	0
NMTAP	36	216	2
NMTAP	36	264	2
EXTAP	36	288	1
EXTAP	36	288	7
NMTAP	37	0	6
NMTAP	37	24	7
NMTAP	37	48	6
NMHLD	37	72	7	48
NMTAP	37	120	4
NMTAP	37	168	4
NMTAP	37	192	3
NMTAP	37	240	2
BRTAP	37	288	0
BRTAP	37	288	1
NMHLD	38	0	2	96
NMTTP	38	48	6	E	0	M1
NMHLD	38	96	4	96
NMTTP	38	144	1	E	0	M1
NMHLD	38	192	2	96
NMTTP	38	240	7	E	0	M1
NMHLD	38	288	4	96
NMTTP	38	336	1	D	0	M1
NMHLD	39	0	3	96
NMTTP	39	48	0	E	0	M1
NMHLD	39	96	5	96
NMTTP	39	144	2	E	0	M1
NMTAP	39	192	3
NMTTP	39	240	7	D	0	M1
NMTTP	39	264	6	A	0	M1
NMTTP	39	288	6	D	0	M1
BRTAP	40	0	3
NMTAP	40	24	4
NMTAP	40	48	3
BRTAP	40	72	4
BRTAP	40	96	3
NMTAP	40	120	4
NMTAP	40	144	3
BRTAP	40	168	4
NMTAP	40	192	3
NMTAP	40	216	4
BRTAP	40	240	3
NMTAP	40	264	4
NMSTR	40	288	3
NMSCL	40	288	3	96	192	3
NMSCR	40	288	3	96	192	3
BRTAP	40	312	4
NMTAP	40	336	3
NMTAP	40	360	4
BRTAP	41	288	1
BRTAP	41	288	5
EXSTR	42	0	6
NMSCL	42	0	6	96	48	3
NMTAP	42	24	7
NMTAP	42	48	6
NMTAP	42	72	7
NMTAP	42	96	6
EXTAP	42	144	2
EXSTR	42	192	1
NMSCR	42	192	1	96	48	4
NMTAP	42	216	0
NMTAP	42	240	1
NMTAP	42	264	0
NMTAP	42	288	1
EXTAP	42	336	5
NMSTR	43	0	6
NMSI_	43	0	6	96	48	3
NMTAP	43	24	7
NMTAP	43	48	6
NMSTR	43	96	0
NMSI_	43	96	0	96	48	4
NMTAP	43	144	0
NMSTR	43	192	1
NMSI_	43	192	1	96	48	5
NMTAP	43	240	1
NMTAP	43	288	2
NMTAP	43	336	2
NMSTR	44	0	3
NMSI_	44	0	3	96	48	0
NMSI_	44	0	3	96	48	6
EXTAP	44	96	3
NMTAP	44	192	6
NMTAP	44	216	4
NMTAP	44	240	5
NMTAP	44	264	3
NMTAP	44	288	4
NMTAP	44	312	2
NMTAP	44	336	3
NMTAP	44	360	1
EXSTR	45	0	7
NMSI_	45	0	7	96	48	3
NMTAP	45	48	7
NMSTR	45	96	1
NMSI_	45	96	1	96	48	5
NMTAP	45	144	1
NMSTR	45	192	6
NMSI_	45	192	6	96	48	2
NMTAP	45	240	6
NMSTR	45	288	4
NMSF_	45	288	4	96	48	0
NMTAP	45	336	4
EXTAP	46	0	4
BRTAP	46	96	2
BRTAP	46	96	6
NMTAP	46	144	7
EXTAP	46	192	0
EXTAP	46	192	1
NMTAP	46	240	2
NMTAP	46	264	3
NMTAP	46	288	1
NMTAP	46	312	3
NMTAP	46	336	2
NMTAP	47	0	5
NMTAP	47	24	4
NMTAP	47	48	5
NMTAP	47	96	6
NMTAP	47	120	7
NMTAP	47	144	6
NMSTR	47	192	0
NMSI_	47	192	0	96	48	4
NMSTR	47	192	7
NMSI_	47	192	7	96	48	3
NMTAP	47	240	1
NMTAP	47	240	6
NMTAP	47	288	0
NMTAP	47	288	7
BRTAP	48	0	1
BRTAP	48	0	6
EXTAP	48	96	0
EXTAP	48	96	4
NMTAP	48	120	1
NMTAP	48	120	5
NMTAP	48	144	2
NMTAP	48	144	6
NMTAP	48	168	3
NMTAP	48	168	7
NMHLD	48	192	0	48
NMHLD	48	192	4	48
NMHLD	48	264	3	48
NMHLD	48	264	7	48
BRTAP	48	336	1
BRTAP	48	336	5
EXTAP	49	24	6
EXTAP	49	24	7
NMTAP	49	48	0
NMTAP	49	48	5
NMTAP	49	72	1
NMTAP	49	72	4
NMTAP	49	96	2
NMTAP	49	96	3
NMTAP	49	144	1
NMTAP	49	144	4
NMTAP	49	192	3
NMTAP	49	192	6
NMTAP	49	240	2
NMTAP	49	240	5
BRSTR	49	288	0
NMSCR	49	288	0	96	288	7
BRSTR	49	288	7
NMSCL	49	288	7	96	288	0
NMTHO	51	0	0	1152	C	0	M1
NMTTP	51	0	1	B	0	M1
NMTTP	51	0	1	A	0	M1
NMTTP	51	192	2	B	0	M1
NMTTP	51	192	2	A	0	M1
NMTTP	52	0	3	B	0	M1
NMTTP	52	0	3	A	0	M1
NMTTP	52	192	4	B	0	M1
NMTTP	52	192	4	A	0	M1
NMTTP	53	0	5	B	0	M1
NMTTP	53	0	5	A	0	M1
NMTTP	53	192	6	B	0	M1
NMTTP	53	192	6	A	0	M1
NMTTP	54	0	7	B	0	M1
NMTTP	54	0	7	A	0	M1
NMTTP	55	0	0	C	0	M1
NMTTP	55	0	2	B	0	M1
NMTTP	55	0	6	B	0	M1
NMTTP	55	0	6	A	0	M1
NMTTP	55	192	0	C	0	M1
NMTTP	55	192	1	B	0	M1
NMTTP	55	192	5	B	0	M1
NMTTP	55	192	5	A	0	M1
NMTTP	56	0	0	B	0	M1
NMTTP	56	0	0	C	0	M1
NMTTP	56	0	4	B	0	M1
NMTTP	56	0	4	A	0	M1
NMTTP	56	192	0	C	0	M1
NMTTP	56	192	3	B	0	M1
NMTTP	56	192	3	A	0	M1
NMTTP	56	192	7	B	0	M1
NMTTP	57	0	0	C	0	M1
NMTTP	57	0	2	B	0	M1
NMTTP	57	0	2	A	0	M1
NMTTP	57	0	6	B	0	M1
NMTTP	57	192	0	C	0	M1
NMTTP	57	192	1	B	0	M1
NMTTP	57	192	1	A	0	M1
NMTTP	57	192	5	B	0	M1
NMTTP	58	0	0	B	0	M1
NMTHO	58	0	0	96	C	0	M1
NMTTP	58	0	4	B	0	M1
NMTTP	58	0	4	A	0	M1
NMTTP	58	192	0	E	0	M1
NMTTP	58	204	1	E	0	M1
NMTTP	58	216	2	E	0	M1
NMTTP	58	228	3	E	0	M1
NMTTP	58	240	4	E	0	M1
NMTTP	58	252	5	E	0	M1
NMTTP	58	264	6	E	0	M1
NMTTP	58	276	7	E	0	M1
NMTTP	58	288	0	E	0	M1
EXSTR	59	0	1
NMSCR	59	0	1	96	96	4
NMTAP	59	96	0
EXSTR	59	192	7
NMSCR	59	192	7	96	96	2
NMTAP	59	288	6
EXSTR	60	0	5
NMSCR	60	0	5	96	96	0
NMTAP	60	96	4
EXSTR	60	192	3
NMSCR	60	192	3	96	96	6
NMTAP	60	288	2
NMTAP	61	0	1
NMTAP	61	96	0
NMTAP	61	192	7
NMTAP	61	288	6
NMTAP	62	0	5
NMTAP	62	32	4
NMTAP	62	64	6
NMTAP	62	96	2
NMTAP	62	128	3
NMTAP	62	160	1
NMTAP	62	192	6
NMTAP	62	224	4
NMTAP	62	256	5
NMTAP	62	288	1
NMTAP	62	320	3
NMTAP	62	352	2
EXSTR	63	0	6
NMSCL	63	0	6	96	96	3
NMTAP	63	96	7
EXSTR	63	192	0
NMSCL	63	192	0	96	96	5
NMTAP	63	288	1
EXSTR	64	0	2
NMSCL	64	0	2	96	96	7
NMTAP	64	96	3
EXSTR	64	192	4
NMSCL	64	192	4	96	96	1
NMSTR	64	288	5
NMSXL	64	288	5	96	288	3
NMTTP	66	0	2	E	0	M1
NMTTP	66	12	2	B	0	M1
NMTTP	66	24	3	B	0	M1
NMTTP	66	36	4	E	0	M1
NMTTP	66	48	6	E	0	M1
NMTTP	66	60	5	B	0	M1
NMTTP	66	72	4	B	0	M1
NMTTP	66	84	4	E	0	M1
NMTHO	66	96	0	96	C	0	M1
EXTAP	67	0	0
NMTAP	67	48	0
NMTAP	67	72	7
EXTAP	67	96	0
NMTAP	67	144	0
NMTAP	67	168	7
EXTAP	67	192	0
NMTAP	67	240	0
NMTAP	67	240	7
EXTAP	67	288	0
NMTAP	67	288	7
NMTAP	67	336	0
EXTAP	68	0	0
NMTAP	68	24	7
NMTAP	68	48	0
NMTAP	68	72	7
EXTAP	68	96	0
NMTAP	68	144	0
EXTAP	68	192	0
NMTAP	68	240	0
NMTAP	68	240	7
EXTAP	68	288	0
NMTAP	68	288	7
NMTAP	68	336	0
EXTAP	69	0	0
NMTAP	69	48	0
NMTAP	69	72	7
EXTAP	69	96	0
NMTAP	69	144	0
NMTAP	69	168	7
EXTAP	69	192	0
NMTAP	69	240	0
NMTAP	69	240	7
EXSTR	69	288	0
NMSLL	69	288	0	96	96	4
NMSTR	69	288	7
NMSLR	69	288	7	96	96	3
NMTAP	69	336	0
NMTAP	69	336	7
NMTAP	70	192	3
NMTAP	70	192	4
NMTAP	70	240	3
NMTAP	70	240	4
BXTAP	70	288	2
BXTAP	70	288	5
NMTAP	71	0	3
NMTAP	71	48	3
NMTAP	71	96	3
NMTAP	71	120	4
NMTAP	71	168	4
NMTAP	71	192	2
NMTAP	71	240	2
NMTAP	71	288	2
NMTAP	71	336	2
NMTAP	71	360	4
NMTAP	72	0	3
NMTAP	72	48	3
NMTAP	72	96	3
NMTAP	72	120	5
NMTAP	72	168	5
NMTAP	72	192	3
NMTAP	72	240	3
NMTAP	72	288	3
NMTAP	72	336	3
NMTAP	72	360	5
NMTAP	73	0	2
NMTAP	73	24	6
NMTAP	73	48	2
NMTAP	73	72	6
NMTAP	73	96	2
NMTAP	73	120	6
NMTAP	73	144	2
NMTAP	73	168	6
EXTAP	73	192	1
EXTAP	73	208	7
EXTAP	73	224	1
EXTAP	73	240	7
EXTAP	73	256	1
EXTAP	73	272	7
EXSTR	73	288	0
NMSUL	73	288	0	96	96	7
EXTAP	73	304	6
EXTAP	73	320	0
EXTAP	73	336	6
EXTAP	73	352	0
EXTAP	73	368	6
EXTAP	74	0	0
EXSTR	74	192	0
NMSI_	74	192	0	96	48	3
EXSTR	74	192	7
NMSI_	74	192	7	96	48	4
BRTAP	74	288	0
BRTAP	74	288	7
NMSTR	75	0	1
NMSI_	75	0	1	96	48	5
NMTAP	75	96	7
CNSI_	75	144	5	0	48	3
NMTAP	75	144	7
NMSTR	75	192	6
NMSI_	75	192	6	96	48	2
NMSTR	75	288	1
NMSCL	75	288	1	96	48	6
NMTAP	75	336	1
CNSI_	75	336	2	0	48	4
NMSTR	76	0	1
NMSI_	76	0	1	96	48	5
EXHLD	76	96	6	96
NMSTR	76	192	4
NMSI_	76	192	4	96	48	7
NMSTR	76	240	3
NMSI_	76	240	3	96	48	0
NMTAP	76	288	4
NMTAP	76	336	3
NMTAP	77	0	7
EXTAP	77	96	1
EXTAP	77	96	5
NMTAP	77	144	4
NMTAP	77	168	4
NMTAP	77	192	2
NMTAP	77	216	4
NMTAP	77	240	2
NMTAP	77	264	5
NMTAP	77	288	3
NMTAP	77	312	5
NMTAP	77	336	2
NMTAP	77	360	4
NMSTR	78	0	1
NMSI_	78	0	1	96	48	5
NMTAP	78	48	0
NMTAP	78	96	1
NMSTR	78	96	6
NMSI_	78	96	6	96	48	3
NMTAP	78	144	7
NMSTR	78	192	2
NMSI_	78	192	2	96	48	0
NMTAP	78	192	6
NMTAP	78	240	1
NMTAP	78	288	2
NMSTR	78	288	4
NMSI_	78	288	4	96	48	2
NMSI_	78	288	4	96	48	6
NMTAP	79	0	4
NMTAP	79	96	2
NMTAP	79	120	2
NMTAP	79	168	1
NMTAP	79	168	3
NMTAP	79	216	5
NMTAP	79	240	4
NMTAP	79	288	4
NMTAP	79	312	6
NMTAP	79	360	1
NMTAP	80	0	0
NMTAP	80	48	2
NMTAP	80	48	3
NMSTR	80	96	3
NMSCL	80	96	3	96	48	0
NMTAP	80	96	4
NMSTR	80	192	3
NMSCR	80	192	3	96	48	6
NMTAP	80	240	5
NMSTR	80	288	3
NMSLL	80	288	3	96	72	7
CNSXL	81	72	7	0	168	2
NMHLD	81	144	4	144
NMTAP	82	0	3
NMTAP	82	24	3
NMTAP	82	48	5
NMTAP	82	72	5
NMTAP	82	120	4
NMTAP	82	120	5
NMTAP	82	168	6
NMSTR	82	192	6
NMSI_	82	192	6	96	48	2
NMTAP	82	240	0
NMTAP	82	240	7
BRTAP	82	288	6
NMTAP	83	0	1
NMTAP	83	0	3
NMTAP	83	48	1
NMTAP	83	72	0
NMTAP	83	120	6
NMTAP	83	120	7
NMTAP	83	168	5
NMTAP	83	192	4
NMSTR	83	240	2
NMSCL	83	240	2	96	48	0
NMTAP	83	288	2
NMTAP	83	336	3
NMTAP	84	24	5
NMTAP	84	48	5
NMTAP	84	96	6
NMTAP	84	120	7
NMTAP	84	168	1
NMSTR	84	192	0
NMSI_	84	192	0	96	48	3
NMSI_	84	192	0	96	48	5
NMTAP	84	240	2
NMTAP	84	240	6
NMTAP	85	24	4
NMTAP	85	72	3
NMTAP	85	72	5
NMTAP	85	120	2
NMTAP	85	120	6
NMTAP	85	168	1
NMSTR	85	192	0
NMSCR	85	192	0	96	48	3
NMTAP	85	240	0
NMTAP	85	288	7
NMTAP	85	336	7
NMHLD	86	24	3	72
NMTAP	86	24	5
NMTAP	86	96	5
NMTAP	86	144	2
NMTAP	86	144	6
NMTAP	86	192	1
NMTAP	86	192	5
NMTAP	86	240	0
NMTAP	86	240	4
NMSTR	86	288	3
BRSI_	86	288	3	96	48	6
NMSTR	86	288	7
BRSI_	86	288	7	96	48	2
EXTAP	87	0	3
EXTAP	87	0	7
EXTAP	87	96	1
EXTAP	87	96	5
NMTAP	87	168	0
NMTAP	87	192	0
NMTAP	87	216	6
NMTAP	87	240	7
NMTAP	87	264	5
NMTAP	87	288	0
NMTAP	87	312	6
NMTAP	87	336	1
NMTAP	87	360	7
NMTAP	88	0	2
NMTAP	88	24	0
NMTAP	88	48	1
NMTAP	88	72	7
NMTAP	88	96	0
NMTAP	88	120	6
NMTAP	88	144	7
NMTAP	88	168	5
NMTAP	88	192	0
NMTAP	88	216	6
NMTAP	88	240	1
NMTAP	88	264	7
BRTAP	88	288	2
NMTAP	89	0	5
NMTAP	89	24	4
NMTAP	89	48	6
NMTAP	89	72	3
EXTAP	89	96	5
EXTAP	89	120	5
NMTAP	89	144	2
NMTAP	89	168	3
NMTAP	89	192	1
NMTAP	89	216	4
EXTAP	89	240	2
EXTAP	89	264	2
NMSTR	89	288	6
NMSCL	89	288	6	96	144	0
NMTAP	89	336	0
NMTAP	89	336	7
NMTTP	90	0	0	C	1	M1
NMSTR	90	288	0
NMSCR	90	288	0	96	96	3
NMTAP	90	288	7
NMTTP	91	0	5	B	0	M1
NMTTP	91	0	6	E	0	M1
NMSTR	91	96	0
NMSCL	91	96	0	96	96	5
NMTTP	91	192	3	B	0	M1
NMTTP	91	192	3	E	0	M1
NMSTR	91	288	0
NMSCR	91	288	0	96	96	3
NMTTP	92	0	5	B	0	M1
NMTTP	92	0	6	E	0	M1
NMTAP	92	96	0
NMTTP	92	192	3	B	0	M1
NMTTP	92	192	3	E	0	M1
NMSTR	92	288	7
NMSCL	92	288	7	96	96	4
NMTTP	93	0	2	B	0	M1
NMTTP	93	0	2	E	0	M1
NMSTR	93	96	7
NMSCR	93	96	7	96	96	2
NMTTP	93	192	4	B	0	M1
NMTTP	93	192	5	E	0	M1
NMSTR	93	288	7
NMSCL	93	288	7	96	96	4
NMTTP	94	0	2	B	0	M1
NMTTP	94	0	2	E	0	M1
NMTAP	94	96	7
NMTTP	94	192	4	B	0	M1
NMTTP	94	192	5	E	0	M1
NMSTR	94	288	3
NMSCL	94	288	3	96	96	0
NMTTP	95	0	6	B	0	M1
NMTTP	95	0	6	E	0	M1
NMSTR	95	96	3
NMSCR	95	96	3	96	96	6
NMTTP	95	192	0	B	0	M1
NMTTP	95	192	1	E	0	M1
NMSTR	95	288	3
NMSCL	95	288	3	96	96	0
NMTTP	96	0	6	B	0	M1
NMTTP	96	0	6	E	0	M1
NMTAP	96	96	3
NMTTP	96	192	0	B	0	M1
NMTTP	96	192	1	E	0	M1
NMSTR	96	288	4
NMSCR	96	288	4	96	96	7
NMTTP	97	0	1	B	0	M1
NMTTP	97	0	2	E	0	M1
NMSTR	97	96	4
NMSCL	97	96	4	96	96	1
NMTTP	97	192	7	B	0	M1
NMTTP	97	192	7	E	0	M1
NMSTR	97	288	4
NMSCR	97	288	4	96	96	7
NMTTP	98	0	1	B	0	M1
NMTTP	98	0	2	E	0	M1
NMTAP	98	96	4
NMTAP	98	192	5
NMTAP	98	240	4
NMSTR	98	288	3
NMSCR	98	288	3	96	48	5
NMTAP	98	336	2
EXTAP	99	0	1

T_REC_TAP	494
T_REC_BRK	22
T_REC_XTP	64
T_REC_BXX	6
T_REC_HLD	40
T_REC_XHO	29
T_REC_BHO	0
T_REC_BXH	0
T_REC_STR	51
T_REC_BST	2
T_REC_XST	17
T_REC_XBS	0
T_REC_TTP	128
T_REC_THO	4
T_REC_SLD	71
T_REC_BSL	3
T_REC_ALL	931
T_NUM_TAP	754
T_NUM_BRK	33
T_NUM_HLD	73
T_NUM_SLD	71
T_NUM_ALL	931
T_JUDGE_TAP	784
T_JUDGE_HLD	139
T_JUDGE_SLD	74
T_JUDGE_ALL	997
TTM_EACHPAIRS	115
TTM_SCR_TAP	377000
TTM_SCR_BRK	85800
TTM_SCR_HLD	73000
TTM_SCR_SLD	106500
TTM_SCR_ALL	642300
TTM_SCR_S	619850
TTM_SCR_SS	639000
TTM_RAT_ACV	10051

