VERSION	0.00.00	1.04.00
FES_MODE	0
BPM_DEF	170.000	170.000	170.000	170.000
MET_DEF	4	4
RESOLUTION	384
CLK_DEF	384
COMPATIBLE_CODE	MA2

BPM	0	0	170.000
MET	0	0	4	4

NMTAP	1	0	3
NMTAP	1	96	3
NMTAP	1	192	3
BRTAP	1	288	3
BRTAP	1	288	4
NMSTR	2	0	2
NMSCL	2	0	2	96	144	7
NMHLD	2	0	3	192
NMHLD	3	0	4	192
NMSTR	3	0	5
NMSCR	3	0	5	96	144	0
NMHLD	4	0	0	192
NMSTR	4	0	1
NMSCR	4	0	1	96	144	4
NMSTR	5	0	6
NMSCL	5	0	6	96	144	3
NMHLD	5	0	7	192
NMTAP	6	0	2
NMTAP	6	96	2
NMTAP	6	96	3
NMTAP	6	192	5
NMTAP	6	288	4
NMTAP	6	288	5
NMTAP	7	0	2
NMTAP	7	96	1
NMTAP	7	96	3
NMTAP	7	192	5
NMTAP	7	288	4
NMTAP	7	288	6
NMTAP	8	0	3
NMTAP	8	48	3
NMTAP	8	96	4
NMTAP	8	144	4
NMTAP	8	192	2
NMTAP	8	240	2
NMTAP	8	288	5
NMTAP	8	336	5
NMHLD	9	0	0	192
EXTAP	9	192	6
BXTAP	9	288	2
BXTAP	9	288	4
NMHLD	10	0	5	72
NMHLD	10	72	6	72
NMHLD	10	144	7	72
NMTAP	10	216	0
EXTAP	10	288	0
NMHLD	11	0	2	72
NMHLD	11	72	1	72
NMHLD	11	144	0	72
NMTAP	11	216	7
EXTAP	11	288	7
NMHLD	12	0	0	72
NMHLD	12	72	1	72
NMHLD	12	144	2	72
NMTAP	12	216	3
EXTAP	12	288	3
NMHLD	13	0	7	72
NMHLD	13	72	6	72
NMHLD	13	144	5	72
NMTAP	13	216	4
EXTAP	13	288	3
EXTAP	13	288	4
BXHLD	14	0	2	48
BXHLD	14	0	4	48
BXHLD	14	96	2	48
BXHLD	14	96	4	48
BXSTR	14	192	2
NMSI_	14	192	2	96	48	4
BXTAP	14	192	4
BXSTR	15	0	6
NMSI_	15	0	6	96	48	2
BXHLD	15	192	1	96
NMTTP	15	288	2	B	0	M1
NMTTP	15	288	3	B	0	M1
NMTTP	15	288	3	E	0	M1
BXTAP	16	0	0
BXTAP	16	0	1
BXTAP	16	96	6
BXTAP	16	96	7
BXTAP	16	192	4
BXTAP	16	192	5
BXTAP	16	288	2
BXSTR	16	288	3
NMSV_	16	288	3	96	144	0
NMSV_	16	288	3	96	144	6
EXTAP	17	288	1
EXTAP	17	288	5
NMTAP	18	0	2
NMHLD	18	96	2	576
NMTTP	18	288	2	B	0	M1
NMTTP	18	288	3	B	0	M1
NMTTP	19	96	4	B	0	M1
NMTTP	19	96	5	B	0	M1
NMTAP	19	288	3
NMTAP	20	0	4
NMTAP	20	96	3
NMHLD	20	96	5	576
NMTTP	20	288	4	B	0	M1
NMTTP	20	288	5	B	0	M1
NMTTP	21	96	2	B	0	M1
NMTTP	21	96	3	B	0	M1
NMTAP	21	288	4
NMTAP	22	0	3
NMSTR	22	0	6
NMSCR	22	0	6	96	144	1
NMTAP	22	288	2
NMSTR	23	0	2
NMSCR	23	0	2	96	144	5
NMTAP	23	0	7
NMTAP	23	288	6
NMTAP	24	0	5
NMTAP	24	48	5
NMTAP	24	96	3
NMTAP	24	144	3
NMTAP	24	192	4
NMTAP	24	240	4
NMTAP	24	288	2
NMSTR	24	336	2
NMSXR	24	336	2	96	192	4
NMTAP	26	0	5
NMTAP	26	96	4
NMTAP	26	96	6
NMTAP	26	192	7
NMTAP	26	240	7
NMTAP	26	288	1
NMTAP	26	288	7
NMTAP	27	0	2
NMTAP	27	96	1
NMTAP	27	96	3
NMTAP	27	192	0
NMTAP	27	240	0
NMTAP	27	288	0
NMTAP	27	288	6
NMTAP	28	0	5
NMTAP	28	96	4
NMTAP	28	96	6
NMTAP	28	192	7
NMTAP	28	240	7
NMTAP	28	288	0
NMTAP	28	288	6
NMTAP	29	0	2
NMTAP	29	96	1
NMTAP	29	96	3
NMTAP	29	192	0
NMTAP	29	240	0
NMTAP	29	288	1
NMTAP	29	288	7
NMHLD	30	0	6	96
NMHLD	30	96	5	96
NMHLD	30	192	4	96
NMHLD	30	288	3	96
NMHLD	31	0	2	96
NMHLD	31	96	1	96
NMHLD	31	192	0	96
NMTAP	31	288	1
NMTAP	32	0	7
NMTAP	32	48	7
NMTAP	32	96	7
NMTAP	32	192	0
NMTAP	32	192	6
NMSTR	32	288	1
NMSI_	32	288	1	96	48	4
NMSTR	32	288	7
NMSI_	32	288	7	96	48	4
BRTAP	33	288	2
BRTAP	33	288	5
EXTAP	34	0	3
EXTAP	34	48	3
NMTAP	34	96	4
NMTAP	34	144	4
NMTAP	34	192	1
NMTAP	34	240	1
EXTAP	34	288	0
EXTAP	34	288	1
EXTAP	35	0	7
EXTAP	35	48	7
NMTAP	35	96	1
NMTAP	35	144	1
NMTAP	35	192	5
NMTAP	35	240	5
EXTAP	35	288	4
EXTAP	35	288	5
EXTAP	36	0	3
EXTAP	36	48	3
NMTAP	36	96	5
NMTAP	36	144	5
NMTAP	36	192	1
NMTAP	36	240	1
EXTAP	36	288	1
EXTAP	36	288	7
NMTAP	37	0	5
NMTAP	37	48	5
NMTAP	37	96	0
NMTAP	37	144	0
NMTAP	37	192	7
NMTAP	37	240	7
EXTAP	37	288	2
EXTAP	37	288	7
NMTAP	38	0	3
NMTAP	38	0	5
NMTAP	38	48	3
NMTAP	38	48	5
NMTAP	38	144	0
NMTAP	38	144	1
NMTAP	38	240	5
NMTAP	38	240	6
NMTAP	38	336	2
NMTAP	38	336	3
NMTAP	39	48	6
NMTAP	39	48	7
NMTAP	39	144	1
NMTAP	39	144	4
EXTAP	39	240	3
EXTAP	39	240	6
EXTAP	39	288	3
EXTAP	39	288	6
NMTAP	40	0	1
NMTAP	40	48	1
NMTAP	40	96	3
NMTAP	40	144	2
NMTAP	40	192	5
NMTAP	40	240	5
EXSTR	40	288	4
NMSCL	40	288	4	96	144	1
EXSTR	40	288	5
NMSCR	40	288	5	96	144	0
BXTAP	41	288	7
NMSTR	42	0	6
NMSI_	42	0	6	96	48	2
NMTAP	42	96	0
NMSTR	42	192	1
NMSI_	42	192	1	96	48	5
NMTAP	42	288	7
NMTAP	43	0	6
NMTAP	43	48	6
NMTAP	43	96	4
NMTAP	43	96	6
NMTAP	43	192	2
NMTAP	43	192	3
BRTAP	43	288	0
BRTAP	43	288	1
NMSTR	44	0	6
NMSI_	44	0	6	96	48	2
NMSTR	44	0	7
NMSI_	44	0	7	96	48	3
EXTAP	44	192	1
EXTAP	44	192	4
NMTAP	44	288	2
NMTAP	44	288	5
NMTAP	45	0	3
NMHLD	45	0	6	96
NMTAP	45	96	3
EXTAP	45	192	2
EXTAP	45	192	3
EXTAP	45	264	2
EXTAP	45	264	3
EXTAP	45	336	1
EXTAP	45	336	4
BXSTR	46	0	1
NMSI_	46	0	1	96	48	5
BXTAP	46	0	4
NMTAP	46	96	7
NMSTR	46	192	6
NMSI_	46	192	6	96	48	2
NMTAP	46	288	0
NMTAP	47	0	1
NMTAP	47	48	1
NMTAP	47	96	1
NMTAP	47	96	3
NMTAP	47	192	0
NMTAP	47	288	0
NMTAP	47	288	7
NMSTR	48	0	6
NMSI_	48	0	6	96	48	3
NMHLD	48	192	2	72
NMHLD	48	264	1	72
NMTAP	48	336	0
NMSTR	49	0	0
NMSI_	49	0	0	96	48	4
EXTAP	49	192	5
EXTAP	49	240	5
EXTAP	49	288	3
EXTAP	49	288	5
NMTTP	50	0	0	C	1	M1
NMTTP	50	0	2	B	0	M1
NMTTP	50	0	3	B	0	M1
NMTTP	50	0	5	B	0	M1
NMTTP	50	0	6	B	0	M1
NMSTR	51	0	1
NMSCL	51	0	1	96	288	6
NMSTR	52	0	5
NMSCL	52	0	5	96	288	2
NMSTR	53	0	1
NMSCL	53	0	1	96	288	6
NMTTP	54	0	4	B	0	M1
NMTTP	54	0	5	B	0	M1
NMTTP	55	0	7	E	0	M1
NMTTP	55	96	0	C	0	M1
NMTTP	55	192	3	E	0	M1
NMTTP	55	288	2	A	0	M1
NMTTP	55	288	3	A	0	M1
NMTTP	56	0	1	E	0	M1
NMTTP	56	96	0	C	0	M1
NMTTP	56	192	5	E	0	M1
NMTTP	56	288	4	A	0	M1
NMTTP	56	288	5	A	0	M1
NMTHO	57	0	0	384	C	1	M1
NMSTR	59	0	0
NMSI_	59	0	0	96	96	4
NMSTR	59	192	5
NMSI_	59	192	5	96	96	0
NMSTR	60	0	1
NMSI_	60	0	1	96	96	5
NMSTR	60	192	6
NMSI_	60	192	6	96	96	2
NMSTR	61	0	1
NMSCR	61	0	1	96	96	4
NMSTR	61	192	5
NMSCR	61	192	5	96	96	0
NMHLD	62	0	1	288
EXTAP	62	192	3
EXTAP	62	240	3
EXTAP	62	288	3
NMSTR	63	0	2
NMSCR	63	0	2	96	96	5
NMSTR	63	192	6
NMSCR	63	192	6	96	96	1
NMSTR	64	0	2
NMSCR	64	0	2	96	96	5
NMHLD	64	192	7	192
BRSTR	65	0	0
NMSF_	65	0	0	96	144	4
NMHLD	66	0	5	192
NMTTP	66	192	0	C	0	M1
NMTTP	66	192	3	B	0	M1
NMTTP	66	192	4	B	0	M1
NMTAP	67	0	0
NMTAP	67	48	0
NMTAP	67	96	6
NMTAP	67	144	6
NMTAP	67	192	1
NMTAP	67	240	1
NMTAP	67	288	0
NMTAP	67	288	1
NMTAP	68	0	7
NMTAP	68	48	7
NMTAP	68	96	1
NMTAP	68	144	1
NMTAP	68	192	6
NMTAP	68	240	6
NMTAP	68	288	6
NMTAP	68	288	7
NMTAP	69	0	1
NMTAP	69	48	1
NMTAP	69	96	7
NMTAP	69	144	7
NMTAP	69	192	0
NMTAP	69	240	0
NMTAP	69	288	0
NMTAP	69	288	6
NMHLD	70	0	7	288
BRTAP	70	288	0
NMHLD	71	0	6	96
NMHLD	71	96	4	96
NMHLD	71	192	3	96
NMHLD	71	288	1	96
NMHLD	72	0	5	96
NMHLD	72	96	7	96
NMHLD	72	192	0	96
NMTAP	72	288	2
NMTAP	73	0	1
NMTAP	73	0	7
NMTAP	73	96	1
NMTAP	73	96	7
NMTAP	73	192	0
NMTAP	73	192	6
NMTAP	73	288	0
NMTAP	73	288	6
NMHLD	74	0	1	192
NMTAP	74	0	5
NMSTR	74	192	7
NMSI_	74	192	7	96	48	3
EXTAP	74	288	7
BXTAP	75	0	2
NMTAP	75	96	2
NMTAP	75	96	3
NMTAP	75	144	1
NMTAP	75	192	0
NMTAP	75	192	6
NMTAP	75	288	4
NMTAP	75	288	5
NMTAP	75	336	6
EXTAP	76	0	1
EXTAP	76	0	7
EXSTR	76	96	2
NMSCL	76	96	2	96	96	7
EXTAP	76	96	3
NMSTR	76	288	6
NMSCL	76	288	6	96	96	3
NMTAP	77	0	0
NMHLD	77	96	1	96
NMTAP	77	192	3
NMTAP	77	240	3
NMTAP	77	288	2
NMTAP	77	336	2
NMSTR	78	0	4
NMSI_	78	0	4	96	48	1
NMSI_	78	0	4	96	48	7
EXTAP	78	192	0
EXTAP	78	240	0
EXTAP	78	288	0
BRTAP	79	0	1
BRTAP	79	0	5
NMTAP	79	96	2
NMTAP	79	96	3
NMTAP	79	192	4
NMTAP	79	192	5
NMSTR	79	288	2
NMSCL	79	288	2	96	96	7
NMSTR	79	288	6
NMSCL	79	288	6	96	96	3
EXTAP	80	192	3
EXTAP	80	192	7
EXTAP	80	288	0
EXTAP	80	288	4
NMHLD	81	0	1	96
NMTAP	81	0	5
NMSTR	81	96	6
NMSCR	81	96	6	96	192	3
EXTAP	82	0	0
EXTAP	82	48	0
EXTAP	82	96	0
EXTAP	82	96	4
NMTAP	82	192	1
NMTAP	82	192	3
BRTAP	82	288	2
BRTAP	82	288	7
EXTAP	83	0	6
EXTAP	83	48	6
NMTAP	83	96	4
NMTAP	83	144	4
NMTAP	83	192	7
NMTAP	83	240	7
NMTAP	83	288	3
NMTAP	83	288	6
EXTAP	84	0	1
EXTAP	84	48	1
NMTAP	84	96	3
NMTAP	84	144	3
NMTAP	84	192	0
NMTAP	84	240	0
NMTAP	84	288	1
NMTAP	84	288	4
EXTAP	85	0	5
EXTAP	85	48	5
NMTAP	85	96	0
NMTAP	85	144	0
NMTAP	85	192	6
NMTAP	85	240	6
EXTAP	85	288	4
EXTAP	85	288	5
EXTAP	86	0	2
EXTAP	86	48	2
NMTAP	86	96	7
NMTAP	86	144	7
NMTAP	86	192	1
NMTAP	86	240	1
BXTAP	86	288	2
BXTAP	86	288	3
NMHLD	87	0	6	96
NMTAP	87	96	4
NMTAP	87	192	3
NMTAP	87	192	5
NMTAP	87	264	2
NMTAP	87	264	4
NMTAP	87	336	1
NMTAP	87	336	3
NMTAP	88	0	1
NMHLD	88	0	3	96
NMTAP	88	96	0
NMTAP	88	192	1
NMTAP	88	192	4
NMTAP	88	264	2
NMTAP	88	264	5
NMTAP	88	336	3
NMTAP	88	336	6
NMTAP	89	0	3
NMSTR	89	0	6
NMSI_	89	0	6	96	48	2
NMSTR	89	96	1
NMSI_	89	96	1	96	48	5
NMSTR	89	192	7
NMSI_	89	192	7	96	48	3
NMSTR	89	288	0
NMSCR	89	288	0	96	288	6
NMSTR	90	288	7
NMSSR	90	288	7	96	480	3
BXTAP	91	0	0
NMTAP	92	288	2
NMSTR	92	288	3
NMSSR	92	288	3	96	480	7
EXTAP	94	192	0
NMTAP	95	0	0
NMHLD	95	0	7	384
NMHLD	96	0	4	384
NMTAP	97	0	5
NMTAP	97	96	5
NMTAP	97	192	4
NMTAP	97	288	4
NMTAP	98	0	3
NMTAP	98	96	3
NMTAP	98	192	2
NMTAP	98	192	4
NMTAP	98	240	2
NMTAP	98	240	4
NMSTR	98	288	2
NMSCR	98	288	2	96	96	5
NMHLD	98	288	4	96

T_REC_TAP	239
T_REC_BRK	11
T_REC_XTP	67
T_REC_BXX	16
T_REC_HLD	48
T_REC_XHO	0
T_REC_BHO	0
T_REC_BXH	5
T_REC_STR	41
T_REC_BST	1
T_REC_XST	3
T_REC_XBS	4
T_REC_TTP	31
T_REC_THO	1
T_REC_SLD	51
T_REC_BSL	0
T_REC_ALL	518
T_NUM_TAP	381
T_NUM_BRK	37
T_NUM_HLD	49
T_NUM_SLD	51
T_NUM_ALL	518
T_JUDGE_TAP	413
T_JUDGE_HLD	166
T_JUDGE_SLD	51
T_JUDGE_ALL	630
TTM_EACHPAIRS	101
TTM_SCR_TAP	190500
TTM_SCR_BRK	96200
TTM_SCR_HLD	49000
TTM_SCR_SLD	76500
TTM_SCR_ALL	412200
TTM_SCR_S	396250
TTM_SCR_SS	408500
TTM_RAT_ACV	10090

