VERSION	0.00.00	1.04.00
FES_MODE	0
BPM_DEF	170.000	170.000	170.000	170.000
MET_DEF	4	4
RESOLUTION	384
CLK_DEF	384
COMPATIBLE_CODE	MA2

BPM	0	0	170.000
MET	0	0	4	4

NMTAP	2	0	3
NMTAP	2	96	3
NMTAP	2	192	3
NMTAP	3	0	2
NMTAP	3	0	3
NMTAP	3	96	2
NMTAP	3	96	3
NMTAP	3	192	2
NMTAP	3	192	3
NMTAP	4	0	1
NMTAP	4	96	1
NMTAP	4	192	1
NMTAP	5	0	0
NMTAP	5	0	1
NMTAP	5	96	0
NMTAP	5	96	1
NMTAP	5	192	0
NMTAP	5	192	1
NMTAP	6	0	7
NMTAP	6	96	7
NMTAP	6	192	7
NMTAP	7	0	6
NMTAP	7	0	7
NMTAP	7	96	6
NMTAP	7	96	7
NMTAP	7	192	6
NMTAP	7	192	7
NMTAP	8	0	5
NMTAP	8	96	5
NMTAP	8	192	5
NMTAP	9	0	3
NMTAP	9	0	4
NMTAP	9	96	3
NMTAP	9	96	4
EXTAP	9	192	3
EXTAP	9	192	4
NMTAP	10	0	4
NMTAP	10	96	4
NMTAP	10	192	5
NMTAP	10	288	5
NMTAP	11	0	6
NMTAP	11	96	6
NMTAP	11	192	6
NMTAP	11	192	7
NMTAP	12	0	0
NMTAP	12	96	0
NMTAP	12	192	1
NMTAP	12	288	1
NMTAP	13	0	2
NMTAP	13	96	2
NMTAP	13	192	2
NMTAP	13	192	3
EXTAP	14	0	3
EXTAP	14	0	4
EXTAP	14	96	3
EXTAP	14	96	4
EXTAP	14	192	3
EXTAP	14	192	4
NMTAP	15	0	2
NMTAP	15	0	5
NMTAP	15	192	2
NMTAP	15	192	5
NMTAP	16	0	3
NMTAP	16	96	3
NMTAP	16	192	4
NMTAP	16	288	4
NMHLD	17	0	3	192
NMHLD	17	0	4	192
NMHLD	18	0	2	192
NMTAP	18	192	3
NMTAP	19	0	1
NMTAP	19	96	1
NMTAP	19	192	0
NMTAP	19	192	1
NMHLD	20	0	6	192
NMTAP	20	192	7
NMTAP	21	0	4
NMTAP	21	0	5
NMTAP	21	96	4
NMTAP	21	96	5
NMTAP	21	192	4
NMTAP	21	192	5
NMHLD	22	0	5	192
NMTAP	22	192	4
NMTAP	23	0	6
NMTAP	23	96	6
NMTAP	23	192	6
NMTAP	23	192	7
NMHLD	24	0	1	192
NMTAP	24	192	0
NMTAP	25	0	2
NMTAP	25	0	3
NMTAP	25	96	2
NMTAP	25	96	3
NMTAP	25	192	2
NMTAP	25	192	3
NMTAP	26	0	2
NMTAP	26	96	2
NMTAP	26	192	3
NMTAP	26	288	3
NMTAP	27	0	4
NMTAP	27	96	4
NMTAP	27	192	4
NMTAP	27	192	5
NMTAP	28	0	5
NMTAP	28	96	5
NMTAP	28	192	4
NMTAP	28	288	4
NMTAP	29	0	3
NMTAP	29	96	3
NMTAP	29	192	2
NMTAP	29	192	3
NMTAP	30	0	1
NMTAP	30	96	1
NMTAP	30	192	0
NMTAP	30	288	0
NMTAP	31	0	7
NMTAP	31	96	7
NMTAP	31	192	6
NMTAP	31	192	7
NMTAP	32	0	6
NMTAP	32	96	6
NMTAP	32	192	7
NMTAP	32	288	7
NMTAP	33	0	0
NMTAP	33	96	0
EXTAP	33	192	0
EXTAP	33	192	7
NMTTP	34	0	1	B	0	L1
NMTTP	34	96	2	B	0	L1
NMTTP	34	192	3	B	0	L1
NMTTP	35	0	6	B	0	L1
NMTTP	35	96	5	B	0	L1
NMTTP	35	192	4	B	0	L1
NMTTP	36	0	1	B	0	L1
NMTTP	36	96	2	B	0	L1
NMTTP	36	192	3	B	0	L1
NMTTP	36	288	4	B	0	L1
NMTTP	37	0	5	B	0	L1
NMTTP	37	96	6	B	0	L1
NMTTP	37	192	0	C	0	L1
NMTTP	38	0	7	E	0	L1
NMTTP	38	96	6	B	0	L1
NMTTP	38	192	4	B	0	L1
NMTTP	38	192	5	B	0	L1
NMTTP	39	0	1	E	0	L1
NMTTP	39	96	1	B	0	L1
NMTTP	39	192	2	B	0	L1
NMTTP	39	192	3	B	0	L1
NMTTP	40	0	5	B	0	L1
NMTTP	40	96	4	B	0	L1
NMTTP	40	192	3	B	0	L1
NMTTP	40	288	2	B	0	L1
NMTTP	41	0	0	C	1	L1
NMTAP	42	0	0
NMTAP	42	96	0
NMTAP	42	192	0
NMTAP	42	192	1
NMTAP	42	288	0
NMTAP	42	288	1
NMTAP	43	0	2
NMTAP	43	96	2
NMTAP	43	192	2
NMTAP	43	192	3
NMTAP	43	288	2
NMTAP	43	288	3
NMTAP	44	0	4
NMTAP	44	96	4
NMTAP	44	192	4
NMTAP	44	192	5
NMTAP	44	288	4
NMTAP	44	288	5
NMTAP	45	0	6
NMTAP	45	96	6
NMTAP	45	192	6
NMTAP	45	192	7
NMTAP	46	0	7
NMTAP	46	96	7
NMTAP	46	192	6
NMTAP	46	192	7
NMTAP	46	288	6
NMTAP	46	288	7
NMTAP	47	0	5
NMTAP	47	96	5
NMTAP	47	192	4
NMTAP	47	192	5
NMTAP	47	288	4
NMTAP	47	288	5
NMTAP	48	0	3
NMTAP	48	96	3
NMTAP	48	192	2
NMTAP	48	192	3
NMTAP	48	288	2
NMTAP	48	288	3
NMTAP	49	0	1
NMTAP	49	96	1
NMTAP	49	192	0
NMTAP	49	192	1
NMTAP	49	288	0
NMTAP	49	288	1
BRTAP	50	0	0
BRTAP	50	0	1
NMSTR	51	0	7
NMSI_	51	0	7	96	192	3
NMSTR	52	0	1
NMSI_	52	0	1	96	192	5
NMSTR	53	0	6
NMSI_	53	0	6	96	192	2
EXHLD	54	0	1	192
NMSTR	55	0	0
NMSI_	55	0	0	96	192	4
NMSTR	56	0	6
NMSI_	56	0	6	96	192	2
NMSTR	57	0	1
NMSI_	57	0	1	96	192	5
EXTAP	58	0	6
NMTAP	58	192	0
NMTAP	58	192	7
NMHLD	59	0	6	192
NMHLD	59	192	5	192
NMHLD	60	0	4	192
NMHLD	60	192	3	192
NMHLD	61	0	2	192
NMHLD	61	192	1	192
NMTAP	62	0	0
NMHLD	63	0	1	192
NMHLD	63	192	2	192
NMHLD	64	0	3	192
NMHLD	64	192	4	192
NMHLD	65	0	5	192
NMHLD	65	192	6	192
NMTAP	66	0	7
NMTTP	67	0	6	B	0	L1
NMTTP	67	96	5	B	0	L1
NMTTP	67	192	4	B	0	L1
NMTTP	67	288	3	B	0	L1
NMTTP	68	0	2	B	0	L1
NMTTP	68	96	1	B	0	L1
NMTTP	68	192	0	C	0	L1
NMTTP	69	0	2	B	0	L1
NMTTP	69	96	3	B	0	L1
NMTTP	69	192	4	B	0	L1
NMTTP	69	288	5	B	0	L1
NMTTP	70	0	0	C	1	L1
NMTAP	71	0	2
NMTAP	71	96	2
NMTAP	71	192	2
NMTAP	71	288	2
NMTAP	72	0	3
NMTAP	72	96	3
NMTAP	72	192	3
NMTAP	72	288	3
NMTAP	73	0	4
NMTAP	73	96	4
NMTAP	73	192	4
NMTAP	73	288	4
NMHLD	74	0	5	192
BRTAP	74	192	4
NMTAP	75	0	6
NMTAP	75	0	7
NMTAP	75	96	6
NMTAP	75	96	7
NMTAP	75	192	5
NMTAP	75	240	5
NMTAP	75	288	5
NMTAP	76	0	4
NMTAP	76	48	4
NMTAP	76	96	4
NMTAP	76	192	2
NMTAP	76	192	3
NMTAP	76	288	2
NMTAP	76	288	3
NMTAP	77	0	0
NMTAP	77	0	1
NMTAP	77	96	0
NMTAP	77	96	1
NMTAP	77	192	2
NMTAP	77	240	2
NMTAP	77	288	2
NMTAP	78	0	3
NMTAP	78	48	3
NMTAP	78	96	3
NMTAP	78	192	4
NMTAP	78	192	5
NMTAP	78	288	4
NMTAP	78	288	5
NMTAP	79	0	6
NMTAP	79	0	7
NMTAP	79	96	6
NMTAP	79	96	7
NMTAP	79	192	5
NMTAP	79	240	5
NMTAP	79	288	5
NMTAP	80	0	4
NMTAP	80	48	4
NMTAP	80	96	4
NMTAP	80	192	2
NMTAP	80	192	3
NMTAP	80	288	2
NMTAP	80	288	3
NMTAP	81	0	0
NMTAP	81	0	1
NMTAP	81	96	0
NMTAP	81	96	1
NMTAP	81	192	2
NMTAP	81	240	2
NMTAP	81	288	2
NMTAP	82	0	3
NMTAP	82	48	3
NMTAP	82	96	3
NMTAP	82	192	4
NMTAP	82	192	5
NMTAP	82	288	4
NMTAP	82	288	5
NMTAP	83	0	6
NMTAP	83	96	6
NMTAP	83	96	7
NMTAP	83	192	5
NMTAP	83	288	4
NMTAP	83	288	5
NMTAP	84	0	2
NMTAP	84	96	2
NMTAP	84	96	3
NMTAP	84	192	1
NMTAP	84	288	0
NMTAP	84	288	7
NMTAP	85	0	1
NMTAP	85	96	0
NMTAP	85	96	1
NMTAP	85	192	2
NMTAP	85	288	2
NMTAP	85	288	3
NMTAP	86	0	5
NMTAP	86	96	4
NMTAP	86	96	5
NMTAP	86	192	6
NMTAP	86	288	6
NMTAP	86	288	7
NMTAP	87	0	6
NMTAP	87	0	7
NMTAP	87	96	6
NMTAP	87	96	7
NMTAP	87	192	0
NMTAP	87	240	0
NMTAP	87	288	0
NMTAP	88	0	0
NMTAP	88	0	1
NMTAP	88	96	0
NMTAP	88	96	1
NMTAP	88	192	7
NMTAP	88	240	7
NMTAP	88	288	7
NMTAP	89	0	6
NMTAP	89	0	7
NMTAP	89	96	6
NMTAP	89	96	7
NMTAP	89	192	0
NMTAP	89	240	0
NMTAP	89	288	0
NMHLD	90	0	0	192
NMHLD	90	0	7	192
NMSTR	91	0	1
NMSI_	91	0	1	96	192	5
NMSTR	92	0	6
NMSI_	92	0	6	96	192	2
NMSTR	93	0	1
NMSI_	93	0	1	96	192	4
NMHLD	94	0	5	192
NMTAP	94	192	4
NMTAP	95	0	3
NMTAP	95	0	4
NMTAP	95	96	3
NMTAP	95	96	4
NMTAP	95	192	3
NMTAP	95	192	4
NMTAP	96	0	2
NMTAP	96	0	5
NMTAP	96	96	2
NMTAP	96	96	5
NMTAP	96	192	2
NMTAP	96	192	5
NMTAP	97	0	1
NMTAP	97	0	6
NMTAP	97	96	1
NMTAP	97	96	6
NMTAP	97	192	1
NMTAP	97	192	6
NMTAP	98	0	0
NMTAP	98	0	7
NMTAP	98	96	0
NMTAP	98	96	7
NMTAP	98	192	0
NMTAP	98	192	7
NMTTP	99	0	0	C	1	L1

T_REC_TAP	300
T_REC_BRK	3
T_REC_XTP	11
T_REC_BXX	0
T_REC_HLD	22
T_REC_XHO	1
T_REC_BHO	0
T_REC_BXH	0
T_REC_STR	9
T_REC_BST	0
T_REC_XST	0
T_REC_XBS	0
T_REC_TTP	39
T_REC_THO	0
T_REC_SLD	9
T_REC_BSL	0
T_REC_ALL	394
T_NUM_TAP	359
T_NUM_BRK	3
T_NUM_HLD	23
T_NUM_SLD	9
T_NUM_ALL	394
T_JUDGE_TAP	362
T_JUDGE_HLD	92
T_JUDGE_SLD	9
T_JUDGE_ALL	463
TTM_EACHPAIRS	92
TTM_SCR_TAP	179500
TTM_SCR_BRK	7800
TTM_SCR_HLD	23000
TTM_SCR_SLD	13500
TTM_SCR_ALL	223800
TTM_SCR_S	216800
TTM_SCR_SS	223500
TTM_RAT_ACV	10013

