VERSION	0.00.00	1.04.00
FES_MODE	0
BPM_DEF	130.000	130.000	130.000	130.000
MET_DEF	4	4
RESOLUTION	384
CLK_DEF	384
COMPATIBLE_CODE	MA2

BPM	0	0	130.000
MET	0	0	4	4

NMHLD	2	0	0	192
NMSTR	2	0	4
NMSLL	2	0	4	96	96	6
NMTAP	2	288	1
NMTAP	2	288	5
NMSTR	2	360	3
NMSLR	2	360	3	96	72	1
NMHLD	2	360	6	216
CNSI_	3	144	1	0	48	7
NMTAP	3	288	2
NMTAP	3	288	6
NMHLD	3	360	1	216
NMSTR	3	360	4
NMSLL	3	360	4	96	72	6
CNSI_	4	144	6	0	48	0
NMTAP	4	288	1
NMTAP	4	288	5
NMSTR	4	360	3
NMSUR	4	360	3	96	48	5
NMHLD	4	360	7	264
CNSCR	5	120	5	0	120	0
NMTAP	5	288	1
NMTAP	5	288	4
NMTAP	5	360	3
NMHLD	5	360	6	312
NMTAP	6	96	4
NMTAP	6	144	4
NMSTR	6	192	5
NMSI_	6	192	5	96	48	3
NMTAP	6	240	5
NMHLD	6	360	1	312
NMTAP	6	360	4
NMTAP	7	96	3
NMTAP	7	144	3
NMSTR	7	192	2
NMSI_	7	192	2	96	48	4
NMTAP	7	240	2
NMSTR	7	360	3
NMSCL	7	360	3	96	48	0
NMSTR	7	360	6
NMSCL	7	360	6	96	48	3
NMHLD	8	192	1	48
NMHLD	8	192	4	48
NMTAP	8	288	2
NMTAP	8	288	3
NMSTR	8	360	1
NMSCR	8	360	1	96	48	4
NMSTR	8	360	4
NMSCR	8	360	4	96	72	7
CNSUR	9	144	7	0	96	0
NMTAP	9	288	0
NMTAP	9	288	7
NMHLD	9	360	1	312
NMTAP	9	360	5
NMTAP	10	96	3
NMTAP	10	144	3
NMSTR	10	192	2
NMSI_	10	192	2	96	48	4
NMTAP	10	240	2
NMTAP	10	360	3
NMHLD	10	360	6	312
NMTAP	11	96	4
NMTAP	11	144	4
NMSTR	11	192	5
NMSI_	11	192	5	96	48	3
NMTAP	11	240	5
NMSTR	11	360	1
NMSCR	11	360	1	96	48	4
NMSTR	11	360	4
NMSCR	11	360	4	96	48	7
NMHLD	12	192	3	48
NMHLD	12	192	6	48
NMTAP	12	288	4
NMTAP	12	288	5
NMSTR	12	360	3
NMSCL	12	360	3	96	72	0
NMSTR	12	360	6
NMSCL	12	360	6	96	48	3
CNSUL	13	144	0	0	96	7
NMTAP	13	288	0
NMTAP	13	312	7
NMTAP	13	360	1
NMTAP	13	360	6
NMTAP	14	48	3
NMTAP	14	48	4
BRHLD	14	96	2	864
BRSTR	14	96	7
NMSCL	14	96	7	96	384	4
CNSXL	15	192	4	0	192	3
CNSCL	16	0	3	0	96	0
CNSXL	16	96	0	0	96	3
NMTAP	16	288	2
NMTAP	16	288	3
NMTAP	17	96	2
NMTAP	17	96	3
NMTAP	17	144	1
NMTAP	17	168	1
NMTAP	17	216	3
NMTAP	17	216	4
NMTAP	17	264	6
NMTAP	17	288	6
NMTAP	17	312	4
NMTAP	17	360	3
NMTAP	17	360	5
NMHLD	18	48	4	48
NMHLD	18	48	5	48
NMHLD	18	144	3	48
NMHLD	18	144	4	48
NMHLD	18	240	2	48
NMHLD	18	240	4	48
NMHLD	18	336	3	48
NMHLD	18	336	6	48
NMHLD	19	48	1	48
NMHLD	19	48	4	48
NMHLD	19	144	3	48
NMHLD	19	144	7	48
NMHLD	19	240	0	48
NMHLD	19	240	2	48
NMHLD	19	336	4	48
NMHLD	19	336	6	48
NMHLD	20	48	0	48
NMHLD	20	48	3	48
NMHLD	20	144	4	48
NMHLD	20	144	5	48
NMTAP	20	240	2
NMTAP	20	240	7
NMTAP	20	288	1
NMSTR	20	288	4
BRSCL	20	288	4	96	576	6
EXHLD	20	360	2	600
EXTAP	20	360	4
NMTAP	23	288	3
NMTAP	23	288	4
NMTAP	23	312	3
NMTAP	23	312	4
EXHLD	23	360	1	72
EXHLD	23	360	6	72
NMTAP	24	96	3
NMSTR	24	96	7
NMSUL	24	96	7	96	48	3
NMTAP	24	144	3
NMTAP	24	144	7
NMSTR	24	192	1
NMSCR	24	192	1	96	48	5
NMTAP	24	240	1
NMSTR	24	288	6
NMSUL	24	288	6	96	48	2
NMTAP	24	336	6
NMSTR	25	0	0
NMSCR	25	0	0	96	48	4
NMTAP	25	48	0
NMSTR	25	96	5
NMSUL	25	96	5	96	48	1
NMTAP	25	144	5
NMSTR	25	192	7
NMSCR	25	192	7	96	48	3
NMTAP	25	240	7
NMTAP	25	288	6
EXHLD	25	360	0	72
EXHLD	25	360	1	72
NMTAP	26	96	3
NMSTR	26	96	6
NMSUL	26	96	6	96	48	2
NMTAP	26	144	3
NMTAP	26	144	6
NMSTR	26	192	1
NMSCR	26	192	1	96	48	5
NMTAP	26	240	1
NMSTR	26	288	7
NMSUL	26	288	7	96	48	3
NMTAP	26	336	7
NMSTR	27	0	2
NMSCR	27	0	2	96	48	6
NMTAP	27	48	2
NMSTR	27	96	0
NMSUL	27	96	0	96	48	4
NMTAP	27	144	0
NMTAP	27	192	3
NMTAP	27	240	3
BRTAP	27	288	1
BRTAP	27	288	5
EXHLD	27	360	2	72
EXHLD	27	360	3	72
NMSTR	28	96	0
NMSUR	28	96	0	96	48	4
NMTAP	28	96	4
NMTAP	28	144	0
NMTAP	28	144	4
NMSTR	28	192	6
NMSCL	28	192	6	96	48	2
NMTAP	28	240	6
NMSTR	28	288	1
NMSUR	28	288	1	96	48	5
NMTAP	28	336	1
NMSTR	29	0	7
NMSCL	29	0	7	96	48	3
NMTAP	29	48	7
NMSTR	29	96	2
NMSUR	29	96	2	96	48	6
NMTAP	29	144	2
NMSTR	29	192	0
NMSCL	29	192	0	96	48	4
NMTAP	29	240	0
NMTAP	29	288	1
EXTAP	29	360	6
EXTAP	29	360	7
NMTAP	30	24	5
NMTAP	30	48	4
NMTAP	30	72	5
NMTAP	30	96	3
NMTAP	30	120	6
NMTAP	30	144	3
NMTAP	30	168	6
NMTAP	30	192	2
NMTAP	30	216	7
NMTAP	30	240	2
NMTAP	30	264	7
NMTAP	30	288	1
NMTAP	30	312	0
NMTAP	30	336	1
NMTAP	30	360	0
EXTAP	31	0	2
NMTAP	31	16	3
NMTAP	31	32	4
EXTAP	31	48	7
NMTAP	31	64	6
NMTAP	31	80	5
EXTAP	31	96	1
NMTAP	31	112	2
NMTAP	31	128	3
EXTAP	31	144	6
NMTAP	31	160	5
NMTAP	31	176	4
BRTAP	31	192	0
NMTAP	31	240	2
NMTAP	31	240	5
NMTAP	31	288	4
NMTAP	31	312	3
NMTAP	31	360	1
NMTAP	31	360	6
NMTAP	32	48	0
NMTAP	32	48	7
NMTTP	32	96	1	A	0	M1
NMTTP	32	96	6	A	0	M1
NMTTP	32	104	2	E	0	M1
NMTTP	32	104	6	E	0	M1
NMTTP	32	112	2	B	0	M1
NMTTP	32	112	5	B	0	M1
NMTTP	32	120	3	B	0	M1
NMTTP	32	120	4	B	0	M1
NMTTP	32	128	4	E	1	M1
BRTAP	32	192	0
BRTAP	32	192	7
NMTAP	32	288	1
NMTAP	32	312	0
NMTAP	32	360	2
NMHLD	32	360	3	120
NMTAP	33	48	0
NMHLD	33	96	4	96
NMTTP	33	144	0	C	0	M1
NMHLD	33	192	5	48
NMTAP	33	240	0
NMTAP	33	288	0
NMTAP	33	312	7
NMTAP	33	360	1
NMHLD	33	360	3	72
NMHLD	34	48	4	48
NMHLD	34	96	5	48
NMHLD	34	144	6	48
NMSTR	34	192	7
NMSI_	34	192	7	96	48	2
NMSTR	34	240	4
NMSXL	34	240	4	96	144	2
NMTAP	34	288	7
NMTAP	35	144	5
NMTAP	35	192	4
NMTAP	35	192	5
NMTAP	35	240	3
NMTAP	35	264	4
NMTAP	35	288	3
NMTAP	35	312	4
NMTAP	35	360	2
NMTAP	35	360	6
NMTAP	36	48	1
NMTAP	36	48	7
NMTTP	36	96	2	E	0	M1
NMTTP	36	96	7	E	0	M1
NMTTP	36	104	2	B	0	M1
NMTTP	36	104	6	B	0	M1
NMTTP	36	112	3	B	0	M1
NMTTP	36	112	5	B	0	M1
NMTTP	36	120	4	E	0	M1
NMTTP	36	120	5	E	0	M1
NMTTP	36	128	4	A	1	M1
BRTAP	36	192	1
BRTAP	36	192	7
NMTAP	36	288	6
NMTAP	36	312	7
NMHLD	36	360	4	120
NMTAP	36	360	5
NMTAP	37	48	7
NMHLD	37	96	3	96
NMTTP	37	144	0	C	0	M1
NMHLD	37	192	2	48
NMTAP	37	240	7
NMTAP	37	288	7
NMTAP	37	312	0
NMHLD	37	360	4	72
NMTAP	37	360	6
NMHLD	38	48	3	48
NMHLD	38	96	2	48
NMHLD	38	144	1	48
NMSTR	38	192	0
NMSI_	38	192	0	96	48	4
NMSTR	38	240	3
NMSCR	38	240	3	96	48	5
NMTAP	38	288	0
CNSSR	39	0	5	0	96	1
NMTAP	39	144	2
NMTAP	39	192	2
NMTAP	39	192	3
NMTAP	39	240	4
NMTAP	39	264	3
NMTAP	39	288	4
NMTAP	39	312	3
NMTAP	39	360	1
NMTAP	39	360	5
NMTAP	40	48	2
NMTAP	40	48	6
NMTTP	40	96	2	E	0	M1
NMTTP	40	96	6	E	0	M1
NMTTP	40	104	2	B	0	M1
NMTTP	40	104	6	B	0	M1
NMTTP	40	112	3	B	0	M1
NMTTP	40	112	7	B	0	M1
NMTTP	40	120	0	E	0	M1
NMTTP	40	120	4	E	1	M1
BXTAP	40	192	2
BXTAP	40	192	5
NMTAP	40	288	0
NMTAP	40	312	7
NMTAP	40	360	2
NMHLD	40	360	3	120
NMTAP	41	48	0
NMHLD	41	96	4	96
NMTTP	41	144	0	C	0	M1
NMHLD	41	192	5	48
NMTAP	41	240	0
NMTAP	41	288	0
NMTAP	41	312	7
NMTAP	41	360	1
NMHLD	41	360	3	72
NMHLD	42	48	4	48
NMHLD	42	96	5	48
NMHLD	42	144	6	48
NMSTR	42	192	7
NMSI_	42	192	7	96	48	2
NMSTR	42	240	4
NMSXR	42	240	4	96	144	7
NMTAP	42	288	7
NMTAP	43	144	5
NMTAP	43	192	4
NMTAP	43	192	5
NMTAP	43	240	3
NMTAP	43	264	4
NMTAP	43	288	3
NMTAP	43	312	4
NMTAP	43	360	2
NMTAP	43	360	6
NMTAP	44	48	1
NMTAP	44	48	5
NMTTP	44	96	2	E	0	M1
NMTTP	44	96	6	E	0	M1
NMTTP	44	104	1	B	0	M1
NMTTP	44	104	5	B	0	M1
NMTTP	44	112	0	B	0	M1
NMTTP	44	112	4	B	0	M1
NMTTP	44	120	0	E	0	M1
NMTTP	44	120	4	E	1	M1
BXTAP	44	192	2
BXTAP	44	192	5
NMTAP	44	288	7
NMTAP	44	312	0
NMHLD	44	360	4	120
NMTAP	44	360	5
NMTAP	45	48	7
NMHLD	45	96	3	96
NMTTP	45	144	0	C	0	M1
NMHLD	45	192	2	48
NMTAP	45	240	7
NMTAP	45	288	7
NMTAP	45	312	0
NMTAP	45	360	1
NMHLD	45	360	3	72
NMHLD	46	48	4	48
NMHLD	46	96	5	48
NMHLD	46	144	6	48
NMSTR	46	192	7
NMSI_	46	192	7	96	48	3
NMSTR	46	240	4
NMSCL	46	240	4	96	48	2
NMTAP	46	288	7
CNSSL	47	0	2	0	96	6
NMTAP	47	144	5
NMTAP	47	192	2
NMTAP	47	192	5
NMTAP	47	240	3
NMSTR	47	264	4
NMSCR	47	264	4	96	48	7
NMTAP	47	288	3
NMTAP	47	312	4
EXSTR	47	360	1
BRSI_	47	360	1	96	600	5
EXTAP	47	360	4
NMTTP	48	96	7	B	0	M1
NMTTP	48	96	7	E	0	M1
NMTTP	48	288	7	B	0	M1
NMTTP	48	288	7	E	0	M1
NMTTP	49	96	7	B	0	M1
NMTTP	49	96	7	E	0	M1
NMTTP	49	288	7	B	0	M1
NMTTP	49	288	7	E	0	M1
NMTAP	49	360	3
NMTAP	50	24	5
NMTAP	50	48	4
NMTAP	50	96	3
NMTTP	50	96	7	B	0	M1
NMTTP	50	96	7	E	0	M1
NMTAP	50	168	3
NMTAP	50	216	5
NMTAP	50	240	4
NMTAP	50	288	3
NMTTP	50	288	7	B	0	M1
NMTTP	50	288	7	E	0	M1
NMTAP	50	360	3
NMTAP	51	24	5
NMTAP	51	48	4
NMTAP	51	96	3
NMTTP	51	96	7	B	0	M1
NMTTP	51	96	7	E	0	M1
NMTAP	51	168	3
NMTAP	51	216	5
NMTAP	51	240	4
NMSTR	51	288	3
NMSCL	51	288	3	96	48	0
NMTTP	51	288	7	B	0	M1
NMTTP	51	288	7	E	0	M1
EXTAP	51	360	3
EXSTR	51	360	6
BRSI_	51	360	6	96	600	2
NMTTP	52	96	0	B	0	M1
NMTTP	52	96	1	E	0	M1
NMTTP	52	288	0	B	0	M1
NMTTP	52	288	1	E	0	M1
NMTTP	53	96	0	B	0	M1
NMTTP	53	96	1	E	0	M1
NMTTP	53	288	0	B	0	M1
NMTTP	53	288	1	E	0	M1
NMTAP	53	360	6
BRTAP	54	0	2
NMTAP	54	24	5
NMTAP	54	48	4
NMTAP	54	72	5
BRTAP	54	96	1
NMTAP	54	120	5
NMTAP	54	144	4
NMTAP	54	168	5
BRTAP	54	192	0
NMTAP	54	216	5
NMTAP	54	240	4
NMTAP	54	264	5
EXTAP	54	288	2
EXTAP	54	288	6
EXTAP	54	312	2
EXTAP	54	312	6
BRSTR	54	360	0
BRSI_	54	360	0	96	504	3
BRHLD	54	360	4	984
NMTTP	56	288	6	B	0	M1
NMTTP	56	288	7	B	0	M1
NMTTP	56	288	7	E	0	M1
NMTTP	57	0	2	B	0	M1
NMTTP	57	0	2	E	0	M1
NMTTP	57	96	5	E	0	M1
NMTTP	57	192	4	D	0	M1
NMTAP	57	288	3
NMTAP	57	288	4
NMTAP	57	312	3
NMTAP	57	312	4
EXHLD	57	360	1	72
EXHLD	57	360	6	72
NMSTR	58	96	0
NMSLR	58	96	0	96	48	5
NMTAP	58	96	4
NMTAP	58	144	0
NMTAP	58	144	4
NMSTR	58	192	6
NMSCL	58	192	6	96	48	2
NMTAP	58	240	6
NMSTR	58	288	1
NMSLR	58	288	1	96	48	6
NMTAP	58	336	1
NMSTR	59	0	7
NMSCL	59	0	7	96	48	3
NMTAP	59	48	7
NMSTR	59	96	2
NMSLR	59	96	2	96	48	7
NMTAP	59	144	2
NMSTR	59	192	0
NMSCL	59	192	0	96	48	4
NMTAP	59	240	0
NMTAP	59	288	1
EXHLD	59	360	6	72
EXHLD	59	360	7	72
NMSTR	60	96	1
NMSLR	60	96	1	96	48	5
NMTAP	60	96	4
NMTAP	60	144	1
NMTAP	60	144	4
NMSTR	60	192	6
NMSCL	60	192	6	96	48	2
NMTAP	60	240	6
NMSTR	60	288	0
NMSLR	60	288	0	96	48	4
NMTAP	60	336	0
NMSTR	61	0	5
NMSCL	61	0	5	96	48	1
NMTAP	61	48	5
NMSTR	61	96	7
NMSLR	61	96	7	96	48	3
NMTAP	61	144	7
NMTAP	61	192	4
NMTAP	61	240	4
BRTAP	61	288	2
BRTAP	61	288	6
EXHLD	61	360	4	72
EXHLD	61	360	5	72
NMTAP	62	96	3
NMSTR	62	96	7
NMSLL	62	96	7	96	48	2
NMTAP	62	144	3
NMTAP	62	144	7
NMSTR	62	192	1
NMSCR	62	192	1	96	48	5
NMTAP	62	240	1
NMSTR	62	288	6
NMSLL	62	288	6	96	48	1
NMTAP	62	336	6
NMSTR	63	0	0
NMSCR	63	0	0	96	48	4
NMTAP	63	48	0
NMSTR	63	96	5
NMSLL	63	96	5	96	48	0
NMTAP	63	144	5
NMSTR	63	192	7
NMSCR	63	192	7	96	48	3
NMTAP	63	240	7
NMTAP	63	288	6
EXTAP	63	360	0
EXTAP	63	360	1
NMTAP	64	24	2
NMTAP	64	48	3
NMTAP	64	72	2
NMTAP	64	96	4
NMTAP	64	120	1
NMTAP	64	144	4
NMTAP	64	168	1
NMTAP	64	192	5
NMTAP	64	216	0
NMTAP	64	240	5
NMTAP	64	264	0
NMTAP	64	288	6
NMTAP	64	312	7
NMTAP	64	336	6
NMTAP	64	360	7
EXTAP	65	0	5
NMTAP	65	16	4
NMTAP	65	32	3
EXTAP	65	48	0
NMTAP	65	64	1
NMTAP	65	80	2
EXTAP	65	96	6
NMTAP	65	112	5
NMTAP	65	128	4
EXTAP	65	144	1
NMTAP	65	160	2
NMTAP	65	176	3
BRTAP	65	192	7
NMTAP	65	240	2
NMTAP	65	240	5
NMTAP	65	288	3
NMTAP	65	312	4
NMTAP	65	360	1
NMTAP	65	360	6
NMTAP	66	48	0
NMTAP	66	48	7
NMTTP	66	96	1	A	0	M1
NMTTP	66	96	6	A	0	M1
NMTTP	66	102	2	D	0	M1
NMTTP	66	102	6	D	0	M1
NMTTP	66	108	2	A	0	M1
NMTTP	66	108	5	A	0	M1
NMTTP	66	114	3	D	0	M1
NMTTP	66	114	5	D	0	M1
NMTTP	66	120	3	A	0	M1
NMTTP	66	120	4	A	0	M1
NMTTP	66	126	4	D	1	M1
BRTAP	66	192	0
BRTAP	66	192	7
NMTAP	66	288	6
NMTAP	66	312	7
NMHLD	66	360	4	120
NMTAP	66	360	5
NMTAP	67	48	7
NMHLD	67	96	3	96
NMTTP	67	144	5	B	0	M1
NMTTP	67	144	6	B	0	M1
NMHLD	67	192	2	48
NMTAP	67	240	7
NMTAP	67	288	7
NMTAP	67	312	0
NMHLD	67	360	4	72
NMTAP	67	360	6
NMHLD	68	48	3	48
NMHLD	68	96	2	48
NMHLD	68	144	1	48
NMSTR	68	192	0
NMSCL	68	192	0	96	48	5
NMSTR	68	240	3
NMSXR	68	240	3	96	144	5
NMTAP	68	288	0
NMTAP	69	144	2
NMTAP	69	192	2
NMTAP	69	192	3
NMTAP	69	240	4
NMTAP	69	264	3
NMTAP	69	288	4
NMTAP	69	312	3
NMTAP	69	360	1
NMTAP	69	360	5
NMTAP	70	48	0
NMTAP	70	48	6
NMTTP	70	96	1	D	0	M1
NMTTP	70	96	6	D	0	M1
NMTTP	70	102	1	A	0	M1
NMTTP	70	102	5	A	0	M1
NMTTP	70	108	2	D	0	M1
NMTTP	70	108	5	D	0	M1
NMTTP	70	114	2	A	0	M1
NMTTP	70	114	4	A	0	M1
NMTTP	70	120	3	D	0	M1
NMTTP	70	120	4	D	0	M1
NMTTP	70	126	3	A	1	M1
BRTAP	70	192	0
BRTAP	70	192	6
NMTAP	70	288	1
NMTAP	70	312	0
NMTAP	70	360	2
NMHLD	70	360	3	120
NMTAP	71	48	0
NMHLD	71	96	4	96
NMTTP	71	144	1	B	0	M1
NMTTP	71	144	2	B	0	M1
NMHLD	71	192	5	48
NMTAP	71	240	0
NMTAP	71	288	0
NMTAP	71	312	7
NMTAP	71	360	1
NMHLD	71	360	3	72
NMHLD	72	48	4	48
NMHLD	72	96	5	48
NMHLD	72	144	6	48
NMSTR	72	192	7
NMSCR	72	192	7	96	48	2
NMSTR	72	240	4
NMSCL	72	240	4	96	48	2
NMTAP	72	288	7
CNSSL	73	0	2	0	96	6
NMTAP	73	144	5
NMTAP	73	192	4
NMTAP	73	192	5
NMTAP	73	240	3
NMTAP	73	264	4
NMTAP	73	288	3
NMTAP	73	312	4
NMTAP	73	360	1
NMTAP	73	360	5
NMTAP	74	48	2
NMTAP	74	48	6
NMTTP	74	96	2	D	0	M1
NMTTP	74	96	6	D	0	M1
NMTTP	74	102	1	A	0	M1
NMTTP	74	102	5	A	0	M1
NMTTP	74	108	1	D	0	M1
NMTTP	74	108	5	D	0	M1
NMTTP	74	114	0	A	0	M1
NMTTP	74	114	4	A	0	M1
NMTTP	74	120	0	D	0	M1
NMTTP	74	120	4	D	1	M1
NMTTP	74	126	3	A	0	M1
NMTTP	74	126	7	A	0	M1
NMTTP	74	132	3	D	0	M1
NMTTP	74	132	7	D	0	M1
BXTAP	74	192	2
BXTAP	74	192	5
NMTAP	74	288	7
NMTAP	74	312	0
NMHLD	74	360	4	120
NMTAP	74	360	5
NMTAP	75	48	7
NMHLD	75	96	3	96
NMTTP	75	144	5	B	0	M1
NMTTP	75	144	6	B	0	M1
NMHLD	75	192	2	48
NMTAP	75	240	7
NMTAP	75	288	7
NMTAP	75	312	0
NMHLD	75	360	4	72
NMTAP	75	360	6
NMHLD	76	48	3	48
NMHLD	76	96	2	48
NMHLD	76	144	1	48
NMSTR	76	192	0
NMSCL	76	192	0	96	48	5
NMSTR	76	240	3
NMSXL	76	240	3	96	144	0
NMTAP	76	288	0
NMTAP	77	144	2
NMTAP	77	192	2
NMTAP	77	192	3
NMTAP	77	240	4
NMTAP	77	264	3
NMTAP	77	288	4
NMTAP	77	312	3
NMTAP	77	360	2
NMTAP	77	360	6
NMTAP	78	48	1
NMTAP	78	48	5
NMTTP	78	96	2	D	0	M1
NMTTP	78	96	6	D	0	M1
NMTTP	78	102	2	A	0	M1
NMTTP	78	102	6	A	0	M1
NMTTP	78	108	3	D	0	M1
NMTTP	78	108	7	D	0	M1
NMTTP	78	114	3	A	0	M1
NMTTP	78	114	7	A	0	M1
NMTTP	78	120	0	D	0	M1
NMTTP	78	120	4	D	1	M1
NMTTP	78	126	0	A	0	M1
NMTTP	78	126	4	A	0	M1
NMTTP	78	132	1	D	0	M1
NMTTP	78	132	5	D	0	M1
BXTAP	78	192	2
BXTAP	78	192	5
NMTAP	78	288	0
NMTAP	78	312	7
NMTAP	78	360	2
NMHLD	78	360	3	120
NMTAP	79	48	0
NMHLD	79	96	4	96
NMTTP	79	144	1	B	0	M1
NMTTP	79	144	2	B	0	M1
NMHLD	79	192	5	48
NMTAP	79	240	0
NMTAP	79	288	0
NMTAP	79	312	7
NMHLD	79	360	4	72
NMTAP	79	360	6
NMHLD	80	48	3	48
NMHLD	80	96	2	48
NMHLD	80	144	1	48
NMSTR	80	192	0
NMSCL	80	192	0	96	48	5
NMSTR	80	240	3
NMSCR	80	240	3	96	48	5
NMTAP	80	288	0
CNSSR	81	0	5	0	96	1
NMTAP	81	144	2
NMTAP	81	192	2
NMTAP	81	192	5
NMTAP	81	240	3
NMSTR	81	264	4
NMSCR	81	264	4	96	48	7
NMTAP	81	288	3
NMTAP	81	312	4
EXSTR	81	360	1
BRSI_	81	360	1	96	600	5
EXTAP	81	360	4
NMTTP	82	96	7	B	0	M1
NMTTP	82	96	7	E	0	M1
NMTTP	82	288	7	B	0	M1
NMTTP	82	288	7	E	0	M1
NMTTP	83	96	7	B	0	M1
NMTTP	83	96	7	E	0	M1
NMTTP	83	288	7	B	0	M1
NMTTP	83	288	7	E	0	M1
NMTAP	83	360	3
NMTAP	84	24	5
NMTAP	84	48	4
NMTAP	84	96	3
NMTTP	84	96	7	B	0	M1
NMTTP	84	96	7	E	0	M1
NMTAP	84	168	3
NMTAP	84	216	5
NMTAP	84	240	4
NMTAP	84	288	3
NMTTP	84	288	7	B	0	M1
NMTTP	84	288	7	E	0	M1
NMTAP	84	360	3
NMTAP	85	24	5
NMTAP	85	48	4
NMTAP	85	96	3
NMTTP	85	96	7	B	0	M1
NMTTP	85	96	7	E	0	M1
NMTAP	85	168	3
NMTAP	85	216	5
NMTAP	85	240	4
NMSTR	85	288	3
NMSCL	85	288	3	96	48	0
NMTTP	85	288	7	B	0	M1
NMTTP	85	288	7	E	0	M1
EXTAP	85	360	3
EXSTR	85	360	6
BRSI_	85	360	6	96	600	2
NMTTP	86	96	0	B	0	M1
NMTTP	86	96	1	E	0	M1
NMTTP	86	288	0	B	0	M1
NMTTP	86	288	1	E	0	M1
NMTTP	87	96	0	B	0	M1
NMTTP	87	96	1	E	0	M1
NMTTP	87	288	0	B	0	M1
NMTTP	87	288	1	E	0	M1
NMTAP	87	360	6
BRTAP	88	0	2
NMTAP	88	24	5
NMTAP	88	48	4
NMTAP	88	72	5
BRTAP	88	96	1
NMTAP	88	120	5
NMTAP	88	144	4
NMTAP	88	168	5
BRTAP	88	192	0
NMTAP	88	216	5
NMTAP	88	240	4
NMTAP	88	264	5
EXSTR	88	288	0
NMSI_	88	288	0	96	24	4
EXTAP	88	288	6
EXTAP	88	312	0
EXTAP	88	312	6
BRTAP	88	360	0
BRTAP	88	360	4

T_REC_TAP	376
T_REC_BRK	22
T_REC_XTP	24
T_REC_BXX	8
T_REC_HLD	88
T_REC_XHO	13
T_REC_BHO	2
T_REC_BXH	0
T_REC_STR	71
T_REC_BST	2
T_REC_XST	5
T_REC_XBS	0
T_REC_TTP	151
T_REC_THO	0
T_REC_SLD	72
T_REC_BSL	6
T_REC_ALL	840
T_NUM_TAP	627
T_NUM_BRK	40
T_NUM_HLD	101
T_NUM_SLD	72
T_NUM_ALL	840
T_JUDGE_TAP	659
T_JUDGE_HLD	236
T_JUDGE_SLD	78
T_JUDGE_ALL	973
TTM_EACHPAIRS	127
TTM_SCR_TAP	313500
TTM_SCR_BRK	104000
TTM_SCR_HLD	101000
TTM_SCR_SLD	108000
TTM_SCR_ALL	626500
TTM_SCR_S	603850
TTM_SCR_SS	622500
TTM_RAT_ACV	10064

