VERSION	0.00.00	1.04.00
FES_MODE	0
BPM_DEF	130.000	130.000	130.000	130.000
MET_DEF	4	4
RESOLUTION	384
CLK_DEF	384
COMPATIBLE_CODE	MA2

BPM	0	0	130.000
MET	0	0	4	4

EXHLD	2	0	4	192
EXHLD	2	0	6	192
EXTAP	2	288	3
EXTAP	2	288	5
EXHLD	2	360	1	216
EXHLD	2	360	3	216
EXTAP	3	288	2
EXTAP	3	288	4
EXHLD	3	360	4	216
EXHLD	3	360	6	216
EXTAP	4	288	3
EXSTR	4	288	4
NMSUL	4	288	4	96	288	3
EXTAP	5	360	1
EXTAP	5	360	3
NMTAP	6	96	2
NMTAP	6	144	2
NMTAP	6	192	3
EXTAP	6	288	2
EXTAP	6	288	4
EXTAP	6	360	4
EXTAP	6	360	6
NMTAP	7	96	5
NMTAP	7	144	5
NMTAP	7	192	4
EXTAP	7	288	3
EXTAP	7	288	5
EXTAP	7	360	1
EXTAP	7	360	3
NMTAP	8	96	2
NMTAP	8	144	2
NMTAP	8	192	3
EXSTR	8	288	3
NMSCL	8	288	3	96	288	4
EXTAP	8	288	4
EXTAP	9	360	4
EXTAP	9	360	6
NMTAP	10	96	5
NMTAP	10	144	5
NMTAP	10	192	4
EXTAP	10	288	3
EXTAP	10	288	5
EXTAP	10	360	1
EXTAP	10	360	3
NMTAP	11	96	2
NMTAP	11	144	2
NMTAP	11	192	3
EXTAP	11	288	2
EXTAP	11	288	4
EXTAP	11	360	4
EXTAP	11	360	6
NMTAP	12	96	5
NMTAP	12	144	5
NMTAP	12	192	4
EXTAP	12	288	3
EXSTR	12	288	4
NMSUL	12	288	4	96	192	3
NMTAP	13	192	2
BRHLD	13	288	2	768
BRTAP	13	288	4
NMTTP	14	96	0	E	0	M1
NMTTP	14	288	1	E	0	M1
NMTTP	15	96	2	E	0	M1
NMTTP	15	288	3	E	0	M1
NMSTR	16	96	3
NMSXR	16	96	3	96	288	4
NMHLD	17	288	5	384
NMTAP	18	96	7
NMTAP	18	192	0
NMHLD	18	288	1	384
NMTAP	19	96	3
NMTAP	19	192	4
NMHLD	19	288	5	384
NMTAP	20	96	4
NMTAP	20	192	6
NMSTR	20	288	7
NMSI_	20	288	7	96	216	2
CNSI_	21	216	2	0	168	6
CNSI_	22	0	6	0	96	3
NMTAP	22	288	0
NMTAP	22	288	7
NMHLD	22	360	0	216
NMHLD	22	360	7	216
BRTAP	23	288	1
BRTAP	23	288	6
EXHLD	23	360	2	72
EXHLD	23	360	4	72
NMHLD	24	96	3	48
NMHLD	24	96	6	48
NMHLD	24	192	1	48
NMHLD	24	192	4	48
NMHLD	24	288	3	48
NMHLD	24	288	5	48
NMHLD	25	0	2	48
NMHLD	25	0	7	48
NMHLD	25	96	0	48
NMHLD	25	96	5	48
NMTAP	25	192	0
NMTAP	25	192	1
NMTAP	25	240	0
NMTAP	25	240	1
NMTAP	25	288	2
NMTAP	25	288	7
EXHLD	25	360	3	72
EXHLD	25	360	5	72
NMHLD	26	96	1	48
NMHLD	26	96	4	48
NMHLD	26	192	3	48
NMHLD	26	192	6	48
NMHLD	26	288	2	48
NMHLD	26	288	4	48
NMHLD	27	0	0	48
NMHLD	27	0	5	48
NMHLD	27	96	2	48
NMHLD	27	96	7	48
NMTAP	27	192	6
NMTAP	27	192	7
NMTAP	27	240	6
NMTAP	27	240	7
NMTAP	27	288	0
NMTAP	27	288	5
EXHLD	27	360	1	72
EXHLD	27	360	3	72
NMHLD	28	96	4	48
NMHLD	28	96	6	48
NMHLD	28	192	0	48
NMHLD	28	192	2	48
NMHLD	28	288	6	48
NMHLD	28	288	7	48
NMHLD	29	0	1	48
NMHLD	29	0	2	48
NMHLD	29	96	4	48
NMHLD	29	96	5	48
NMTAP	29	192	0
NMTAP	29	192	1
NMTAP	29	240	0
NMTAP	29	240	1
NMTAP	29	288	2
NMTAP	29	288	7
EXHLD	29	360	4	72
EXHLD	29	360	6	72
NMHLD	30	96	1	48
NMHLD	30	96	3	48
NMHLD	30	192	5	48
NMHLD	30	192	7	48
NMHLD	30	288	0	48
NMHLD	30	288	1	48
NMHLD	31	0	5	48
NMHLD	31	0	6	48
NMHLD	31	96	2	48
NMHLD	31	96	3	48
BRTAP	31	192	0
BRTAP	31	192	5
EXTAP	31	288	4
EXTAP	31	312	3
NMTAP	31	360	2
NMTAP	31	360	5
NMTAP	32	48	0
NMTAP	32	48	7
NMTAP	32	96	0
NMSTR	32	96	1
NMSI_	32	96	1	96	48	4
NMTAP	32	192	5
NMHLD	32	288	6	72
NMTAP	32	360	7
NMTAP	33	48	0
NMTAP	33	48	7
NMTAP	33	96	0
NMSTR	33	96	1
NMSI_	33	96	1	96	48	4
NMTAP	33	192	5
NMHLD	33	288	6	72
NMTAP	33	360	7
NMTAP	34	48	0
NMTAP	34	48	5
NMTAP	34	96	0
NMSTR	34	96	5
NMSCR	34	96	5	96	48	0
NMSTR	34	192	2
NMSCR	34	192	2	96	48	5
NMSTR	34	288	7
NMSXR	34	288	7	96	192	3
NMTTP	35	0	1	E	1	M1
EXTAP	35	288	4
EXTAP	35	312	3
NMTAP	35	360	2
NMTAP	35	360	5
NMTAP	36	48	0
NMTAP	36	48	7
NMSTR	36	96	6
NMSI_	36	96	6	96	48	3
NMTAP	36	96	7
NMTAP	36	192	2
NMHLD	36	288	1	72
NMTAP	36	360	0
NMTAP	37	48	0
NMTAP	37	48	7
NMSTR	37	96	6
NMSI_	37	96	6	96	48	3
NMTAP	37	96	7
NMTAP	37	192	2
NMHLD	37	288	1	72
NMTAP	37	360	0
NMTAP	38	48	2
NMTAP	38	48	7
NMSTR	38	96	2
NMSCL	38	96	2	96	48	7
NMTAP	38	96	7
NMSTR	38	192	5
NMSCL	38	192	5	96	48	2
NMSTR	38	288	0
NMSXL	38	288	0	96	192	5
NMTTP	39	0	7	E	1	M1
EXTAP	39	288	6
EXTAP	39	312	7
NMTAP	39	360	0
NMTAP	39	360	5
NMTAP	40	48	4
NMSTR	40	96	2
NMSI_	40	96	2	96	48	7
NMTAP	40	96	3
NMTAP	40	192	6
NMHLD	40	288	5	72
NMTAP	40	360	4
NMTAP	41	48	3
NMTAP	41	48	4
NMSTR	41	96	2
NMSI_	41	96	2	96	48	7
NMTAP	41	96	3
NMTAP	41	192	6
NMHLD	41	288	5	72
NMTAP	41	360	4
NMTAP	42	48	3
NMTAP	42	48	6
NMTAP	42	96	3
NMSTR	42	96	6
NMSI_	42	96	6	96	48	1
NMSTR	42	192	2
NMSI_	42	192	2	96	48	5
NMSTR	42	288	7
NMSXL	42	288	7	96	192	2
NMTTP	43	0	1	E	1	M1
EXTAP	43	288	1
EXTAP	43	312	0
NMTAP	43	360	2
NMTAP	43	360	7
NMTAP	44	48	3
NMTAP	44	96	4
NMSTR	44	96	5
NMSI_	44	96	5	96	48	0
NMTAP	44	192	1
NMHLD	44	288	2	72
NMTAP	44	360	3
NMTAP	45	48	3
NMTAP	45	48	4
NMTAP	45	96	4
NMSTR	45	96	5
NMSI_	45	96	5	96	48	0
NMTAP	45	192	1
NMHLD	45	288	2	72
NMTAP	45	360	3
NMTAP	46	48	1
NMTAP	46	48	4
NMSTR	46	96	1
NMSI_	46	96	1	96	48	6
NMTAP	46	96	4
NMSTR	46	192	5
NMSI_	46	192	5	96	48	2
NMSTR	46	288	0
NMSXR	46	288	0	96	192	3
NMTTP	47	0	6	B	1	M1
EXTAP	47	288	3
EXTAP	47	288	4
EXSTR	47	360	2
NMSCL	47	360	2	96	504	5
EXTAP	47	360	5
NMTAP	48	96	4
NMTAP	48	288	4
NMTAP	49	96	4
CNSUR	49	192	5	0	576	3
NMTAP	49	288	4
NMTAP	50	96	4
NMTAP	50	288	4
NMTAP	51	96	4
EXTAP	51	288	3
EXTAP	51	288	4
EXTAP	51	360	2
EXSTR	51	360	5
NMSCR	51	360	5	96	504	2
NMTAP	52	96	3
NMTAP	52	288	3
NMTAP	53	96	3
NMTAP	53	288	3
BRTAP	54	0	2
BRTAP	54	96	1
BRTAP	54	192	0
EXTAP	54	288	7
EXTAP	54	312	0
BRSTR	54	360	0
NMSCR	54	360	0	96	696	3
BRSTR	54	360	7
NMSCL	54	360	7	96	696	4
NMSTR	57	96	3
NMSI_	57	96	3	96	48	0
NMSTR	57	96	4
NMSI_	57	96	4	96	48	7
BRTAP	57	288	1
BRTAP	57	288	6
EXHLD	57	360	2	72
EXHLD	57	360	4	72
NMTAP	58	96	1
NMTAP	58	96	3
NMTAP	58	144	0
NMTAP	58	192	2
NMTAP	58	192	3
NMTAP	58	288	1
NMTAP	58	288	3
NMTAP	58	336	0
NMTAP	59	0	2
NMTAP	59	0	3
NMTAP	59	96	1
NMTAP	59	96	3
NMTAP	59	144	0
NMTAP	59	192	2
NMTAP	59	192	3
NMTAP	59	240	3
NMTAP	59	288	2
NMTAP	59	288	4
EXHLD	59	360	2	72
EXHLD	59	360	5	72
NMTAP	60	96	4
NMTAP	60	96	6
NMTAP	60	144	7
NMTAP	60	192	4
NMTAP	60	192	5
NMTAP	60	288	4
NMTAP	60	288	6
NMTAP	60	336	7
NMTAP	61	0	4
NMTAP	61	0	5
NMTAP	61	96	4
NMTAP	61	96	6
NMTAP	61	144	7
NMTAP	61	192	4
NMTAP	61	192	5
NMTAP	61	240	4
NMTAP	61	288	3
NMTAP	61	288	6
EXHLD	61	360	2	72
EXHLD	61	360	4	72
NMTAP	62	96	1
NMTAP	62	96	3
NMTAP	62	144	0
NMTAP	62	192	2
NMTAP	62	192	3
NMTAP	62	288	4
NMTAP	62	288	6
NMTAP	62	336	7
NMTAP	63	0	4
NMTAP	63	0	5
NMTAP	63	96	1
NMTAP	63	96	3
NMTAP	63	144	0
NMTAP	63	192	2
NMTAP	63	192	3
NMTAP	63	240	3
NMTAP	63	288	2
NMTAP	63	288	4
EXHLD	63	360	1	72
EXHLD	63	360	5	72
NMTAP	64	96	4
NMTAP	64	96	6
NMTAP	64	144	7
NMTAP	64	192	4
NMTAP	64	192	5
NMTAP	64	288	1
NMTAP	64	288	3
NMTAP	64	336	0
NMTAP	65	0	2
NMTAP	65	0	3
NMTAP	65	96	4
NMTAP	65	96	6
NMTAP	65	144	7
BRTAP	65	192	1
BRTAP	65	192	5
EXTAP	65	288	3
EXTAP	65	312	4
NMTAP	65	360	2
NMTAP	65	360	5
NMTAP	66	48	0
NMTAP	66	48	7
BRSTR	66	96	1
NMSI_	66	96	1	96	48	4
BRTAP	66	96	6
NMTAP	66	192	5
EXTAP	66	288	4
EXHLD	66	288	6	72
NMTAP	66	360	7
NMTAP	67	48	0
NMTAP	67	48	7
NMTAP	67	96	0
NMSTR	67	96	1
NMSI_	67	96	1	96	48	4
NMTAP	67	192	5
EXTAP	67	288	4
EXHLD	67	288	6	72
NMTAP	67	360	7
NMTAP	68	48	0
NMTAP	68	48	5
NMTAP	68	96	0
NMSTR	68	96	5
NMSCR	68	96	5	96	48	0
NMSTR	68	192	2
NMSCR	68	192	2	96	48	5
NMSTR	68	288	6
NMSXL	68	288	6	96	192	3
NMTTP	69	0	0	B	1	M1
EXTAP	69	288	4
EXTAP	69	312	3
NMTAP	69	360	2
NMTAP	69	360	5
NMTAP	70	48	0
NMTAP	70	48	7
NMSTR	70	96	6
NMSI_	70	96	6	96	48	3
NMTAP	70	96	7
NMTAP	70	192	2
EXHLD	70	288	1	72
EXTAP	70	288	3
NMTAP	70	360	0
NMTAP	71	48	0
NMTAP	71	48	7
NMSTR	71	96	6
NMSI_	71	96	6	96	48	3
NMTAP	71	96	7
NMTAP	71	192	2
EXHLD	71	288	1	72
EXTAP	71	288	3
NMTAP	71	360	0
NMTAP	72	48	2
NMTAP	72	48	7
NMSTR	72	96	2
NMSCL	72	96	2	96	48	7
NMTAP	72	96	7
NMSTR	72	192	5
NMSCL	72	192	5	96	48	2
NMSTR	72	288	0
NMSXR	72	288	0	96	192	5
NMTTP	73	0	7	E	1	M1
EXTAP	73	288	6
EXTAP	73	312	7
NMTAP	73	360	0
NMTAP	73	360	5
NMTAP	74	48	4
NMSTR	74	96	2
NMSI_	74	96	2	96	48	7
NMTAP	74	96	3
NMTAP	74	192	6
EXHLD	74	288	5	72
EXTAP	74	288	7
NMTAP	74	360	4
NMTAP	75	48	3
NMTAP	75	48	4
NMSTR	75	96	2
NMSI_	75	96	2	96	48	7
NMTAP	75	96	3
NMTAP	75	192	6
EXHLD	75	288	5	72
EXTAP	75	288	7
NMTAP	75	360	4
NMTAP	76	48	3
NMTAP	76	48	6
NMTAP	76	96	3
NMSTR	76	96	6
NMSCR	76	96	6	96	48	1
NMSTR	76	192	2
NMSCR	76	192	2	96	48	5
NMSTR	76	288	7
NMSXR	76	288	7	96	192	2
NMTTP	77	0	1	E	1	M1
EXTAP	77	288	1
EXTAP	77	312	0
NMTAP	77	360	2
NMTAP	77	360	7
NMTAP	78	48	3
NMTAP	78	96	4
NMSTR	78	96	5
NMSI_	78	96	5	96	48	0
NMTAP	78	192	1
EXTAP	78	288	0
EXHLD	78	288	2	72
NMTAP	78	360	3
NMTAP	79	48	3
NMTAP	79	48	4
NMTAP	79	96	4
NMSTR	79	96	5
NMSI_	79	96	5	96	48	0
NMTAP	79	192	1
EXTAP	79	288	0
EXHLD	79	288	2	72
NMTAP	79	360	3
NMTAP	80	48	1
NMTAP	80	48	4
NMSTR	80	96	1
NMSCL	80	96	1	96	48	6
NMTAP	80	96	4
NMSTR	80	192	5
NMSCL	80	192	5	96	48	2
NMSTR	80	288	0
NMSXL	80	288	0	96	192	4
NMTTP	81	0	7	E	1	M1
EXTAP	81	288	3
EXTAP	81	288	4
EXTAP	81	360	2
EXSTR	81	360	5
NMSCR	81	360	5	96	504	2
NMTAP	82	96	3
NMTAP	82	288	3
NMTAP	83	96	3
CNSUL	83	192	2	0	576	4
NMTAP	83	288	3
NMTAP	84	96	3
NMTAP	84	288	3
NMTAP	85	96	3
EXTAP	85	288	3
EXTAP	85	288	4
EXSTR	85	360	2
NMSCL	85	360	2	96	504	5
EXTAP	85	360	5
NMTAP	86	96	4
NMTAP	86	288	4
NMTAP	87	96	4
NMTAP	87	288	4
BRTAP	88	0	2
BRTAP	88	96	1
BRTAP	88	192	0
EXTAP	88	288	7
EXTAP	88	312	0
NMTTP	88	360	0	C	1	M1
NMTTP	88	360	1	B	0	M1
NMTTP	88	360	2	B	0	M1
NMTTP	88	360	5	B	0	M1
NMTTP	88	360	6	B	0	M1

T_REC_TAP	249
T_REC_BRK	16
T_REC_XTP	67
T_REC_BXX	0
T_REC_HLD	53
T_REC_XHO	30
T_REC_BHO	1
T_REC_BXH	0
T_REC_STR	43
T_REC_BST	3
T_REC_XST	7
T_REC_XBS	0
T_REC_TTP	17
T_REC_THO	0
T_REC_SLD	53
T_REC_BSL	0
T_REC_ALL	539
T_NUM_TAP	383
T_NUM_BRK	20
T_NUM_HLD	83
T_NUM_SLD	53
T_NUM_ALL	539
T_JUDGE_TAP	402
T_JUDGE_HLD	182
T_JUDGE_SLD	53
T_JUDGE_ALL	637
TTM_EACHPAIRS	158
TTM_SCR_TAP	191500
TTM_SCR_BRK	52000
TTM_SCR_HLD	83000
TTM_SCR_SLD	79500
TTM_SCR_ALL	406000
TTM_SCR_S	391900
TTM_SCR_SS	404000
TTM_RAT_ACV	10049

