VERSION	0.00.00	1.04.00
FES_MODE	0
BPM_DEF	195.000	200.000	200.000	 25.000
MET_DEF	4	4
RESOLUTION	384
CLK_DEF	384
COMPATIBLE_CODE	MA2

BPM	0	0	195.000
BPM	45	0	200.000
BPM	65	0	190.000
BPM	73	144	180.000
BPM	73	288	165.000
BPM	74	48	150.000
BPM	74	192	135.000
BPM	74	336	 25.000
BPM	75	96	190.000
BPM	82	96	185.000
BPM	82	288	180.000
BPM	83	96	175.000
BPM	83	288	100.000
BPM	84	96	200.000
MET	0	0	4	4
MET	6	0	8	13
MET	9	96	4	3
MET	10	288	4	4
MET	14	288	4	1
MET	15	0	4	4
MET	73	0	8	3
MET	75	96	4	4
MET	84	96	4	1
MET	84	192	4	4

NMTHO	1	0	0	384	C	0	M1
EXTAP	2	96	0
EXTAP	2	96	7
NMTAP	2	192	1
NMTAP	2	192	6
NMTAP	2	240	2
NMHLD	2	288	3	96
NMTAP	3	0	5
NMTTP	3	96	6	E	0	M1
NMTTP	3	128	5	B	0	M1
NMTTP	3	160	3	B	0	M1
NMTTP	3	192	3	E	0	M1
NMTTP	3	288	2	E	0	M1
NMTTP	3	320	2	B	0	M1
NMTTP	3	352	4	B	0	M1
EXHLD	4	0	0	144
NMTTP	4	0	5	E	0	M1
NMTTP	4	144	0	E	0	M1
NMTTP	4	168	0	C	0	M1
NMTTP	4	192	4	E	0	M1
NMTTP	4	288	3	E	0	M1
NMTTP	4	288	5	E	0	M1
NMTTP	5	0	1	B	0	M1
NMTTP	5	0	3	B	0	M1
NMTTP	5	96	4	B	0	M1
NMTTP	5	96	6	B	0	M1
NMSTR	5	192	1
NMSI_	5	192	1	96	48	4
NMSTR	5	192	7
NMSI_	5	192	7	96	48	4
BRTAP	5	288	1
BRTAP	5	288	7
EXTAP	6	0	3
EXTAP	6	0	5
NMTAP	6	96	2
NMTAP	6	120	3
EXHLD	6	144	1	96
NMTAP	6	240	5
NMTAP	6	264	4
EXSTR	6	288	6
NMSI_	6	288	6	96	48	2
NMSTR	7	0	0
NMSI_	7	0	0	96	48	4
NMTAP	7	96	7
NMTAP	7	144	6
NMTAP	7	192	5
EXTAP	7	240	3
EXHLD	7	240	4	96
NMTAP	7	336	2
NMTAP	7	360	3
NMHLD	8	0	1	96
NMTAP	8	96	5
NMTAP	8	120	4
NMSTR	8	144	7
NMSI_	8	144	7	96	48	3
EXTAP	8	240	2
NMTAP	8	288	1
NMTAP	8	336	0
NMTAP	9	0	7
NMTAP	9	48	6
EXTAP	9	96	3
EXTAP	9	96	5
NMTAP	9	168	2
NMHLD	9	168	3	72
NMTAP	9	240	0
NMTAP	9	288	1
NMTAP	9	336	3
NMTAP	10	0	2
NMTAP	10	0	4
NMHLD	10	72	4	72
NMTAP	10	72	5
NMTAP	10	144	7
NMTAP	10	192	6
NMTAP	10	240	5
NMTAP	10	288	3
NMTAP	10	288	4
NMTAP	10	352	2
NMTAP	11	0	2
NMTAP	11	32	3
NMTAP	11	64	1
EXTAP	11	96	7
NMTAP	11	160	5
NMTAP	11	192	5
NMTAP	11	224	4
NMTAP	11	256	6
EXHLD	11	288	0	672
NMTTP	12	0	7	A	0	M1
NMTTP	12	96	1	A	0	M1
NMTTP	12	192	6	A	0	M1
NMTTP	12	288	2	A	0	M1
NMTTP	13	0	5	A	0	M1
NMTTP	13	96	3	A	0	M1
NMTTP	13	192	4	A	0	M1
NMTAP	13	288	1
NMTAP	13	320	2
NMTAP	13	352	3
NMTAP	14	0	6
NMTAP	14	32	5
NMTAP	14	64	4
NMTTP	14	96	1	E	0	M1
NMTTP	14	128	2	E	0	M1
NMTTP	14	160	3	E	0	M1
NMTTP	14	192	7	E	0	M1
NMTTP	14	224	6	E	0	M1
NMTTP	14	256	5	E	0	M1
NMTHO	14	288	0	96	C	1	M1
BRSTR	15	0	0
NMSI_	15	0	0	96	192	3
NMSI_	15	0	0	96	192	5
CNSLL	15	288	3	0	288	4
CNSLR	15	288	5	0	288	4
EXTAP	16	288	0
NMHLD	17	0	2	96
NMTAP	17	0	6
NMTAP	17	96	3
NMTAP	17	144	2
NMTAP	17	192	4
NMTAP	17	240	2
NMTAP	17	288	3
NMTAP	17	336	2
NMTAP	18	0	5
NMTAP	18	48	2
NMTAP	18	96	3
NMTAP	18	144	2
NMTAP	18	192	4
NMTAP	18	240	2
NMTAP	18	288	3
NMTAP	18	336	2
EXTAP	19	0	1
NMTAP	19	48	2
NMTAP	19	96	3
NMTAP	19	144	2
NMTAP	19	192	1
NMTAP	19	240	2
NMTAP	19	288	3
NMTAP	19	336	2
NMTAP	20	0	0
NMTAP	20	48	2
NMTAP	20	96	3
NMTAP	20	144	2
NMTAP	20	192	1
NMTAP	20	240	2
NMTAP	20	288	0
NMTAP	20	288	3
NMTAP	21	0	4
NMHLD	21	0	6	96
NMTAP	21	96	5
NMTAP	21	144	6
NMTAP	21	192	4
NMTAP	21	240	6
NMTAP	21	288	5
NMTAP	21	336	6
NMTAP	22	0	3
NMTAP	22	48	6
NMTAP	22	96	5
NMTAP	22	144	6
NMTAP	22	192	4
NMTAP	22	240	6
NMTAP	22	288	5
NMTAP	22	336	6
EXTAP	23	0	7
NMTAP	23	48	6
NMTAP	23	96	5
NMTAP	23	144	6
NMTAP	23	192	7
NMTAP	23	240	6
NMTAP	23	288	5
NMTAP	23	336	6
NMTAP	24	0	7
NMTAP	24	48	6
NMTAP	24	96	5
NMTAP	24	144	4
NMTAP	24	192	3
NMTAP	24	240	3
EXTAP	24	288	0
EXTAP	24	288	6
BXTAP	25	0	1
BXTAP	25	24	3
BXTAP	25	48	1
BXTAP	25	72	3
BXHLD	25	96	1	96
NMTAP	25	192	3
NMTAP	25	240	2
NMTAP	25	240	4
NMTAP	25	288	5
NMTAP	25	312	4
NMTAP	25	336	5
NMTAP	26	0	3
NMTAP	26	0	6
NMTAP	26	48	2
NMTAP	26	72	3
NMTAP	26	96	1
NMSTR	26	144	0
NMSLR	26	144	0	96	96	5
NMTAP	26	144	4
NMTAP	26	240	7
NMTAP	26	288	7
BXTAP	27	0	6
BXTAP	27	24	4
BXTAP	27	48	6
BXTAP	27	72	4
BXHLD	27	96	6	96
NMTAP	27	192	4
NMTAP	27	240	3
NMTAP	27	240	5
NMTAP	27	288	2
NMTAP	27	312	3
NMTAP	27	336	2
NMTAP	28	0	1
NMTAP	28	0	4
NMTAP	28	48	5
NMTAP	28	72	4
NMTAP	28	96	5
NMTAP	28	144	3
NMSTR	28	144	6
NMSCL	28	144	6	96	48	3
NMTAP	28	240	0
NMTAP	28	288	0
NMHLD	29	0	2	64
NMHLD	29	96	1	64
NMHLD	29	96	3	64
NMHLD	29	192	5	64
NMTAP	29	288	4
NMTAP	29	288	6
NMTTP	30	0	4	B	0	M1
NMTTP	30	0	6	B	0	M1
NMTTP	30	96	0	C	0	M1
NMTTP	30	192	1	B	0	M1
NMTTP	30	192	3	B	0	M1
NMTTP	30	288	0	C	0	M1
EXTAP	31	0	0
EXTAP	31	0	7
NMTAP	31	96	5
NMTAP	31	128	3
NMTAP	31	160	4
NMHLD	31	192	2	64
NMTAP	31	288	2
NMTAP	31	320	4
NMTAP	31	352	3
NMHLD	32	0	5	96
NMHLD	32	96	7	96
NMHLD	32	192	0	96
NMHLD	32	288	2	96
NMSTR	33	0	3
NMSI_	33	0	3	96	192	7
NMTAP	33	96	2
NMTAP	33	192	2
NMTAP	33	288	2
NMSTR	34	0	4
NMSI_	34	0	4	96	192	0
NMTAP	34	96	5
NMTAP	34	192	5
NMTAP	34	288	5
NMSTR	35	0	3
NMSI_	35	0	3	96	192	7
NMTAP	35	96	1
NMTAP	35	192	1
NMTAP	35	288	1
EXTAP	36	0	6
NMTAP	36	32	2
NMTAP	36	64	4
EXTAP	36	96	1
NMTAP	36	128	5
NMTAP	36	160	3
BRTAP	36	192	2
BRTAP	36	192	6
NMTAP	37	0	3
NMTAP	37	0	4
NMSTR	37	96	0
NMSI_	37	96	0	96	48	3
NMSTR	37	96	1
NMSV_	37	96	1	96	32	2
NMTAP	37	192	0
NMTAP	37	192	1
NMTTP	37	192	1	E	1	M1
CNSI_	37	224	2	0	16	4
NMTAP	38	0	2
NMTAP	38	0	3
NMSTR	38	96	6
NMSV_	38	96	6	96	32	5
NMSTR	38	96	7
NMSV_	38	96	7	96	48	4
NMTAP	38	192	6
NMTAP	38	192	7
NMTTP	38	192	7	E	1	M1
CNSI_	38	224	5	0	16	3
NMTAP	39	0	4
NMTAP	39	0	5
NMSTR	39	96	0
NMSSL	39	96	0	96	48	4
NMSTR	39	96	1
NMSV_	39	96	1	96	32	2
NMTAP	39	192	0
NMTAP	39	192	1
NMTTP	39	192	1	E	1	M1
CNSI_	39	224	2	0	16	4
NMTAP	40	0	7
NMTAP	40	64	0
NMTAP	40	64	6
NMTAP	40	128	1
NMTAP	40	160	2
NMTAP	40	192	3
NMTAP	40	192	4
NMTAP	40	256	4
NMTAP	40	256	6
NMTAP	40	320	0
NMTAP	40	320	7
NMTAP	41	0	1
NMTAP	41	0	6
NMTTP	41	96	0	D	0	M1
NMTTP	41	192	1	E	0	M1
NMTTP	41	288	6	B	0	M1
NMTTP	42	0	2	B	0	M1
NMTTP	42	96	4	E	0	M1
NMTTP	42	192	3	E	0	M1
NMTTP	42	192	5	E	0	M1
NMTAP	43	0	3
NMTAP	43	24	4
NMTAP	43	48	3
NMTAP	43	72	4
NMTAP	43	96	2
NMTAP	43	120	4
NMTAP	43	144	2
NMTAP	43	168	4
NMTAP	43	192	1
NMTAP	43	216	4
NMTAP	43	240	1
NMTAP	43	264	4
NMTAP	43	288	0
NMTAP	43	312	4
NMTAP	43	336	0
NMTAP	43	360	4
EXSTR	44	0	7
NMSF_	44	0	7	96	48	3
NMTTP	44	96	7	A	0	M1
NMTTP	44	108	7	B	0	M1
NMTTP	44	120	0	C	0	M1
NMTTP	44	132	3	B	0	M1
NMTTP	44	144	3	A	0	M1
BRTAP	44	192	1
BRTAP	44	192	5
EXSTR	45	0	1
NMSI_	45	0	1	96	48	3
EXSTR	45	48	0
NMSI_	45	48	0	96	48	4
EXTAP	45	96	1
EXTAP	45	144	0
EXSTR	45	192	7
NMSI_	45	192	7	96	48	1
EXSTR	45	240	6
NMSI_	45	240	6	96	48	2
EXSTR	45	288	7
NMSI_	45	288	7	96	48	3
EXTAP	45	336	6
EXSTR	46	0	7
NMSCL	46	0	7	96	48	4
EXSTR	46	96	7
NMSCR	46	96	7	96	48	2
EXSTR	46	192	4
NMSI_	46	192	4	96	48	0
NMTAP	46	192	7
NMTAP	46	288	4
EXTAP	46	288	6
BXTAP	47	0	1
BXTAP	47	0	7
NMTAP	47	96	2
NMTAP	47	96	4
BXTAP	47	144	0
BXTAP	47	144	6
NMTAP	47	240	1
NMTAP	47	264	3
NMTAP	47	288	2
NMTAP	47	312	4
NMTAP	47	336	3
NMTAP	47	360	5
BXTAP	48	0	4
BXTAP	48	72	0
BXTAP	48	72	7
BXSTR	48	144	1
NMSI_	48	144	1	96	48	4
BXTAP	48	144	4
NMTAP	48	240	5
CNSI_	48	288	4	0	48	0
NMTAP	48	288	7
EXSTR	49	0	6
NMSI_	49	0	6	96	48	4
EXSTR	49	48	7
NMSI_	49	48	7	96	48	3
EXTAP	49	96	6
EXTAP	49	144	7
EXSTR	49	192	0
NMSI_	49	192	0	96	48	6
EXSTR	49	240	1
NMSI_	49	240	1	96	48	5
EXSTR	49	288	0
NMSI_	49	288	0	96	48	4
EXTAP	49	336	1
EXSTR	50	0	0
NMSCR	50	0	0	96	48	3
EXSTR	50	96	0
NMSCL	50	96	0	96	48	5
NMTAP	50	192	0
EXSTR	50	192	3
NMSI_	50	192	3	96	48	7
EXTAP	50	264	2
EXTAP	50	288	3
NMTAP	50	336	0
BRSTR	51	0	1
NMSI_	51	0	1	96	48	5
NMTAP	51	96	0
NMTAP	51	96	1
BXHLD	51	144	6	96
NMTAP	51	240	7
NMTAP	51	264	0
NMTAP	51	288	1
NMTAP	51	312	2
NMTAP	51	336	3
BXTAP	52	0	4
BXTAP	52	0	6
BXTAP	52	72	0
BXTAP	52	72	7
BXTAP	52	144	1
BXTAP	52	144	5
NMTAP	52	240	3
NMTAP	52	240	4
NMTAP	52	288	3
NMTAP	52	288	4
NMTAP	53	0	2
NMSTR	53	0	6
NMSUR	53	0	6	96	96	2
NMTAP	53	96	3
NMTAP	53	144	3
CNSCL	53	192	2	0	96	7
NMTAP	53	192	3
NMTAP	53	240	3
NMTAP	53	288	3
NMSTR	54	0	1
NMSUL	54	0	1	96	96	5
NMTAP	54	96	4
NMTAP	54	144	4
NMTAP	54	192	4
CNSCR	54	192	5	0	96	0
NMTAP	54	240	4
NMTAP	54	288	4
NMSTR	55	0	5
NMSUL	55	0	5	96	96	1
NMTAP	55	96	0
NMTAP	55	144	0
NMTAP	55	192	0
CNSCR	55	192	1	0	96	4
NMTAP	55	240	0
NMTAP	55	288	0
NMTAP	56	0	6
NMTAP	56	0	7
NMTAP	56	48	0
NMTAP	56	48	5
NMTAP	56	96	1
NMTAP	56	96	4
NMTAP	56	144	2
NMTAP	56	144	3
NMTTP	56	192	0	C	1	M1
NMTTP	56	192	1	B	0	M1
NMTTP	56	192	1	E	0	M1
NMTTP	56	192	1	A	0	M1
NMTTP	56	192	2	E	0	M1
NMTTP	56	192	4	B	0	M1
NMTTP	56	192	4	E	0	M1
NMTTP	56	192	4	A	0	M1
NMTTP	56	192	5	E	0	M1
NMTAP	57	0	0
NMHLD	57	0	5	96
NMTAP	57	96	7
NMTAP	57	128	6
NMTAP	57	160	7
NMHLD	57	192	0	96
NMTAP	57	192	5
NMTAP	57	288	6
NMTAP	57	320	4
NMTAP	57	352	5
NMTAP	58	0	0
NMTAP	58	32	2
NMTAP	58	64	1
NMTAP	58	96	5
NMTAP	58	128	3
NMTAP	58	160	4
NMTAP	58	192	1
NMTAP	58	224	3
NMTAP	58	256	2
NMTAP	58	288	7
BRTAP	59	0	1
NMTAP	59	12	0
BRTAP	59	48	1
NMTAP	59	60	0
BRTAP	59	144	6
NMTAP	59	156	7
BRTAP	59	192	6
NMTAP	59	204	7
BRTAP	59	288	5
NMTAP	59	300	4
BRTAP	59	336	5
NMTAP	59	348	4
BRTAP	60	48	2
NMTAP	60	60	3
BRTAP	60	96	2
NMTAP	60	108	3
BXSTR	60	192	0
NMSI_	60	192	0	96	48	4
BRSTR	60	192	7
NMSI_	60	192	7	96	48	3
BRTAP	60	224	0
BXTAP	60	224	7
BXTAP	60	256	0
BRTAP	60	256	7
BRTAP	60	288	0
BXTAP	60	288	7
NMTTP	61	0	2	A	0	M1
NMTTP	61	0	3	E	0	M1
NMTTP	61	0	5	E	0	M1
NMTTP	61	0	5	A	0	M1
EXTAP	61	96	0
EXTAP	61	96	7
NMTAP	61	192	1
NMTAP	61	192	6
NMTAP	61	240	5
NMHLD	61	288	4	96
NMTAP	62	0	2
NMTTP	62	96	2	E	0	M1
NMTTP	62	128	2	B	0	M1
NMTTP	62	160	4	B	0	M1
NMTTP	62	192	5	E	0	M1
NMTTP	62	288	6	E	0	M1
NMTTP	62	320	5	B	0	M1
NMTTP	62	352	3	B	0	M1
NMTTP	63	0	3	E	0	M1
BXHLD	63	0	7	144
NMTTP	63	144	0	E	0	M1
NMTTP	63	168	0	C	0	M1
NMTTP	63	192	4	E	0	M1
NMTTP	63	288	3	E	0	M1
NMTTP	63	288	5	E	0	M1
NMTTP	64	0	4	B	0	M1
NMTTP	64	0	6	B	0	M1
NMTTP	64	96	1	B	0	M1
NMTTP	64	96	3	B	0	M1
NMTTP	64	192	0	C	0	M1
NMTAP	65	0	1
NMTAP	65	96	2
NMTAP	65	144	4
NMTAP	65	192	3
NMTAP	65	240	5
NMTAP	65	288	4
NMHLD	66	0	6	96
NMTAP	66	96	5
NMTAP	66	128	4
NMTAP	66	160	3
NMHLD	66	192	5	96
NMTAP	66	288	4
NMTAP	66	320	3
NMTAP	66	352	2
NMHLD	67	0	1	192
NMTAP	67	144	5
NMTAP	67	168	4
NMTAP	67	192	3
NMTAP	67	288	2
NMTAP	67	288	3
NMTAP	68	0	3
NMTAP	68	0	4
NMTAP	68	96	4
NMTAP	68	96	5
NMTAP	68	192	3
NMTAP	68	192	4
NMTTP	68	372	3	E	0	M1
NMTTP	69	0	2	B	0	M1
NMTTP	69	48	7	A	0	M1
NMTTP	69	96	0	B	0	M1
NMTTP	69	144	6	A	0	M1
NMTTP	69	192	0	C	0	M1
NMTTP	69	240	5	A	0	M1
NMTTP	69	288	4	E	0	M1
NMTTP	70	0	3	A	0	M1
NMTTP	70	0	4	A	0	M1
NMTTP	70	192	7	B	0	M1
NMTTP	70	224	6	B	0	M1
NMTTP	70	256	6	E	0	M1
NMTTP	70	288	2	E	0	M1
NMTTP	70	320	2	B	0	M1
NMTTP	70	352	3	B	0	M1
NMTTP	71	0	4	E	0	M1
NMTTP	71	96	5	B	0	M1
NMTTP	71	192	2	B	0	M1
NMTTP	71	288	4	E	0	M1
NMTTP	72	0	3	D	0	M1
NMTTP	72	96	4	D	0	M1
NMTTP	72	192	5	D	0	M1
NMTAP	73	0	3
NMTAP	73	0	5
NMTAP	73	48	4
NMTAP	73	96	3
NMTAP	73	144	2
NMTAP	73	144	5
NMTAP	73	192	4
NMTAP	73	240	3
NMTAP	73	288	2
NMTAP	73	288	4
NMTAP	73	336	3
NMTAP	74	0	2
NMTAP	74	48	1
NMTAP	74	48	4
NMTAP	74	96	3
NMTAP	74	144	2
NMTAP	74	192	1
NMTAP	74	192	3
NMTAP	74	240	2
NMTAP	74	288	1
NMHLD	74	336	0	48
NMTAP	74	336	2
NMTTP	75	0	2	D	0	M1
NMTTP	75	4	1	A	0	M1
NMTTP	75	8	1	D	0	M1
NMTTP	75	12	0	A	0	M1
NMTTP	75	16	0	D	0	M1
NMTTP	75	20	7	A	0	M1
NMTTP	75	24	7	D	0	M1
NMTTP	75	28	6	A	0	M1
NMTTP	75	32	6	D	0	M1
NMTTP	75	36	5	A	0	M1
NMHLD	75	96	3	24
NMHLD	75	96	4	24
NMSTR	76	96	4
NMSF_	76	96	4	96	1248	0
NMTAP	80	96	5
NMTAP	80	144	4
NMTAP	80	192	3
NMHLD	80	240	2	96
NMTTP	80	336	5	E	0	M1
NMTTP	81	0	4	E	0	M1
NMTTP	81	48	3	E	0	M1
NMTTP	81	96	5	A	0	M1
NMTTP	81	144	4	A	0	M1
NMTTP	81	192	3	A	0	M1
NMTTP	81	240	2	A	0	M1
NMTTP	81	288	5	B	0	M1
NMTTP	81	336	4	B	0	M1
NMTTP	82	0	3	B	0	M1
NMTTP	82	48	2	B	0	M1
NMHLD	82	96	6	288
NMHLD	82	288	1	96
NMTTP	83	96	1	B	0	M1
NMTTP	83	128	6	B	0	M1
NMTTP	83	160	2	B	0	M1
NMTTP	83	192	5	B	0	M1
NMTTP	83	224	3	E	0	M1
NMTTP	83	256	5	E	0	M1
NMTHO	83	288	0	192	C	0	M1
EXTAP	84	96	7
NMTAP	84	192	0
NMTAP	84	192	7
NMTAP	84	288	1
NMTAP	84	288	6
NMTAP	84	336	1
NMTAP	84	336	6
NMTAP	85	0	2
NMTAP	85	0	5
NMTAP	85	48	2
NMTAP	85	48	5
NMTAP	85	96	3
NMTAP	85	96	4
NMTAP	85	144	3
NMTAP	85	144	4
NMTAP	85	192	4
NMTAP	85	192	5
NMTAP	85	240	4
NMTAP	85	240	5
NMTAP	85	288	3
NMTAP	85	288	4
NMTAP	85	336	3
NMTAP	85	336	4
NMTAP	86	0	2
NMTAP	86	24	3
NMTAP	86	48	2
NMTAP	86	72	3
NMSTR	86	96	1
NMSI_	86	96	1	96	48	4
BRTAP	86	192	1
NMTAP	86	192	7
NMSTR	86	240	6
NMSI_	86	240	6	96	48	2
BRTAP	86	336	6
NMTAP	86	336	7
NMTAP	87	48	1
NMTAP	87	72	3
NMTAP	87	96	2
NMTAP	87	120	4
NMTAP	87	144	3
NMTAP	87	192	4
BRTAP	87	192	6
BRTAP	87	264	0
NMTAP	87	264	7
BRTAP	87	336	1
BRTAP	87	336	5
NMTAP	88	48	3
NMTAP	88	48	4
EXTAP	88	96	1
EXTAP	88	96	7
EXSTR	88	192	6
BRSI_	88	192	6	96	48	4
EXSTR	88	240	7
BRSI_	88	240	7	96	48	3
EXTAP	88	288	6
EXTAP	88	336	7
EXSTR	89	0	0
BRSI_	89	0	0	96	48	6
EXSTR	89	48	1
BRSI_	89	48	1	96	48	5
EXSTR	89	96	0
BRSI_	89	96	0	96	48	4
EXTAP	89	144	1
EXSTR	89	192	0
BRSCR	89	192	0	96	48	3
EXSTR	89	288	0
BRSCL	89	288	0	96	48	5
EXTAP	90	0	0
EXSTR	90	0	3
BRSI_	90	0	3	96	48	7
EXTAP	90	72	2
EXTAP	90	96	3
NMTAP	90	144	1
BRTAP	90	192	0
BRTAP	90	192	6
NMTAP	90	288	4
NMTAP	90	288	5
BRTAP	90	336	2
BRTAP	90	336	7
NMTAP	91	48	6
NMTAP	91	72	4
NMTAP	91	96	5
NMTAP	91	120	3
NMTAP	91	144	4
BRTAP	91	192	1
EXTAP	91	192	3
BRTAP	91	264	0
EXTAP	91	264	7
EXTAP	91	336	2
BRSTR	91	336	6
NMSUL	91	336	6	96	96	2
NMSTR	92	192	1
NMSI_	92	192	1	96	48	3
NMTAP	92	288	5
CNSCR	92	336	3	0	48	4
NMTAP	92	336	5
CNSI_	93	0	4	0	48	0
NMTAP	93	0	5
CNSI_	93	48	0	0	48	6
NMTAP	93	48	5
NMTAP	93	96	5
NMTAP	93	192	1
NMSTR	93	192	6
NMSI_	93	192	6	96	48	4
NMTAP	93	288	2
NMTAP	93	336	2
CNSCL	93	336	4	0	48	3
NMTAP	94	0	2
CNSI_	94	0	3	0	48	7
NMTAP	94	48	2
CNSI_	94	48	7	0	48	1
NMTAP	94	96	2
NMSTR	94	192	3
NMSI_	94	192	3	96	48	1
NMTAP	94	288	7
CNSCL	94	336	1	0	48	0
NMTAP	94	336	7
CNSI_	95	0	0	0	48	4
NMTAP	95	0	7
CNSI_	95	48	4	0	48	6
NMTAP	95	48	7
NMHLD	95	96	7	96
NMTAP	95	192	5
NMTAP	95	240	4
NMTAP	95	288	3
NMTAP	95	288	5
NMTAP	95	336	2
NMTAP	95	336	4
NMTTP	96	0	0	C	1	M1
NMTAP	96	0	1
BXHLD	96	192	1	64
BXHLD	96	192	6	64
NMTAP	96	288	5
NMTAP	96	320	4
NMTAP	96	352	5
BXHLD	97	0	3	64
BXHLD	97	0	6	64
NMTAP	97	96	2
NMTAP	97	128	3
NMTAP	97	160	2
BXHLD	97	192	1	64
BXHLD	97	192	4	64
NMTAP	97	288	5
NMTAP	97	320	4
NMTAP	97	352	6
BXSTR	98	0	3
BRSI_	98	0	3	96	48	0
BXSTR	98	0	7
BRSI_	98	0	7	96	48	4
NMTAP	98	96	3
NMTAP	98	96	7
BXTAP	98	192	1
BXTAP	98	192	5
NMTAP	98	288	6
NMTAP	98	320	7
NMTAP	98	352	5
BXHLD	99	0	3	64
BXHLD	99	0	6	64
NMTAP	99	96	2
NMTAP	99	128	3
NMTAP	99	160	1
NMTAP	99	192	6
NMTAP	99	224	7
NMTAP	99	256	5
NMTAP	99	288	1
NMTAP	99	320	0
NMTAP	99	352	2
NMSTR	100	0	3
NMSCL	100	0	3	96	48	1
NMSTR	100	0	4
NMSCR	100	0	4	96	48	6
NMTAP	100	96	3
NMTAP	100	96	4
EXSTR	100	191	0
NMSSL	100	191	0	96	49	4
BXSTR	100	192	7
BRSSR	100	192	7	96	48	3
NMTTP	100	288	0	E	1	M1
NMTAP	101	48	1
NMTAP	101	48	5
NMTAP	101	96	5
NMTAP	101	144	5
BRTAP	101	192	0
NMTAP	101	224	1
NMTAP	101	256	2
BRTAP	101	288	7
NMTAP	101	320	0
NMTAP	101	352	1
BRTAP	102	0	6
NMTAP	102	32	7
NMTAP	102	64	0
NMTAP	102	96	1
BRSTR	102	96	5
BRSCR	102	96	5	96	48	0
BRTAP	102	192	4
BXTAP	102	288	2
BXTAP	102	312	3
BXTAP	102	336	2
BXTAP	102	360	3
BXTAP	103	0	0
NMTAP	103	24	7
BXTAP	103	48	0
NMTAP	103	72	7
BXSTR	103	96	0
BRSI_	103	96	0	96	48	4
BRTAP	103	192	0
NMSTR	103	192	7
BRSI_	103	192	7	96	48	3
NMTAP	103	240	6
BRSTR	103	288	0
BRSI_	103	288	0	96	48	4
NMTAP	103	288	7
NMTAP	103	336	1
BRTAP	104	0	0
BRTAP	104	0	5
NMTAP	104	48	6
BRTAP	104	96	2
BRTAP	104	96	7
NMSTR	104	192	1
NMSCR	104	192	1	96	48	4
NMTAP	104	216	0
NMHLD	104	240	2	96
NMSTR	105	0	5
NMSCR	105	0	5	96	48	0
NMTAP	105	24	4
NMHLD	105	48	6	96
NMSTR	105	192	1
NMSCL	105	192	1	96	48	6
NMTAP	105	216	0
NMHLD	105	240	2	96
NMSTR	106	0	5
NMSCL	106	0	5	96	48	2
NMTAP	106	24	4
NMHLD	106	48	6	96
NMTAP	106	192	7
NMTAP	106	216	6
NMTAP	106	240	5
NMTAP	106	264	4
NMTAP	106	288	1
NMTAP	106	312	2
NMTAP	106	336	3
NMTAP	106	360	4
NMTAP	107	0	7
NMTAP	107	24	6
NMTAP	107	48	5
NMTAP	107	72	4
NMTAP	107	96	1
NMTAP	107	120	0
NMTAP	107	144	1
NMTAP	107	168	0
EXTAP	107	192	2
NMTAP	107	224	2
NMTAP	107	256	3
EXTAP	107	288	6
NMTAP	107	320	6
NMTAP	107	352	4
EXTAP	108	0	3
NMTAP	108	32	3
NMTAP	108	64	2
BRSTR	108	96	0
NMSI_	108	96	0	96	48	5
NMSTR	108	192	0
NMSI_	108	192	0	96	48	3
NMTAP	108	192	1
NMSTR	108	288	0
NMSI_	108	288	0	96	48	5
NMTAP	108	288	7
NMSTR	109	0	0
NMSI_	109	0	0	96	48	3
NMTAP	109	0	2
NMTAP	109	96	0
NMSTR	109	96	4
BRSI_	109	96	4	96	48	7
NMTAP	109	192	2
NMSTR	109	192	4
BRSI_	109	192	4	96	48	1
NMTAP	109	288	4
NMTAP	109	288	6
NMTAP	110	0	0
NMTAP	110	0	5
EXTAP	110	72	7
EXSTR	110	96	7
BRSI_	110	96	7	96	48	5
EXSTR	110	144	0
NMSI_	110	144	0	96	48	4
NMSTR	110	192	7
BRSI_	110	192	7	96	48	3
NMSTR	110	240	0
NMSI_	110	240	0	96	48	2
NMSTR	110	288	7
BRSI_	110	288	7	96	48	5
NMSTR	110	336	0
NMSI_	110	336	0	96	48	4
NMSTR	111	0	7
BRSI_	111	0	7	96	48	3
NMSTR	111	48	0
NMSI_	111	48	0	96	48	2
NMTAP	111	96	7
NMTAP	111	144	0
BRTAP	111	192	7
NMTAP	111	288	6
NMTAP	111	288	7
NMTAP	111	336	0
NMTAP	111	336	5
NMTAP	112	48	1
NMTAP	112	72	3
NMTAP	112	96	2
NMTAP	112	144	6
NMTAP	112	168	4
NMTAP	112	192	5
NMTAP	112	240	4
NMTAP	112	240	6
NMTAP	112	288	2
NMTAP	112	336	1
NMTAP	112	336	3
NMTAP	113	0	0
NMTAP	113	48	4
NMTAP	113	48	6
NMTAP	113	96	7
NMTAP	113	144	1
NMTAP	113	144	3
NMTAP	113	192	0
NMTAP	113	216	6
NMTAP	113	240	1
NMTAP	113	264	5
NMTAP	113	288	2
NMTAP	113	312	4
NMTAP	113	336	3
NMTTP	114	0	0	C	1	M1
BRTAP	114	0	5
NMTTP	114	72	0	C	1	M1
BRTAP	114	72	1
NMTTP	114	144	0	C	1	M1
BRTAP	114	144	7
NMSTR	115	96	0
NMSI_	115	96	0	96	48	4
NMTAP	115	192	0
NMTAP	115	192	5
NMSTR	115	240	5
NMSI_	115	240	5	96	48	1
NMTAP	115	288	5
NMTAP	115	336	3
NMTAP	115	336	5
NMSTR	116	0	3
NMSI_	116	0	3	96	48	7
NMTAP	116	48	3
NMTAP	116	96	0
NMTAP	116	96	3
NMSTR	116	144	0
NMSI_	116	144	0	96	48	4
NMTAP	116	192	0
NMTAP	116	240	0
NMTAP	116	240	2
NMSTR	116	288	2
NMSI_	116	288	2	96	48	6
NMTAP	116	336	2
NMTAP	117	0	2
NMTAP	117	0	6
NMSTR	117	96	7
BRSI_	117	96	7	96	48	3
NMTAP	117	192	3
NMTAP	117	192	7
NMSTR	117	240	2
BRSI_	117	240	2	96	48	6
NMTAP	117	288	1
NMTAP	117	336	2
NMTAP	117	336	6
NMSTR	118	0	5
BRSI_	118	0	5	96	48	1
NMTAP	118	48	4
NMTAP	118	96	1
NMTAP	118	96	5
NMSTR	118	144	0
BRSI_	118	144	0	96	48	4
NMTAP	118	192	7
NMTAP	118	240	0
NMTAP	118	240	4
NMSTR	118	288	3
BRSI_	118	288	3	96	48	7
NMTAP	118	336	2
NMTAP	119	0	1
NMTAP	119	0	3
EXTAP	119	96	0
EXTAP	119	96	6
BRTAP	119	192	1
BRTAP	119	192	7
NMTAP	119	288	4
NMTAP	119	288	6
NMTAP	119	336	4
NMTAP	119	336	6
NMTAP	120	0	3
NMTAP	120	0	4
NMTAP	120	48	3
NMTAP	120	48	4
NMTAP	120	96	1
NMTAP	120	96	3
NMTAP	120	144	1
NMTAP	120	144	3
NMTAP	120	192	2
NMTAP	120	192	4
NMTAP	120	240	3
NMTAP	120	240	5
NMTAP	120	288	4
NMTAP	120	288	6
NMTAP	120	336	5
NMTAP	120	336	7
NMTAP	121	0	4
NMTAP	121	0	6
NMTAP	121	48	3
NMTAP	121	48	5
NMTAP	121	96	2
NMTAP	121	96	6
NMTAP	121	144	2
NMTAP	121	144	6
BRTAP	121	192	5
EXTAP	121	216	3
BXTAP	121	240	4
NMTAP	121	264	2
BRHLD	121	288	6	0
EXHLD	121	312	0	0
BXHLD	121	336	7	0
NMHLD	121	360	1	0
BRTAP	122	0	5
NMTAP	122	24	3
BXHLD	122	48	4	0
EXTAP	122	72	2
EXTAP	122	96	1
BRSTR	122	96	7
NMSI_	122	96	7	96	48	3
EXTAP	122	192	3
BRTAP	122	192	7
NMSTR	122	240	1
NMSI_	122	240	1	96	48	4
BRTAP	122	336	1
EXTAP	122	336	4
NMSTR	123	0	5
NMSI_	123	0	5	96	48	0
BRTAP	123	96	0
BRTAP	123	96	5
BRTAP	123	160	3
BRTAP	123	224	1
BRHLD	123	224	7	152
BXTAP	124	0	0
EXTAP	124	0	6
BXTAP	124	8	1
EXTAP	124	8	5
BXTAP	124	16	2
EXTAP	124	16	4
BXTAP	124	24	3
BRSTR	124	96	6
BRSLL	124	96	6	96	768	0
NMSTR	124	97	1
NMSV_	124	97	1	96	383	2
CNSI_	125	192	2	0	384	4

T_REC_TAP	551
T_REC_BRK	52
T_REC_XTP	55
T_REC_BXX	38
T_REC_HLD	33
T_REC_XHO	5
T_REC_BHO	2
T_REC_BXH	14
T_REC_STR	55
T_REC_BST	9
T_REC_XST	29
T_REC_XBS	6
T_REC_TTP	137
T_REC_THO	3
T_REC_SLD	73
T_REC_BSL	27
T_REC_ALL	1089
T_NUM_TAP	827
T_NUM_BRK	148
T_NUM_HLD	41
T_NUM_SLD	73
T_NUM_ALL	1089
T_JUDGE_TAP	932
T_JUDGE_HLD	147
T_JUDGE_SLD	100
T_JUDGE_ALL	1179
TTM_EACHPAIRS	168
TTM_SCR_TAP	413500
TTM_SCR_BRK	384800
TTM_SCR_HLD	41000
TTM_SCR_SLD	109500
TTM_SCR_ALL	948800
TTM_SCR_S	906000
TTM_SCR_SS	934000
TTM_RAT_ACV	10158

