VERSION	0.00.00	1.04.00
FES_MODE	0
BPM_DEF	195.000	200.000	200.000	 25.000
MET_DEF	4	4
RESOLUTION	384
CLK_DEF	384
COMPATIBLE_CODE	MA2

BPM	0	0	195.000
BPM	45	0	200.000
BPM	65	0	190.000
BPM	73	144	180.000
BPM	73	288	165.000
BPM	74	48	150.000
BPM	74	192	135.000
BPM	74	336	 25.000
BPM	75	96	190.000
BPM	82	96	185.000
BPM	82	288	180.000
BPM	83	96	175.000
BPM	83	288	100.000
BPM	84	96	200.000
MET	0	0	4	4
MET	6	0	8	13
MET	9	96	4	3
MET	10	288	4	4
MET	14	288	4	1
MET	15	0	4	4
MET	73	0	8	3
MET	75	96	4	4
MET	84	96	4	1
MET	84	192	4	4

BXTAP	2	0	0
EXTAP	2	96	1
EXTAP	2	96	4
NMTAP	2	192	2
NMTAP	2	240	2
NMTAP	2	288	3
NMSTR	3	0	6
NMSCL	3	0	6	96	96	2
NMSTR	3	192	0
NMSCR	3	192	0	96	96	4
NMHLD	4	0	7	576
NMTAP	4	192	6
NMTAP	4	288	0
NMTAP	5	0	5
NMTAP	5	96	1
NMSTR	5	192	3
NMSI_	5	192	3	96	48	7
EXTAP	6	0	0
EXTAP	6	0	6
NMTAP	6	96	7
EXTAP	6	144	0
EXTAP	6	144	6
NMTAP	6	240	7
EXHLD	6	288	0	240
EXSTR	6	288	6
NMSCL	6	288	6	96	144	2
EXTAP	7	240	1
EXTAP	7	240	7
NMTAP	7	336	0
EXTAP	8	0	1
EXTAP	8	0	7
NMTAP	8	96	0
EXSTR	8	144	1
NMSCR	8	144	1	96	144	5
EXHLD	8	144	7	240
NMTAP	9	96	0
NMTAP	9	168	1
NMHLD	9	240	2	96
NMHLD	9	240	4	96
NMTAP	10	0	7
NMTAP	10	72	6
NMHLD	10	144	3	96
NMHLD	10	144	5	96
NMTAP	10	288	3
NMTAP	10	288	4
NMTAP	10	352	5
NMTAP	11	0	4
NMTAP	11	32	5
NMTAP	11	96	1
NMTAP	11	96	7
NMTAP	11	160	2
NMTAP	11	192	3
NMTAP	11	224	2
NMTAP	11	288	0
NMHLD	11	288	6	96
NMHLD	12	0	5	96
NMHLD	12	96	4	96
NMHLD	12	192	3	96
NMHLD	12	288	2	96
NMHLD	13	0	1	96
NMHLD	13	96	0	96
NMHLD	13	192	7	96
EXSTR	13	288	6
NMSSL	13	288	6	96	288	2
BRSTR	15	0	0
NMSXL	15	0	0	96	480	4
BRSTR	15	0	4
NMSXL	15	0	4	96	480	0
NMTAP	17	0	1
NMTAP	17	48	2
NMTAP	17	96	3
NMTAP	17	144	4
NMTAP	17	192	1
NMTAP	17	240	2
NMTAP	17	288	3
NMTAP	17	336	4
NMTAP	18	0	1
NMTAP	18	48	2
NMTAP	18	96	3
NMTAP	18	144	4
NMTAP	18	192	1
NMTAP	18	240	2
NMTAP	18	288	3
NMTAP	18	336	4
NMTAP	19	0	2
NMTAP	19	48	3
NMTAP	19	96	4
NMTAP	19	144	5
NMTAP	19	192	2
NMTAP	19	240	3
NMTAP	19	288	4
NMTAP	19	336	5
NMTAP	20	0	2
NMTAP	20	48	3
NMTAP	20	96	4
NMTAP	20	144	5
NMTAP	20	192	2
NMTAP	20	240	3
NMTAP	20	288	4
NMTAP	20	336	5
NMTAP	21	0	1
NMTAP	21	48	2
NMTAP	21	96	3
NMTAP	21	144	4
NMTAP	21	192	1
NMTAP	21	240	2
NMTAP	21	288	3
NMTAP	21	336	4
NMTAP	22	0	1
NMTAP	22	48	2
NMTAP	22	96	3
NMTAP	22	144	4
NMTAP	22	192	1
NMTAP	22	240	2
NMTAP	22	288	3
NMTAP	22	336	4
NMTAP	23	0	2
NMTAP	23	48	3
NMTAP	23	96	4
NMTAP	23	144	5
NMTAP	23	192	2
NMTAP	23	240	3
NMTAP	23	288	4
NMTAP	23	336	5
EXSTR	24	0	3
NMSCL	24	0	3	96	192	7
EXTAP	24	0	6
EXTAP	25	0	6
NMTAP	25	24	7
NMTAP	25	48	6
NMTAP	25	72	7
NMHLD	25	96	6	432
NMTAP	25	192	0
NMTAP	25	240	0
NMTAP	25	336	5
NMTAP	26	0	5
NMTAP	26	96	1
NMTAP	26	144	1
NMTAP	26	240	3
NMTAP	26	240	6
NMTAP	26	288	3
NMTAP	26	288	6
EXTAP	27	0	1
NMTAP	27	24	0
NMTAP	27	48	1
NMTAP	27	72	0
NMHLD	27	96	1	432
NMTAP	27	192	7
NMTAP	27	240	7
NMTAP	27	336	2
NMTAP	28	0	2
NMTAP	28	96	6
NMTAP	28	144	6
NMTAP	28	240	1
NMTAP	28	240	4
NMTAP	28	288	1
NMTAP	28	288	4
NMHLD	29	0	7	96
NMHLD	29	96	5	96
NMHLD	29	192	3	96
NMHLD	29	288	1	96
NMHLD	30	0	0	96
NMHLD	30	96	2	96
NMHLD	30	192	4	96
NMTAP	30	288	6
EXTAP	31	0	0
EXTAP	31	0	7
NMTAP	31	96	2
NMTAP	31	128	3
NMTAP	31	160	2
NMTAP	31	192	3
NMTAP	31	288	5
NMTAP	31	320	4
NMTAP	31	352	5
NMSTR	32	0	4
NMSI_	32	0	4	96	48	0
NMSTR	32	96	6
NMSI_	32	96	6	96	48	2
NMSTR	32	192	1
NMSI_	32	192	1	96	48	5
NMTAP	32	288	7
NMTAP	33	0	1
NMTAP	33	0	6
NMHLD	33	96	2	288
NMSTR	33	96	7
NMSSR	33	96	7	96	192	3
NMSTR	34	96	0
NMSSL	34	96	0	96	192	4
NMHLD	34	96	5	288
NMTAP	35	96	3
NMTAP	35	96	4
NMTAP	35	192	3
NMTAP	35	192	5
NMTAP	35	288	3
NMTAP	35	288	6
EXTAP	36	0	2
EXTAP	36	0	7
EXTAP	36	96	0
EXTAP	36	96	5
BRTAP	36	192	1
BRTAP	36	192	6
EXTAP	37	0	3
EXHLD	37	0	6	288
NMTAP	37	96	5
NMSTR	37	192	7
NMSI_	37	192	7	96	48	3
NMHLD	38	0	1	288
NMTAP	38	0	4
NMTAP	38	96	2
NMSTR	38	192	0
NMSI_	38	192	0	96	48	4
NMTAP	39	0	3
NMHLD	39	0	6	288
NMTAP	39	96	5
NMSTR	39	192	7
NMSI_	39	192	7	96	48	3
NMTAP	40	0	1
NMTAP	40	0	7
NMTAP	40	64	2
NMTAP	40	64	6
NMTAP	40	128	3
NMTAP	40	128	5
NMTAP	40	192	4
NMTAP	40	256	3
NMTAP	40	256	5
NMTAP	40	320	2
NMTAP	40	320	6
NMTAP	41	0	1
NMHLD	41	0	7	576
NMTTP	41	192	4	E	0	M1
NMTTP	41	288	6	E	0	M1
NMTTP	42	0	0	E	0	M1
NMTTP	42	96	2	E	0	M1
NMTTP	42	192	4	E	0	M1
EXTAP	43	0	0
EXTAP	43	0	7
NMTAP	43	96	3
NMTAP	43	120	4
NMTAP	43	144	3
NMTAP	43	168	4
NMTAP	43	192	2
NMTAP	43	216	5
NMTAP	43	240	2
NMTAP	43	264	5
NMTAP	43	288	1
NMTAP	43	312	6
NMTAP	43	336	1
NMTAP	43	360	6
NMSTR	44	0	0
NMSCR	44	0	0	96	96	6
BRTAP	44	192	7
NMTAP	45	0	0
NMTAP	45	0	6
NMTAP	45	48	1
NMTAP	45	96	2
NMHLD	45	144	3	96
NMTAP	45	144	7
NMTAP	45	240	0
NMTAP	45	288	7
NMTAP	45	336	6
NMSTR	46	0	4
NMSI_	46	0	4	96	48	1
NMSTR	46	0	5
NMSI_	46	0	5	96	48	1
NMSTR	46	192	0
NMSI_	46	192	0	96	48	5
NMSTR	46	192	7
NMSI_	46	192	7	96	48	5
NMHLD	47	0	2	96
NMHLD	47	0	4	96
NMTAP	47	144	0
NMHLD	47	144	2	144
NMTAP	47	240	1
NMTAP	47	288	1
EXTAP	48	0	2
EXTAP	48	0	4
EXTAP	48	72	3
EXTAP	48	72	6
EXHLD	48	144	0	96
EXHLD	48	144	5	96
NMTAP	48	288	3
NMTAP	48	288	4
NMTAP	49	0	1
NMTAP	49	0	7
NMTAP	49	48	6
NMTAP	49	96	5
NMTAP	49	144	0
NMHLD	49	144	4	96
NMTAP	49	240	7
NMTAP	49	288	0
NMTAP	49	336	1
NMSTR	50	0	2
NMSI_	50	0	2	96	48	6
NMSTR	50	0	3
NMSI_	50	0	3	96	48	6
EXTAP	50	192	5
EXTAP	50	192	7
EXTAP	50	264	0
EXTAP	50	264	2
EXTAP	50	336	3
EXTAP	50	336	4
NMHLD	51	0	3	96
NMHLD	51	0	5	96
NMHLD	51	144	5	144
NMTAP	51	144	7
NMTAP	51	240	6
NMTAP	51	288	6
EXTAP	52	0	3
EXTAP	52	0	5
EXTAP	52	72	1
EXTAP	52	72	4
EXTAP	52	144	2
EXSTR	52	144	7
NMSCL	52	144	7	96	144	3
NMHLD	53	0	2	192
NMTAP	53	96	1
NMHLD	53	192	0	192
NMTAP	53	288	7
NMHLD	54	0	6	192
NMTAP	54	96	5
NMHLD	54	192	4	192
NMTAP	54	288	3
NMHLD	55	0	2	96
NMHLD	55	96	1	96
NMHLD	55	192	0	96
NMHLD	55	288	7	96
NMTAP	56	0	6
NMTAP	56	96	3
NMTAP	56	96	4
BRTAP	56	192	2
BRTAP	56	192	6
EXTAP	57	0	0
EXTAP	57	0	7
NMTAP	57	96	5
NMTAP	57	128	4
NMTAP	57	160	5
NMHLD	57	192	4	96
NMHLD	57	288	3	96
NMSTR	58	0	1
NMSI_	58	0	1	96	48	5
NMSTR	58	192	6
NMSI_	58	192	6	96	48	3
NMSTR	58	192	7
NMSI_	58	192	7	96	48	3
EXTAP	59	0	2
EXTAP	59	0	4
NMTAP	59	48	2
NMTAP	59	48	4
NMTAP	59	144	3
NMTAP	59	144	5
NMTAP	59	192	3
NMTAP	59	192	5
NMTAP	59	288	1
NMTAP	59	288	3
NMTAP	59	336	1
NMTAP	59	336	3
NMTAP	60	48	4
NMTAP	60	48	6
NMTAP	60	96	4
NMTAP	60	96	6
EXTAP	60	192	7
EXTAP	60	224	7
EXTAP	60	256	7
EXTAP	60	288	7
BXTAP	61	0	0
EXTAP	61	96	1
EXTAP	61	96	4
NMTAP	61	192	2
NMTAP	61	240	2
NMTAP	61	288	3
NMSTR	62	0	6
NMSCL	62	0	6	96	96	2
NMSTR	62	192	0
NMSCR	62	192	0	96	96	4
NMHLD	63	0	7	576
NMTAP	63	192	6
NMTAP	63	288	0
NMTAP	64	0	5
NMTAP	64	96	1
NMHLD	64	192	3	192
NMSTR	65	0	2
NMSCL	65	0	2	96	672	4
NMTAP	67	0	0
NMTAP	67	192	2
NMTAP	67	288	3
NMTAP	68	0	4
NMTAP	68	96	5
NMTAP	68	192	3
NMTAP	68	192	4
NMTTP	69	0	6	B	0	M1
NMTTP	69	192	1	B	0	M1
NMTTP	70	0	3	B	0	M1
NMTTP	70	0	4	B	0	M1
NMTTP	70	192	2	B	0	M1
NMTTP	70	192	5	B	0	M1
NMTTP	71	0	0	E	0	M1
NMTTP	71	96	7	E	0	M1
NMTTP	71	192	6	E	0	M1
NMTTP	71	288	5	E	0	M1
NMTTP	72	0	4	E	0	M1
NMTTP	72	96	3	E	0	M1
NMTTP	72	192	2	E	0	M1
EXHLD	73	0	0	96
EXHLD	73	0	6	48
EXHLD	73	144	5	48
EXHLD	73	144	7	96
EXHLD	73	288	4	48
EXHLD	73	288	6	96
EXHLD	74	48	3	48
EXHLD	74	48	5	96
EXTAP	74	192	2
EXTAP	74	192	4
EXTAP	74	240	1
EXSTR	74	288	0
NMSXL	74	288	0	96	96	5
EXHLD	74	336	7	144
NMSTR	76	96	3
NMSF_	76	96	3	96	1056	7
NMTAP	80	96	5
NMTAP	80	144	4
NMTAP	80	192	5
NMHLD	80	240	6	96
NMTAP	80	336	4
NMTAP	81	0	3
NMTAP	81	48	2
NMHLD	81	96	1	96
NMHLD	81	192	3	96
NMHLD	81	288	4	96
NMHLD	82	0	6	96
NMHLD	82	96	3	96
NMHLD	82	240	2	144
NMHLD	82	240	4	144
NMTAP	83	96	5
NMTAP	83	168	2
NMHLD	83	240	3	144
NMHLD	83	240	4	144
EXTAP	84	96	0
EXTAP	84	120	1
EXTAP	84	144	2
EXTAP	84	168	3
EXTAP	84	192	4
EXTAP	84	192	5
NMHLD	84	288	5	48
NMHLD	84	288	7	48
NMHLD	85	0	0	48
NMHLD	85	0	5	48
NMHLD	85	96	1	48
NMHLD	85	96	5	48
NMHLD	85	192	2	48
NMHLD	85	192	5	48
NMHLD	85	288	3	48
NMHLD	85	288	5	48
NMTAP	86	0	4
NMTAP	86	24	3
NMTAP	86	48	4
NMTAP	86	72	3
NMTAP	86	96	4
NMHLD	86	192	0	96
NMHLD	86	192	4	96
NMHLD	86	336	1	144
NMTAP	86	336	3
NMTAP	87	48	0
NMTAP	87	96	0
EXTAP	87	192	1
EXTAP	87	192	2
EXTAP	87	264	4
EXTAP	87	264	5
EXHLD	87	336	3	96
EXHLD	87	336	7	96
NMTAP	88	96	3
NMTAP	88	96	4
NMTAP	88	192	1
NMTAP	88	192	7
NMTAP	88	240	6
NMTAP	88	288	5
NMTAP	88	336	0
NMHLD	88	336	4	96
NMTAP	89	48	7
NMTAP	89	96	0
NMTAP	89	144	1
NMSTR	89	192	2
NMSCL	89	192	2	96	48	7
NMHLD	89	288	6	96
EXTAP	90	0	0
EXTAP	90	72	2
EXTAP	90	72	4
EXTAP	90	144	3
EXTAP	90	144	6
NMHLD	90	192	3	96
NMHLD	90	192	7	96
NMTAP	90	336	4
NMHLD	90	336	6	144
NMTAP	91	48	7
NMTAP	91	96	7
EXTAP	91	192	5
EXTAP	91	192	6
EXTAP	91	264	2
EXTAP	91	264	3
EXSTR	91	336	0
NMSCR	91	336	0	96	144	4
EXTAP	91	336	4
NMHLD	92	192	0	192
NMTAP	92	288	1
NMHLD	93	0	2	192
NMTAP	93	96	3
NMHLD	93	192	4	192
NMTAP	93	288	5
NMHLD	94	0	6	192
NMTAP	94	96	7
NMHLD	94	192	0	96
NMHLD	94	288	1	96
NMHLD	95	0	2	96
NMHLD	95	96	3	96
NMTAP	95	192	4
NMTAP	95	288	3
NMTAP	95	288	4
BRSTR	96	0	2
NMSCR	96	0	2	96	96	7
BRTAP	96	0	6
EXTAP	96	192	0
NMTAP	96	288	2
NMTAP	96	320	3
NMTAP	96	352	2
NMTAP	97	0	3
NMTAP	97	96	5
NMTAP	97	128	4
NMTAP	97	160	5
NMTAP	97	192	4
NMTAP	97	288	2
NMTAP	97	320	3
NMTAP	97	352	2
NMHLD	98	0	3	96
NMHLD	98	96	1	96
EXTAP	98	192	7
NMTAP	98	288	2
NMTAP	98	320	3
NMTAP	98	352	2
NMTAP	99	0	3
NMTAP	99	96	5
NMTAP	99	128	4
NMTAP	99	160	5
NMHLD	99	192	4	384
NMSTR	99	288	7
NMSCL	99	288	7	96	192	0
BRTAP	100	288	0
BRTAP	100	288	5
NMTAP	101	48	4
NMTAP	101	96	3
NMTAP	101	144	2
NMSTR	101	192	1
NMSCR	101	192	1	96	48	4
NMSTR	101	288	6
NMSI_	101	288	6	96	48	2
NMSTR	102	0	0
NMSI_	102	0	0	96	48	4
NMSTR	102	96	7
NMSCL	102	96	7	96	48	4
EXTAP	102	192	0
NMTAP	102	288	3
NMTAP	102	336	2
NMTAP	103	0	1
NMTAP	103	48	0
NMSTR	103	96	7
NMSI_	103	96	7	96	48	3
NMTAP	103	288	0
NMTAP	103	288	2
NMTAP	104	0	5
NMTAP	104	0	7
NMTAP	104	96	0
NMTAP	104	96	7
EXSTR	104	192	0
NMSI_	104	192	0	96	48	4
NMTAP	104	240	7
NMTAP	104	336	7
EXSTR	105	0	6
NMSI_	105	0	6	96	48	2
NMTAP	105	48	7
NMTAP	105	144	7
EXSTR	105	192	1
NMSI_	105	192	1	96	48	5
NMTAP	105	240	0
NMTAP	105	336	0
EXSTR	106	0	7
NMSI_	106	0	7	96	48	3
NMTAP	106	48	0
NMTAP	106	144	0
EXTAP	106	192	7
EXTAP	106	216	6
EXTAP	106	240	5
EXTAP	106	264	4
EXTAP	106	288	3
EXTAP	106	312	2
EXTAP	106	336	1
EXTAP	106	360	0
EXTAP	107	0	7
EXTAP	107	24	6
EXTAP	107	48	5
EXTAP	107	72	4
EXTAP	107	96	3
EXTAP	107	120	2
EXTAP	107	144	1
EXTAP	107	168	0
EXTAP	107	192	7
NMTAP	107	288	2
NMTAP	107	288	5
EXTAP	108	0	0
EXTAP	108	32	7
EXTAP	108	64	0
BRTAP	108	96	1
BRTAP	108	96	6
NMTAP	108	192	3
NMSTR	108	192	7
NMSI_	108	192	7	96	48	5
NMTAP	108	288	3
NMTAP	109	0	3
NMSTR	109	0	7
NMSI_	109	0	7	96	48	3
NMTAP	109	96	3
NMSTR	109	192	0
NMSI_	109	192	0	96	48	2
NMTAP	109	192	4
NMTAP	109	288	4
NMSTR	110	0	0
NMSI_	110	0	0	96	48	4
NMTAP	110	0	4
NMTAP	110	96	4
NMTAP	110	192	5
NMTAP	110	192	7
NMTAP	110	288	3
NMTAP	110	288	5
NMTAP	111	0	1
NMTAP	111	0	3
NMTAP	111	96	1
NMTAP	111	96	7
NMHLD	111	192	5	96
NMHLD	111	192	7	96
NMSTR	111	336	6
NMSI_	111	336	6	96	48	2
NMSTR	111	336	7
NMSI_	111	336	7	96	48	1
NMSTR	112	192	1
NMSI_	112	192	1	96	48	4
NMTAP	112	240	0
NMTAP	112	288	0
NMSTR	113	0	6
NMSI_	113	0	6	96	48	3
NMTAP	113	48	7
NMTAP	113	96	7
NMTAP	113	192	0
NMTAP	113	216	7
NMTAP	113	240	0
NMTAP	113	264	7
NMTAP	113	288	1
NMTAP	113	312	6
NMTAP	113	336	1
NMTAP	113	360	6
EXTAP	114	0	2
EXTAP	114	72	0
EXTAP	114	72	4
EXHLD	114	144	2	336
EXHLD	114	144	7	336
EXTAP	115	192	5
NMTAP	115	216	4
NMTAP	115	240	5
NMTAP	115	264	4
NMTAP	115	288	5
EXTAP	115	336	2
NMTAP	115	360	3
NMTAP	116	0	2
NMTAP	116	24	3
NMTAP	116	48	2
EXTAP	116	96	6
NMTAP	116	120	4
NMTAP	116	144	6
NMTAP	116	168	4
NMTAP	116	192	6
EXTAP	116	240	1
NMTAP	116	264	3
NMTAP	116	288	1
NMTAP	116	312	3
NMTAP	116	336	1
NMHLD	117	0	2	96
NMSTR	117	0	7
NMSI_	117	0	7	96	48	3
EXTAP	117	192	2
NMTAP	117	216	3
NMTAP	117	240	2
NMTAP	117	264	3
NMTAP	117	288	2
EXTAP	117	336	5
NMTAP	117	360	4
NMTAP	118	0	5
NMTAP	118	24	4
NMTAP	118	48	5
EXTAP	118	96	1
NMTAP	118	120	3
NMTAP	118	144	1
NMTAP	118	168	3
NMTAP	118	192	1
EXTAP	118	240	6
NMTAP	118	264	4
NMTAP	118	288	6
NMTAP	118	312	4
NMTAP	118	336	6
NMSTR	119	0	0
NMSCR	119	0	0	96	96	5
NMTAP	119	0	5
NMHLD	119	192	7	288
NMTAP	119	288	4
NMTAP	119	336	4
NMTAP	120	0	3
NMTAP	120	48	3
NMTAP	120	96	2
NMTAP	120	144	2
NMTAP	120	192	6
NMTAP	120	240	5
NMTAP	120	288	4
NMTAP	120	336	3
NMTAP	121	0	5
NMTAP	121	48	4
NMTAP	121	96	3
NMTAP	121	144	2
EXTAP	121	192	7
NMTAP	121	216	6
NMTAP	121	240	5
NMTAP	121	264	4
EXTAP	121	288	0
NMTAP	121	312	1
NMTAP	121	336	2
NMTAP	121	360	3
EXTAP	122	0	7
NMTAP	122	24	6
NMTAP	122	48	5
NMTAP	122	72	4
EXTAP	122	96	2
EXTAP	122	96	3
EXHLD	122	192	0	64
EXHLD	122	192	1	64
EXHLD	122	336	4	80
EXHLD	122	336	5	80
EXTAP	123	96	2
EXTAP	123	96	7
EXTAP	123	160	0
EXTAP	123	160	5
EXSTR	123	224	3
NMSCL	123	224	3	96	64	0
EXSTR	123	224	7
NMSCL	123	224	7	96	64	4
NMTTP	124	96	0	C	1	M1
BRSTR	124	96	7
BRSCL	124	96	7	96	384	0
CNSXL	125	192	0	0	384	5

T_REC_TAP	377
T_REC_BRK	10
T_REC_XTP	113
T_REC_BXX	2
T_REC_HLD	90
T_REC_XHO	22
T_REC_BHO	0
T_REC_BXH	0
T_REC_STR	42
T_REC_BST	4
T_REC_XST	13
T_REC_XBS	0
T_REC_TTP	19
T_REC_THO	0
T_REC_SLD	58
T_REC_BSL	1
T_REC_ALL	751
T_NUM_TAP	564
T_NUM_BRK	17
T_NUM_HLD	112
T_NUM_SLD	58
T_NUM_ALL	751
T_JUDGE_TAP	580
T_JUDGE_HLD	352
T_JUDGE_SLD	59
T_JUDGE_ALL	991
TTM_EACHPAIRS	129
TTM_SCR_TAP	282000
TTM_SCR_BRK	44200
TTM_SCR_HLD	112000
TTM_SCR_SLD	87000
TTM_SCR_ALL	525200
TTM_SCR_S	507800
TTM_SCR_SS	523500
TTM_RAT_ACV	10032

