VERSION	0.00.00	1.04.00
FES_MODE	0
BPM_DEF	195.000	200.000	200.000	 25.000
MET_DEF	4	4
RESOLUTION	384
CLK_DEF	384
COMPATIBLE_CODE	MA2

BPM	0	0	195.000
BPM	45	0	200.000
BPM	65	0	190.000
BPM	73	144	180.000
BPM	73	288	165.000
BPM	74	48	150.000
BPM	74	192	135.000
BPM	74	336	 25.000
BPM	75	96	190.000
BPM	82	96	185.000
BPM	82	288	180.000
BPM	83	96	175.000
BPM	83	288	100.000
BPM	84	96	200.000
MET	0	0	4	4
MET	6	0	8	13
MET	9	96	4	3
MET	10	288	4	4
MET	14	288	4	1
MET	15	0	4	4
MET	73	0	8	3
MET	75	96	4	4
MET	84	96	4	1
MET	84	192	4	4

EXHLD	2	96	2	192
NMHLD	2	288	3	192
NMTAP	3	96	4
EXHLD	4	0	5	192
NMHLD	4	192	4	192
NMHLD	5	0	3	192
NMTAP	5	192	2
BXSTR	6	0	1
NMSLR	6	0	1	96	384	7
BXSTR	7	240	6
NMSLL	7	240	6	96	384	0
NMTAP	9	96	1
NMTAP	9	192	1
NMTAP	9	288	1
NMTAP	10	0	2
NMTAP	10	96	2
NMTAP	10	192	2
NMTAP	10	288	3
NMTAP	11	0	3
NMTAP	11	96	3
NMTAP	11	96	4
NMTAP	11	192	3
NMTAP	11	192	4
NMHLD	11	288	3	96
NMHLD	11	288	4	96
NMTAP	12	96	3
NMTAP	12	96	4
NMHLD	12	288	2	96
NMHLD	12	288	5	96
NMTAP	13	96	2
NMTAP	13	96	5
NMTHO	13	288	0	480	C	1	L1
NMHLD	17	0	2	192
NMTAP	17	192	3
NMTAP	17	288	3
NMTAP	18	0	4
NMTAP	18	96	4
NMTAP	18	192	3
NMTAP	18	192	5
NMHLD	19	0	5	192
NMTAP	19	192	4
NMTAP	19	288	4
NMTAP	20	0	3
NMTAP	20	96	3
NMTAP	20	192	3
NMTAP	20	192	4
NMHLD	21	0	2	192
NMTAP	21	192	3
NMTAP	21	288	3
NMTAP	22	0	4
NMTAP	22	96	4
NMTAP	22	192	3
NMTAP	22	192	5
NMHLD	23	0	5	192
NMTAP	23	192	4
NMTAP	23	288	4
NMTAP	24	0	3
NMTAP	24	0	5
NMTAP	24	96	3
NMTAP	24	96	5
NMTAP	24	192	3
NMTAP	24	192	5
NMSTR	25	0	6
NMSCL	25	0	6	96	288	3
EXTAP	26	192	1
EXTAP	26	288	1
EXSTR	27	0	1
NMSUR	27	0	1	96	288	5
EXTAP	28	192	6
EXTAP	28	288	6
NMHLD	29	0	6	96
NMHLD	29	0	7	96
NMTAP	29	192	6
NMTAP	29	192	7
NMHLD	30	0	0	96
NMHLD	30	0	1	96
NMTAP	30	192	0
NMTAP	30	192	1
NMHLD	31	0	0	96
NMHLD	31	0	7	96
NMTAP	31	192	0
NMTAP	31	192	7
NMTAP	32	0	1
NMTAP	32	0	6
NMTAP	32	192	1
NMTAP	32	192	6
NMTTP	33	0	2	E	0	L1
NMTTP	33	96	2	B	0	L1
NMTTP	33	192	3	B	0	L1
NMTTP	34	0	6	E	0	L1
NMTTP	34	96	5	B	0	L1
NMTTP	34	192	4	B	0	L1
NMTTP	35	0	2	B	0	L1
NMTTP	35	0	3	E	0	L1
NMTTP	35	192	5	B	0	L1
NMTTP	35	192	6	B	0	L1
NMTTP	36	0	0	C	1	L1
NMTAP	37	0	0
NMTAP	37	96	0
NMTAP	37	192	1
NMTAP	37	288	2
NMTAP	38	0	2
NMTAP	38	0	3
NMTAP	38	96	2
NMTAP	38	96	3
NMTAP	38	192	1
NMTAP	38	192	4
NMTAP	39	0	4
NMTAP	39	96	4
NMTAP	39	192	5
NMTAP	39	288	6
NMTAP	40	0	6
NMTAP	40	0	7
NMTAP	40	96	6
NMTAP	40	96	7
NMTAP	40	192	0
NMTAP	40	192	5
NMHLD	41	0	5	192
NMTAP	41	192	4
NMHLD	42	0	2	192
NMTAP	42	192	3
NMTAP	43	0	4
NMTAP	43	96	4
NMTAP	43	192	3
NMTAP	43	288	3
NMTAP	44	0	3
NMTAP	44	0	4
NMTAP	44	96	2
NMTAP	44	96	5
BRTAP	44	192	1
BRTAP	44	192	6
NMTAP	45	0	1
NMTAP	45	96	1
NMTAP	45	192	0
NMTAP	45	192	1
NMTAP	45	288	0
NMTAP	45	288	1
NMTAP	46	0	7
NMTAP	46	96	6
NMTAP	46	192	0
NMTAP	46	192	5
NMSTR	47	0	6
NMSI_	47	0	6	96	192	3
NMSTR	47	0	7
NMSI_	47	0	7	96	192	2
EXTAP	48	192	2
EXTAP	48	192	3
NMTAP	49	0	5
NMTAP	49	96	5
NMTAP	49	192	4
NMTAP	49	192	5
NMTAP	49	288	4
NMTAP	49	288	5
NMTAP	50	0	3
NMTAP	50	96	2
NMTAP	50	192	1
NMTAP	50	192	4
NMSTR	51	0	2
NMSI_	51	0	2	96	192	7
NMSTR	51	0	3
NMSI_	51	0	3	96	192	6
EXTAP	52	192	6
EXTAP	52	192	7
NMHLD	53	0	6	192
NMHLD	53	192	5	192
NMHLD	54	0	4	192
NMTAP	54	192	3
NMHLD	55	0	1	192
NMHLD	55	192	2	192
NMHLD	56	0	3	192
NMTAP	56	192	4
NMTAP	57	0	5
NMTAP	57	96	4
NMTAP	57	192	3
NMTAP	57	192	6
NMTAP	58	0	2
NMTAP	58	96	3
NMTAP	58	192	1
NMTAP	58	192	4
NMSTR	59	0	2
NMSCL	59	0	2	96	480	5
EXTAP	61	96	3
EXTAP	61	96	4
NMTAP	61	288	5
NMTAP	62	0	5
NMTAP	62	96	4
NMTAP	62	192	3
NMTAP	62	288	2
NMTAP	63	0	2
NMTAP	63	0	3
NMTAP	63	96	2
NMTAP	63	96	3
NMTAP	63	192	4
NMTAP	63	288	5
NMTAP	64	0	4
NMTAP	64	0	5
NMTAP	64	96	4
NMTAP	64	96	5
NMTAP	64	192	3
NMTAP	64	192	6
NMSTR	65	0	2
NMSI_	65	0	2	96	288	5
NMTAP	66	192	6
NMSTR	67	0	6
NMSI_	67	0	6	96	288	2
NMTAP	68	192	1
NMHLD	69	0	1	384
NMHLD	69	0	7	384
NMTTP	71	0	0	E	0	L1
NMTTP	71	192	1	E	0	L1
NMTTP	71	192	7	E	0	L1
NMTTP	72	0	2	E	0	L1
NMTTP	72	0	6	E	0	L1
NMTTP	72	192	3	E	0	L1
NMTTP	72	192	5	E	0	L1
NMTHO	73	0	0	720	C	0	L1
NMTTP	75	96	0	C	0	L1
NMSTR	76	96	7
NMSI_	76	96	7	96	288	4
NMSTR	78	96	3
NMSI_	78	96	3	96	288	0
NMSTR	80	96	7
NMSCL	80	96	7	96	288	4
NMHLD	82	96	3	576
NMHLD	83	96	4	192
NMTAP	84	96	3
NMTAP	84	96	4
NMTAP	84	192	2
NMTAP	84	288	2
NMTAP	85	0	1
NMTAP	85	96	1
NMTAP	85	192	0
NMTAP	85	288	0
NMTAP	86	0	0
NMTAP	86	0	7
NMTAP	86	96	0
NMTAP	86	96	7
NMSTR	86	192	0
NMSI_	86	192	0	96	288	3
NMSTR	86	192	7
NMSI_	86	192	7	96	288	4
EXTAP	88	0	3
EXTAP	88	0	4
EXTAP	88	96	3
EXTAP	88	96	4
NMTAP	88	192	5
NMTAP	88	288	5
NMTAP	89	0	6
NMTAP	89	96	6
NMTAP	89	192	7
NMTAP	89	288	7
NMTAP	90	0	0
NMTAP	90	0	7
NMTAP	90	96	0
NMTAP	90	96	7
NMSTR	90	192	0
NMSI_	90	192	0	96	288	3
NMSTR	90	192	7
NMSI_	90	192	7	96	288	4
EXTAP	92	0	3
EXTAP	92	0	4
NMHLD	92	192	2	192
NMHLD	93	0	3	192
NMHLD	93	192	4	192
NMHLD	94	0	5	192
NMHLD	94	192	6	192
NMHLD	95	0	7	192
NMTAP	95	192	0
NMTAP	96	0	1
NMTAP	96	0	6
NMTTP	96	192	6	E	0	L1
NMTTP	96	288	5	B	0	L1
NMTTP	97	0	4	B	0	L1
NMTTP	97	192	2	E	0	L1
NMTTP	97	288	2	B	0	L1
NMTTP	98	0	3	B	0	L1
NMTTP	98	192	6	E	0	L1
NMTTP	98	288	6	B	0	L1
NMTTP	99	0	7	B	0	L1
NMTTP	99	192	0	C	1	L1
EXTAP	100	192	0
EXTAP	100	192	7
EXTAP	100	288	0
EXTAP	100	288	7
NMTAP	101	0	1
NMTAP	101	96	2
NMTAP	101	192	3
NMTAP	101	192	4
NMTAP	101	288	3
NMTAP	101	288	4
NMTAP	102	0	5
NMTAP	102	96	6
NMTAP	102	192	7
NMTAP	102	240	7
NMTAP	102	288	7
NMTAP	103	0	0
NMTAP	103	48	0
NMTAP	103	96	0
NMTAP	103	192	0
NMTAP	103	192	7
NMTAP	103	288	1
NMTAP	103	288	6
NMTAP	104	0	2
NMTAP	104	0	5
NMTAP	104	96	3
NMTAP	104	96	4
NMTAP	104	192	2
NMTAP	104	240	2
NMTAP	104	288	2
NMTAP	105	0	2
NMTAP	105	0	3
NMTAP	105	96	1
NMTAP	105	96	4
NMTAP	105	192	0
NMTAP	105	240	0
NMTAP	105	288	0
NMTAP	106	0	0
NMTAP	106	0	7
NMTAP	106	96	1
NMTAP	106	96	6
NMTAP	106	192	6
NMTAP	106	240	6
NMTAP	106	288	6
NMTAP	107	0	6
NMTAP	107	0	7
NMTAP	107	96	0
NMTAP	107	96	5
NMTAP	107	192	1
NMTAP	107	192	4
NMTAP	107	288	1
NMTAP	107	288	4
NMTAP	108	0	2
NMTAP	108	0	3
NMTAP	108	192	5
NMTAP	108	288	4
NMTAP	108	288	5
NMTAP	109	0	2
NMTAP	109	96	2
NMTAP	109	96	3
NMTAP	109	192	5
NMTAP	109	288	4
NMTAP	109	288	5
NMTAP	110	0	3
NMTAP	110	0	6
NMTAP	110	96	2
NMTAP	110	96	7
NMTAP	110	192	1
NMTAP	110	288	0
NMTAP	110	288	1
NMTAP	111	0	6
NMTAP	111	96	6
NMTAP	111	96	7
EXTAP	111	192	1
EXTAP	111	288	0
EXTAP	111	288	1
EXTAP	112	0	2
EXTAP	112	0	7
NMTAP	112	192	7
NMTAP	112	288	7
NMTAP	113	0	0
NMTAP	113	96	0
NMTAP	113	192	0
NMTAP	113	192	7
NMTAP	113	288	1
NMTAP	113	288	6
BRTAP	114	0	2
BRTAP	114	0	5
EXTAP	115	192	0
EXTAP	115	192	1
EXTAP	115	336	0
EXTAP	115	336	1
EXTAP	116	96	0
EXTAP	116	96	1
EXTAP	116	240	0
EXTAP	116	240	1
EXTAP	117	0	0
EXTAP	117	0	1
BXTAP	117	192	6
BXTAP	117	192	7
BXTAP	117	336	6
BXTAP	117	336	7
BXTAP	118	96	6
BXTAP	118	96	7
BXTAP	118	240	6
BXTAP	118	240	7
BXTAP	119	0	6
BXTAP	119	0	7
EXTAP	119	192	0
NMTAP	119	288	1
NMTAP	120	0	2
NMTAP	120	96	3
NMTAP	120	192	4
NMTAP	120	288	5
NMTAP	121	0	6
NMTAP	121	96	7
NMTAP	121	192	0
NMTAP	121	192	7
NMTAP	121	240	0
NMTAP	121	240	7
NMTAP	121	288	0
NMTAP	121	288	7
NMTAP	122	0	1
NMTAP	122	0	6
NMTAP	122	48	1
NMTAP	122	48	6
NMTAP	122	96	1
NMTAP	122	96	6
NMHLD	122	192	2	288
NMHLD	122	192	5	1536
NMTHO	124	96	0	864	C	1	L1

T_REC_TAP	253
T_REC_BRK	4
T_REC_XTP	36
T_REC_BXX	10
T_REC_HLD	37
T_REC_XHO	2
T_REC_BHO	0
T_REC_BXH	0
T_REC_STR	15
T_REC_BST	0
T_REC_XST	1
T_REC_XBS	2
T_REC_TTP	29
T_REC_THO	3
T_REC_SLD	18
T_REC_BSL	0
T_REC_ALL	410
T_NUM_TAP	334
T_NUM_BRK	16
T_NUM_HLD	42
T_NUM_SLD	18
T_NUM_ALL	410
T_JUDGE_TAP	350
T_JUDGE_HLD	225
T_JUDGE_SLD	18
T_JUDGE_ALL	593
TTM_EACHPAIRS	105
TTM_SCR_TAP	167000
TTM_SCR_BRK	41600
TTM_SCR_HLD	42000
TTM_SCR_SLD	27000
TTM_SCR_ALL	277600
TTM_SCR_S	267750
TTM_SCR_SS	276000
TTM_RAT_ACV	10057

