VERSION	0.00.00	1.04.00
FES_MODE	0
BPM_DEF	195.000	200.000	200.000	 25.000
MET_DEF	4	4
RESOLUTION	384
CLK_DEF	384
COMPATIBLE_CODE	MA2

BPM	0	0	195.000
BPM	45	0	200.000
BPM	65	0	190.000
BPM	73	144	180.000
BPM	73	288	165.000
BPM	74	48	150.000
BPM	74	192	135.000
BPM	74	336	 25.000
BPM	75	96	190.000
BPM	82	96	185.000
BPM	82	288	180.000
BPM	83	96	175.000
BPM	83	288	100.000
BPM	84	96	200.000
MET	0	0	4	4
MET	6	0	8	13
MET	9	96	4	3
MET	10	288	4	4
MET	14	288	4	1
MET	15	0	4	4
MET	73	0	8	3
MET	75	96	4	4
MET	84	96	4	1
MET	84	192	4	4

EXTAP	2	96	0
EXTAP	4	0	7
EXTAP	6	0	0
EXTAP	7	240	7
NMSTR	9	96	0
NMSI_	9	96	0	96	288	3
NMSTR	10	288	4
NMSI_	10	288	4	96	288	7
NMTAP	12	288	0
NMTAP	13	96	0
NMHLD	13	288	0	480
NMHLD	13	288	7	480
NMTAP	17	0	0
NMTAP	17	192	0
NMTAP	18	0	0
NMTAP	19	0	1
NMTAP	19	192	1
NMTAP	20	0	1
NMTAP	21	0	2
NMTAP	21	192	2
NMTAP	22	0	2
NMTAP	23	0	3
NMTAP	23	0	4
NMTAP	24	0	3
NMTAP	24	0	4
NMTAP	25	0	4
NMTAP	25	192	4
NMTAP	26	0	4
NMTAP	27	0	5
NMTAP	27	192	5
NMTAP	28	0	5
NMTAP	29	0	6
NMTAP	29	192	6
NMTAP	30	0	6
NMHLD	31	0	6	384
NMHLD	31	0	7	384
NMHLD	33	0	0	384
NMHLD	33	0	1	384
NMHLD	35	0	0	384
NMHLD	35	0	7	384
NMTAP	37	0	6
NMTAP	37	192	6
NMTAP	38	0	5
NMTAP	39	0	4
NMTAP	39	192	4
NMTAP	40	0	3
NMTAP	41	0	2
NMTAP	41	192	2
NMTAP	42	0	1
NMTAP	43	0	0
NMTAP	43	192	0
BRTAP	44	0	0
BRTAP	44	0	7
NMTAP	45	0	0
NMTAP	45	96	0
NMTAP	45	192	0
NMTAP	46	0	1
NMTAP	46	192	1
NMTAP	47	0	2
NMTAP	47	96	2
NMTAP	47	192	2
NMTAP	48	0	2
NMTAP	48	0	3
NMTAP	49	0	4
NMTAP	49	96	4
NMTAP	49	192	4
NMTAP	50	0	5
NMTAP	50	192	5
NMTAP	51	0	6
NMTAP	51	96	6
NMTAP	51	192	6
NMTAP	52	0	0
NMTAP	52	0	7
NMSTR	53	0	7
NMSI_	53	0	7	96	288	4
NMSTR	55	0	3
NMSI_	55	0	3	96	288	0
NMTAP	57	0	7
NMTAP	57	192	6
NMTAP	58	0	5
NMTAP	58	192	4
NMTAP	59	0	3
NMTAP	59	192	2
EXTAP	60	0	0
EXTAP	60	0	1
NMHLD	61	0	0	384
NMHLD	61	0	1	384
NMHLD	63	0	2	384
NMHLD	63	0	3	384
NMHLD	65	0	4	384
NMHLD	65	0	5	384
NMHLD	67	0	6	384
NMHLD	67	0	7	384
NMTTP	69	0	7	B	0	L1
NMTTP	70	0	0	B	0	L1
NMTTP	71	0	6	B	0	L1
NMTTP	72	0	0	C	0	L1
NMHLD	73	0	0	432
NMHLD	73	0	7	432
NMTHO	74	336	0	144	C	0	L1
NMSTR	76	96	0
NMSI_	76	96	0	96	288	3
NMTAP	78	96	4
NMTAP	79	96	4
NMSTR	80	96	4
NMSI_	80	96	4	96	288	7
NMTAP	82	96	0
NMHLD	83	96	0	192
NMHLD	83	96	7	192
NMTAP	84	192	0
NMTAP	84	288	0
NMTAP	85	0	0
NMTAP	85	192	7
NMTAP	85	288	7
NMTAP	86	0	7
EXTAP	86	192	0
EXTAP	86	192	7
EXTAP	86	288	0
EXTAP	86	288	7
EXTAP	87	0	0
EXTAP	87	0	7
EXTAP	87	192	1
EXTAP	87	192	6
NMTAP	88	192	0
NMTAP	88	288	0
NMTAP	89	0	1
NMTAP	89	96	1
NMTAP	89	192	2
NMTAP	89	288	2
NMTAP	90	0	2
NMTAP	90	0	3
NMTAP	90	192	4
NMTAP	90	288	4
NMTAP	91	0	5
NMTAP	91	96	5
NMTAP	91	192	6
NMTAP	91	288	6
NMTAP	92	0	6
NMTAP	92	0	7
NMSTR	92	192	0
NMSI_	92	192	0	96	288	4
NMSTR	94	192	7
NMSI_	94	192	7	96	288	3
NMTAP	96	192	2
NMTAP	97	0	2
NMTAP	97	192	2
NMTAP	97	192	3
NMTAP	98	192	5
NMTAP	99	0	5
NMTAP	99	192	4
NMTAP	99	192	5
NMTAP	100	192	3
NMTAP	100	192	4
NMTAP	100	288	3
NMTAP	100	288	4
NMTAP	101	0	3
NMTAP	101	0	4
NMTAP	101	192	2
NMTAP	101	288	2
NMTAP	102	0	2
NMTAP	102	192	1
NMTAP	102	288	1
NMTAP	103	0	1
NMTAP	103	192	0
NMTAP	103	288	0
BRTAP	104	0	0
BRTAP	104	0	7
NMTAP	104	192	7
NMTAP	104	288	7
NMTAP	105	0	7
NMTAP	105	192	6
NMTAP	105	288	6
NMTAP	106	0	6
NMTAP	106	192	5
NMTAP	106	288	5
NMTAP	107	0	5
NMTAP	107	192	3
NMTAP	107	192	4
NMTAP	107	288	3
NMTAP	107	288	4
NMTAP	108	0	3
NMTAP	108	0	4
NMTAP	108	192	4
NMTAP	108	288	4
NMTAP	109	0	5
NMTAP	109	96	5
NMTAP	109	192	6
NMTAP	109	288	6
NMTAP	110	0	6
NMTAP	110	0	7
NMTAP	110	192	0
NMTAP	110	288	0
NMTAP	111	0	1
NMTAP	111	96	1
NMTAP	111	192	2
NMTAP	111	288	2
NMTAP	112	0	2
NMTAP	112	0	3
NMTAP	112	192	4
NMTAP	112	288	4
NMTAP	113	0	5
NMTAP	113	96	5
NMTAP	113	192	6
NMTAP	113	288	6
EXTAP	114	0	6
EXTAP	114	0	7
NMSTR	115	192	0
NMSI_	115	192	0	96	288	4
NMSTR	117	192	7
NMSI_	117	192	7	96	288	3
NMTAP	119	192	2
NMTAP	119	288	2
NMTAP	120	0	1
NMTAP	120	96	1
NMTAP	120	192	0
NMTAP	120	288	0
NMTAP	121	0	7
NMTAP	121	96	7
NMTAP	121	192	6
NMTAP	121	288	6
NMTAP	122	0	5
NMTAP	122	96	5
NMHLD	122	192	3	288
NMHLD	122	192	4	288
NMTHO	124	96	0	864	C	0	L1

T_REC_TAP	157
T_REC_BRK	4
T_REC_XTP	16
T_REC_BXX	0
T_REC_HLD	22
T_REC_XHO	0
T_REC_BHO	0
T_REC_BXH	0
T_REC_STR	10
T_REC_BST	0
T_REC_XST	0
T_REC_XBS	0
T_REC_TTP	4
T_REC_THO	2
T_REC_SLD	10
T_REC_BSL	0
T_REC_ALL	225
T_NUM_TAP	187
T_NUM_BRK	4
T_NUM_HLD	24
T_NUM_SLD	10
T_NUM_ALL	225
T_JUDGE_TAP	191
T_JUDGE_HLD	212
T_JUDGE_SLD	10
T_JUDGE_ALL	413
TTM_EACHPAIRS	35
TTM_SCR_TAP	93500
TTM_SCR_BRK	10400
TTM_SCR_HLD	24000
TTM_SCR_SLD	15000
TTM_SCR_ALL	142900
TTM_SCR_S	138250
TTM_SCR_SS	142500
TTM_RAT_ACV	10028

