VERSION	0.00.00	1.04.00
FES_MODE	0
BPM_DEF	180.000	180.000	180.000	180.000
MET_DEF	4	4
RESOLUTION	384
CLK_DEF	384
COMPATIBLE_CODE	MA2

BPM	0	0	180.000
MET	0	0	4	4

NMTTP	2	0	0	B	0	M1
NMTTP	2	0	0	C	1	M1
NMTTP	2	0	0	E	0	M1
NMTTP	2	0	0	D	0	M1
NMTTP	2	0	1	B	0	M1
NMTTP	2	0	1	E	0	M1
NMTTP	2	0	1	D	0	M1
NMTTP	2	0	2	B	0	M1
NMTTP	2	0	2	E	0	M1
NMTTP	2	0	2	D	0	M1
NMTTP	2	0	3	B	0	M1
NMTTP	2	0	3	E	0	M1
NMTTP	2	0	3	D	0	M1
NMTTP	2	0	4	B	0	M1
NMTTP	2	0	4	E	0	M1
NMTTP	2	0	4	D	0	M1
NMTTP	2	0	5	B	0	M1
NMTTP	2	0	5	E	0	M1
NMTTP	2	0	5	D	0	M1
NMTTP	2	0	6	B	0	M1
NMTTP	2	0	6	E	0	M1
NMTTP	2	0	6	D	0	M1
NMTTP	2	0	7	B	0	M1
NMTTP	2	0	7	E	0	M1
NMTTP	2	0	7	D	0	M1
NMTTP	6	0	1	B	0	M1
NMTTP	6	0	2	B	0	M1
NMTTP	6	0	2	E	0	M1
NMTTP	6	0	2	A	1	M1
NMTTP	6	0	3	B	0	M1
NMTTP	6	0	3	E	0	M1
BXTAP	6	0	6
BXTAP	7	0	1
NMTTP	7	0	4	B	0	M1
NMTTP	7	0	5	B	0	M1
NMTTP	7	0	5	E	0	M1
NMTTP	7	0	5	A	1	M1
NMTTP	7	0	6	B	0	M1
NMTTP	7	0	6	E	0	M1
NMTTP	8	0	0	B	0	M1
NMTTP	8	0	0	E	0	M1
NMTTP	8	0	0	A	1	M1
NMTTP	8	0	1	B	0	M1
NMTTP	8	0	1	E	0	M1
BXTAP	8	0	4
NMTTP	8	0	7	B	0	M1
NMTTP	8	192	0	B	0	M1
NMTTP	8	192	0	E	0	M1
BXTAP	8	192	3
NMTTP	8	192	6	B	0	M1
NMTTP	8	192	7	B	0	M1
NMTTP	8	192	7	E	0	M1
NMTTP	8	192	7	A	1	M1
EXTAP	9	0	4
EXTAP	9	0	5
EXTAP	9	64	2
EXTAP	9	64	3
EXTAP	9	128	0
EXTAP	9	128	1
EXTAP	9	192	2
EXTAP	9	192	3
EXTAP	9	256	4
EXTAP	9	256	5
EXSTR	9	320	0
NMSI_	9	320	0	96	160	3
EXSTR	9	320	7
NMSI_	9	320	7	96	160	4
BRTAP	10	0	1
BRTAP	10	0	6
NMTAP	11	192	3
NMTAP	11	216	4
NMTAP	11	240	3
NMTAP	11	264	4
NMTAP	11	288	3
NMTAP	11	312	4
NMTAP	11	336	3
NMTAP	11	360	4
BRTAP	12	0	3
NMTAP	12	48	6
NMTAP	12	72	4
NMTAP	12	96	6
NMTAP	12	144	6
NMTAP	12	168	4
NMTAP	12	192	6
NMTAP	12	240	6
NMTAP	12	264	2
NMTAP	12	288	6
NMTAP	12	336	6
NMTAP	12	360	1
NMTAP	13	0	6
NMTAP	13	48	6
NMTAP	13	72	0
NMTAP	13	96	6
NMTAP	13	144	6
NMTAP	13	168	7
NMTAP	13	192	6
NMTAP	13	240	6
NMTAP	13	264	5
NMTAP	13	288	6
NMTAP	13	336	6
NMTAP	13	360	4
NMTAP	14	0	6
NMTAP	14	48	6
NMTAP	14	72	3
NMTAP	14	96	6
NMTAP	14	144	6
NMTAP	14	168	2
NMTAP	14	192	6
NMTAP	14	240	6
NMTAP	14	264	1
NMTAP	14	288	6
NMTAP	14	336	6
NMTAP	14	360	0
NMTAP	15	0	6
NMTAP	15	48	6
NMTAP	15	72	7
NMTAP	15	96	6
NMTAP	15	144	6
NMTAP	15	168	5
NMTAP	15	192	6
NMTAP	15	240	5
NMTAP	15	240	6
NMTAP	15	288	4
NMTAP	15	288	7
BXTAP	16	0	1
BXTAP	16	0	5
NMTAP	16	48	1
NMHLD	16	72	4	48
NMTAP	16	96	1
NMTAP	16	144	1
NMHLD	16	168	3	48
NMTAP	16	192	1
NMTAP	16	240	1
NMHLD	16	264	2	48
NMTAP	16	288	1
NMTAP	16	336	1
NMHLD	16	360	0	48
NMTAP	17	0	1
NMTAP	17	48	1
NMHLD	17	72	7	48
NMTAP	17	96	1
NMTAP	17	144	1
EXHLD	17	168	6	48
NMTAP	17	192	1
NMTAP	17	240	1
NMHLD	17	264	5	48
NMTAP	17	288	1
NMTAP	17	336	1
NMHLD	17	360	4	48
NMTAP	18	0	1
NMTAP	18	48	1
NMHLD	18	72	3	48
NMTAP	18	96	1
NMTAP	18	144	1
NMHLD	18	168	2	48
NMTAP	18	192	1
NMTAP	18	240	1
NMHLD	18	264	0	48
NMTAP	18	288	1
NMTAP	18	336	1
BRTAP	19	0	1
BRTAP	19	0	7
NMTAP	19	48	1
NMTAP	19	48	7
BRTAP	19	96	2
BRTAP	19	96	6
NMTAP	19	144	2
NMTAP	19	144	6
EXTAP	19	192	3
NMTAP	19	216	5
EXTAP	19	240	3
NMTAP	19	264	5
EXTAP	19	288	3
NMTAP	19	312	5
EXTAP	19	336	3
NMTAP	19	360	5
NMHLD	20	0	4	192
NMHLD	20	192	3	192
NMSTR	21	0	7
NMSF_	21	0	7	96	192	3
NMTTP	22	0	3	A	0	M1
NMTTP	22	16	3	E	0	M1
NMTTP	22	16	4	E	0	M1
NMTTP	22	32	2	B	0	M1
NMTTP	22	32	3	B	0	M1
NMTTP	22	32	4	B	0	M1
NMTTP	22	48	0	C	0	M1
NMTTP	22	48	1	B	0	M1
NMTTP	22	48	6	E	0	M1
NMTTP	22	64	1	E	0	M1
NMTTP	22	64	5	B	0	M1
NMTTP	22	64	7	B	0	M1
NMTTP	22	80	0	A	0	M1
NMTTP	22	80	0	D	0	M1
NMTTP	22	80	6	A	0	M1
NMTTP	22	80	7	A	0	M1
NMTTP	22	80	7	D	0	M1
NMTAP	22	288	1
NMTAP	22	288	4
EXHLD	23	0	2	96
BXTAP	23	0	3
NMHLD	23	96	1	144
NMTTP	23	240	0	C	0	M1
NMHLD	23	288	3	96
NMHLD	24	0	5	96
NMHLD	24	96	6	144
NMTTP	24	240	0	C	0	M1
NMHLD	24	288	4	96
NMHLD	25	0	1	96
NMHLD	25	96	2	144
NMTTP	25	240	0	C	0	M1
NMHLD	25	288	7	96
NMHLD	26	0	0	96
NMHLD	26	96	2	144
NMTTP	26	240	0	C	0	M1
NMTTP	26	288	1	D	0	M1
NMTTP	26	288	2	E	0	M1
NMTTP	26	288	3	D	0	M1
NMHLD	27	0	6	96
NMTAP	27	0	7
NMHLD	27	96	4	144
NMTTP	27	240	0	C	0	M1
NMHLD	27	288	3	96
NMHLD	28	0	1	96
NMHLD	28	96	3	144
NMTTP	28	240	0	C	0	M1
NMHLD	28	288	4	96
NMHLD	29	0	5	96
NMHLD	29	96	7	144
NMTTP	29	240	0	C	0	M1
NMHLD	29	288	0	96
NMTAP	30	0	7
NMTAP	30	72	2
NMTAP	30	72	5
NMHLD	30	144	3	96
NMHLD	30	144	4	96
BXTAP	30	288	0
BXTAP	30	312	7
BXTAP	30	336	0
EXTAP	31	0	2
NMTAP	31	24	3
NMTAP	31	48	2
NMTAP	31	72	3
NMTAP	31	96	2
NMTAP	31	120	4
NMTAP	31	144	2
NMTAP	31	168	4
NMTAP	31	192	3
NMTAP	31	216	5
NMTAP	31	240	3
NMTAP	31	264	5
NMTAP	31	288	3
NMTAP	31	312	6
NMTAP	31	336	3
NMTAP	31	360	6
NMTAP	32	0	2
NMTAP	32	24	5
NMTAP	32	48	2
NMTAP	32	72	5
NMTAP	32	96	1
NMTAP	32	120	4
NMTAP	32	144	1
NMTAP	32	168	4
NMTAP	32	192	2
NMTAP	32	216	5
NMTAP	32	240	2
NMTAP	32	264	5
NMHLD	32	288	3	96
EXTAP	33	0	5
NMTAP	33	24	4
NMTAP	33	48	5
NMTAP	33	72	4
NMTAP	33	96	5
NMTAP	33	120	3
NMTAP	33	144	5
NMTAP	33	168	3
NMTAP	33	192	4
NMTAP	33	216	3
NMTAP	33	240	4
NMTAP	33	264	3
NMTAP	33	288	4
NMTAP	33	312	2
NMTAP	33	336	4
NMTAP	33	360	2
NMTAP	34	0	3
NMTAP	34	24	1
NMTAP	34	48	3
NMTAP	34	72	1
NMTAP	34	96	4
NMTAP	34	120	2
NMTAP	34	144	4
NMTAP	34	168	2
NMTAP	34	192	4
NMTAP	34	216	5
NMTAP	34	240	6
NMTAP	34	264	7
EXTAP	34	288	0
EXTAP	35	0	1
NMTAP	35	24	3
NMTAP	35	48	1
NMTAP	35	72	3
NMTAP	35	96	2
NMTAP	35	120	4
NMTAP	35	144	2
NMTAP	35	168	4
NMTAP	35	192	3
NMTAP	35	216	5
NMTAP	35	240	3
NMTAP	35	264	5
NMHLD	35	288	4	96
NMTAP	36	0	6
NMTAP	36	24	4
NMTAP	36	48	6
NMTAP	36	72	4
NMTAP	36	96	5
NMTAP	36	120	3
NMTAP	36	144	5
NMTAP	36	168	3
NMTAP	36	192	4
NMTAP	36	216	2
NMTAP	36	240	4
NMTAP	36	264	2
NMHLD	36	288	3	96
NMTAP	37	0	1
NMTAP	37	24	4
NMTAP	37	48	2
NMTAP	37	72	3
NMTAP	37	96	2
NMTAP	37	120	3
NMTAP	37	144	2
NMTAP	37	168	3
NMTAP	37	192	1
NMTAP	37	216	5
NMTAP	37	240	3
NMTAP	37	264	4
NMTAP	37	288	3
NMTAP	37	312	4
NMTAP	37	336	3
NMTAP	37	360	4
NMTAP	38	0	2
NMTAP	38	24	6
NMTAP	38	48	4
NMTAP	38	72	5
NMTAP	38	96	4
NMTAP	38	120	5
NMTAP	38	144	4
NMTAP	38	168	5
EXTAP	38	192	3
EXTAP	38	204	2
EXTAP	38	216	1
EXTAP	38	228	0
EXTAP	38	240	7
EXTAP	38	252	6
EXTAP	38	264	5
EXTAP	38	276	4
BRTAP	38	288	7
EXTAP	39	0	0
EXTAP	39	0	6
NMHLD	39	96	1	96
NMTAP	39	96	4
NMTAP	39	192	2
NMTAP	39	240	2
NMTAP	39	288	0
NMTAP	39	288	3
NMTAP	40	0	1
NMTAP	40	48	1
NMTAP	40	96	0
NMHLD	40	96	2	72
NMTAP	40	168	1
NMTAP	40	192	2
NMTAP	40	240	2
NMTAP	40	288	0
NMTAP	40	288	3
NMTAP	41	0	2
NMTAP	41	0	4
NMTAP	41	96	1
NMHLD	41	96	3	96
NMTAP	41	192	2
NMTAP	41	240	2
NMTAP	41	288	1
NMTAP	41	288	3
NMTAP	42	0	0
NMTAP	42	0	4
NMTAP	42	48	0
NMTAP	42	96	1
NMTAP	42	120	3
NMTAP	42	168	3
NMSTR	42	192	2
NMSI_	42	192	2	96	48	5
NMTAP	42	240	2
NMTAP	42	288	6
EXTAP	43	0	4
EXTAP	43	0	5
NMTAP	43	96	3
NMHLD	43	96	6	96
NMTAP	43	192	5
NMTAP	43	240	5
NMTAP	43	288	4
NMTAP	43	288	7
NMTAP	44	0	6
NMTAP	44	48	6
NMHLD	44	96	5	72
NMTAP	44	96	7
NMTAP	44	168	6
NMTAP	44	192	5
NMTAP	44	240	5
NMTAP	44	288	4
NMTAP	44	288	7
NMTAP	45	0	3
NMTAP	45	0	5
NMHLD	45	96	4	96
NMTAP	45	96	6
NMTAP	45	192	5
NMTAP	45	240	5
NMTAP	45	288	4
NMHLD	45	288	6	96
NMTAP	46	0	3
NMTAP	46	48	5
NMTAP	46	72	4
NMTAP	46	96	5
NMTAP	46	144	3
NMTAP	46	144	4
NMTAP	46	192	2
NMTAP	46	216	3
NMTAP	46	240	2
NMTAP	46	288	1
NMTAP	46	312	0
NMTAP	46	336	1
BRTAP	47	0	2
BRTAP	47	0	7
NMTAP	47	96	3
NMTAP	47	96	6
NMTAP	47	192	0
NMTAP	47	240	0
NMTAP	47	288	1
NMHLD	47	288	3	96
NMTAP	48	0	2
NMHLD	48	96	1	72
NMTAP	48	96	2
NMTAP	48	168	0
NMTAP	48	192	1
NMTAP	48	240	1
NMTAP	48	288	0
NMTAP	48	288	2
NMTAP	49	0	1
NMTAP	49	0	3
NMTAP	49	96	0
NMHLD	49	96	2	96
NMTAP	49	192	1
NMTAP	49	240	1
NMTAP	49	288	0
NMTAP	49	288	3
NMTAP	50	0	1
NMTAP	50	0	4
NMTAP	50	48	1
NMTAP	50	48	4
NMTAP	50	96	2
NMTAP	50	120	3
NMTAP	50	168	3
NMSTR	50	192	2
NMSCR	50	192	2	96	48	5
NMTAP	50	240	2
NMTAP	50	288	5
EXTAP	51	0	6
EXTAP	51	0	7
NMTAP	51	96	4
NMTAP	51	96	6
NMTAP	51	192	5
NMTAP	51	240	5
NMTAP	51	288	4
NMHLD	51	288	6	96
NMTAP	52	0	3
NMTAP	52	48	3
NMTAP	52	96	5
NMTAP	52	120	4
NMTAP	52	168	4
NMTAP	52	192	6
NMTAP	52	240	6
NMTAP	52	288	3
NMSTR	52	288	7
NMSUL	52	288	7	96	96	2
NMSTR	53	0	2
NMSCL	53	0	2	96	96	7
NMSTR	53	96	7
NMSCL	53	96	7	96	96	3
NMSTR	53	192	3
NMSCL	53	192	3	96	96	7
EXSTR	53	288	7
NMSXL	53	288	7	96	288	3
NMSXR	53	288	7	96	288	3
EXTAP	55	0	1
EXSTR	55	0	7
NMSXR	55	0	7	96	288	5
NMTAP	55	192	3
NMTAP	55	288	2
NMTAP	56	0	1
CNSXR	56	0	5	0	384	3
NMTAP	56	192	0
NMTAP	56	288	1
NMSTR	57	0	2
NMSXR	57	0	2	96	288	0
NMTAP	57	192	7
CNSXR	58	0	0	0	384	6
NMTAP	58	0	5
NMTAP	58	192	4
NMTAP	58	288	3
EXSTR	59	0	4
NMSXL	59	0	4	96	288	6
NMHLD	59	192	0	96
NMHLD	60	0	2	96
CNSXL	60	0	6	0	384	0
NMHLD	60	192	4	96
NMSTR	61	0	1
NMSXL	61	0	1	96	288	3
NMHLD	61	192	4	96
CNSXL	62	0	3	0	288	5
NMHLD	62	0	6	96
NMHLD	62	192	0	96
EXTAP	63	0	1
EXSTR	63	0	7
NMSXR	63	0	7	96	288	5
NMTAP	63	192	1
NMTAP	63	288	2
NMTAP	63	336	2
NMHLD	64	0	2	96
CNSXR	64	0	5	0	384	3
NMTAP	64	192	1
NMTAP	64	288	0
CNSXR	65	0	3	0	384	1
NMHLD	65	0	7	96
NMHLD	65	192	6	96
CNSXR	66	0	1	0	384	7
NMHLD	66	0	7	96
NMTAP	66	192	2
NMTAP	66	288	1
EXSTR	67	0	0
NMSSL	67	0	0	96	480	4
NMHLD	67	192	6	96
NMHLD	68	0	2	96
NMSTR	68	192	7
NMSI_	68	192	7	96	96	1
NMSTR	68	288	1
NMSI_	68	288	1	96	96	6
NMSTR	69	0	6
NMSI_	69	0	6	96	96	2
NMSTR	69	96	2
NMSI_	69	96	2	96	96	5
NMSTR	69	192	5
NMSI_	69	192	5	96	96	3
NMSTR	69	288	3
NMSXL	69	288	3	96	288	7
NMSXR	69	288	3	96	288	7
EXTAP	71	0	0
EXTAP	71	0	7
NMTAP	71	32	1
NMTAP	71	64	2
NMTAP	71	96	7
NMTAP	71	128	0
NMTAP	71	160	1
NMTAP	71	192	6
NMTAP	71	224	7
NMTAP	71	256	0
NMTAP	71	288	5
NMTAP	71	320	6
NMTAP	71	352	7
NMTAP	72	0	4
NMTAP	72	32	5
NMTAP	72	64	6
NMTAP	72	96	3
NMTAP	72	128	4
NMTAP	72	160	5
NMTAP	72	192	2
NMTAP	72	224	3
NMTAP	72	256	4
NMTAP	72	288	1
NMTAP	72	320	2
NMTAP	72	352	3
NMTAP	73	0	0
NMTAP	73	32	1
NMTAP	73	64	2
NMTAP	73	96	7
NMTAP	73	128	0
NMTAP	73	160	1
NMTAP	73	192	6
NMTAP	73	224	7
NMTAP	73	256	0
NMTAP	73	288	5
NMTAP	73	320	6
NMTAP	73	352	7
NMTAP	74	0	4
NMTAP	74	32	5
NMTAP	74	64	6
NMTAP	74	96	3
NMTAP	74	128	4
NMTAP	74	160	5
NMTAP	74	192	2
NMTAP	74	224	3
NMTAP	74	256	4
NMTAP	74	288	1
NMTAP	74	320	2
NMTAP	74	352	3
EXTAP	75	0	0
NMTAP	75	24	1
NMTAP	75	48	2
NMTAP	75	72	3
NMTAP	75	96	7
NMTAP	75	120	0
NMTAP	75	144	1
NMTAP	75	168	2
NMTAP	75	192	6
NMTAP	75	216	7
NMTAP	75	240	0
NMTAP	75	264	1
NMTAP	75	288	5
NMTAP	75	312	6
NMTAP	75	336	7
NMTAP	75	360	0
NMTAP	76	0	4
NMTAP	76	24	5
NMTAP	76	48	6
NMTAP	76	72	7
NMTAP	76	96	3
NMTAP	76	120	4
NMTAP	76	144	5
NMTAP	76	168	6
NMTAP	76	192	2
NMTAP	76	216	3
NMTAP	76	240	4
NMTAP	76	264	5
NMTAP	76	288	1
NMTAP	76	312	2
NMTAP	76	336	3
NMTAP	76	360	4
NMTAP	77	0	0
NMTAP	77	24	1
NMTAP	77	48	2
NMTAP	77	72	3
NMTAP	77	96	7
NMTAP	77	120	0
NMTAP	77	144	1
NMTAP	77	168	2
NMTAP	77	192	6
NMTAP	77	216	7
NMTAP	77	240	0
NMTAP	77	264	1
NMTAP	77	288	5
NMTAP	77	300	6
NMTAP	77	312	7
NMTAP	77	324	0
NMTAP	77	336	1
NMTAP	77	348	2
NMTAP	77	360	3
NMTAP	77	372	4
EXSTR	78	0	1
NMSLL	78	0	1	96	192	2
EXSTR	78	0	5
NMSLL	78	0	5	96	192	6
EXTAP	79	0	0
EXTAP	79	0	7
EXTAP	79	16	1
EXTAP	79	16	6
EXTAP	79	32	2
EXTAP	79	32	5
EXTAP	79	48	3
EXTAP	79	48	4
BRTAP	79	96	1
BRTAP	79	96	6
EXSTR	79	192	3
BRSI_	79	192	3	96	48	0
EXSTR	79	192	4
BRSI_	79	192	4	96	48	7
EXTAP	79	288	3
EXTAP	79	288	4
EXTAP	80	0	1
EXTAP	80	0	6
NMTAP	80	48	3
NMTAP	80	48	4
EXTAP	80	96	0
EXTAP	80	96	7
EXTAP	80	192	1
EXTAP	80	192	3
NMTAP	80	264	5
EXTAP	80	288	4
NMTAP	80	336	3
NMTAP	80	336	6
EXTAP	81	0	0
EXTAP	81	0	1
NMTAP	81	72	2
EXTAP	81	96	3
NMTAP	81	144	1
NMTAP	81	144	4
EXTAP	81	192	0
NMTAP	81	208	1
NMTAP	81	224	2
NMTAP	81	240	3
EXTAP	81	288	5
NMTAP	81	312	4
NMTAP	81	336	5
NMTAP	81	360	4
EXTAP	82	0	3
EXTAP	82	0	6
EXTAP	82	96	1
NMTAP	82	120	0
NMTAP	82	144	1
NMTAP	82	168	0
EXTAP	82	192	2
EXTAP	82	192	7
NMTAP	82	240	1
NMTAP	82	256	2
NMTAP	82	272	3
EXTAP	82	288	4
NMTAP	82	336	0
NMTAP	82	336	7
EXTAP	83	0	6
NMTAP	83	16	5
NMTAP	83	32	4
NMTAP	83	48	0
NMTAP	83	64	1
NMTAP	83	80	2
EXTAP	83	96	3
EXTAP	83	96	4
NMTAP	83	144	5
EXTAP	83	192	6
EXTAP	83	192	7
NMTAP	83	240	6
NMTAP	83	240	7
EXTAP	83	288	1
NMTAP	83	312	0
NMTAP	83	336	1
EXTAP	84	0	2
EXTAP	84	0	4
NMTAP	84	48	3
NMTAP	84	48	5
BXTAP	84	96	1
BXTAP	84	96	6
EXTAP	84	192	0
EXTAP	84	192	2
NMTAP	84	264	6
EXTAP	84	288	7
NMTAP	84	336	0
NMTAP	84	336	5
EXTAP	85	0	1
NMTAP	85	12	2
NMTAP	85	32	3
NMTAP	85	48	7
NMTAP	85	64	6
NMTAP	85	80	5
EXTAP	85	96	3
EXTAP	85	96	4
NMTAP	85	144	2
EXTAP	85	192	0
EXTAP	85	192	7
NMTAP	85	240	0
NMTAP	85	240	7
EXTAP	85	288	1
NMTAP	85	304	2
NMTAP	85	320	3
NMTAP	85	336	6
NMTAP	85	352	5
NMTAP	85	368	4
EXTAP	86	0	0
EXTAP	86	96	4
EXTAP	86	96	6
NMTAP	86	144	2
NMTAP	86	168	3
EXTAP	86	192	2
NMTAP	86	240	7
NMTAP	86	256	6
NMTAP	86	272	5
EXTAP	86	288	3
EXTAP	86	288	4
NMTAP	86	336	2
EXTAP	87	0	0
EXTAP	87	0	1
NMTAP	87	48	6
NMTAP	87	72	7
EXTAP	87	96	6
NMTAP	87	144	0
NMTAP	87	144	7
NMTAP	87	160	1
NMTAP	87	160	6
NMTAP	87	176	2
NMTAP	87	176	5
EXSTR	87	192	3
BRSI_	87	192	3	96	48	0
EXSTR	87	192	4
BRSI_	87	192	4	96	48	7
NMTAP	87	240	2
NMTAP	87	240	5
BXTAP	87	288	3
BXTAP	87	288	4
EXTAP	88	0	0
EXTAP	88	0	6
NMTAP	88	48	0
NMTAP	88	48	6
EXTAP	88	96	1
EXTAP	88	96	7
NMTAP	88	144	1
NMTAP	88	144	7
EXTAP	88	192	0
NMTAP	88	204	1
NMTAP	88	216	2
NMTAP	88	228	3
NMTAP	88	240	4
NMTAP	88	240	5
EXTAP	88	288	3
EXTAP	88	288	6
EXTAP	89	0	7
NMTAP	89	12	6
NMTAP	89	24	5
NMTAP	89	36	4
NMTAP	89	48	2
NMTAP	89	48	3
EXTAP	89	96	1
NMTAP	89	144	0
NMTAP	89	156	1
NMTAP	89	168	2
NMTAP	89	180	3
EXTAP	89	192	4
EXTAP	89	192	5
NMTAP	89	240	6
EXTAP	89	288	0
EXTAP	89	288	7
EXTAP	90	0	0
NMTAP	90	12	1
NMTAP	90	24	2
NMTAP	90	48	4
NMTAP	90	72	4
EXTAP	90	96	0
NMTAP	90	108	7
NMTAP	90	120	6
NMTAP	90	144	4
NMTAP	90	168	4
EXTAP	90	192	1
NMTAP	90	204	2
NMTAP	90	216	3
NMTAP	90	240	6
NMTAP	90	252	5
NMTAP	90	264	4
EXTAP	90	288	0
NMTAP	90	336	1
NMTAP	90	336	7
EXTAP	91	0	2
EXTAP	91	0	6
NMTAP	91	48	5
NMTAP	91	72	4
EXTAP	91	96	3
EXTAP	91	96	6
NMTAP	91	144	2
NMTAP	91	168	3
EXTAP	91	192	1
EXTAP	91	192	4
NMTAP	91	240	0
NMTAP	91	252	1
NMTAP	91	264	2
NMTAP	91	276	3
EXTAP	91	288	4
EXTAP	91	288	5
NMTAP	91	336	6
NMTAP	91	336	7
BXTAP	92	0	0
BXTAP	92	0	5
NMTAP	92	48	0
NMTAP	92	48	5
EXTAP	92	96	2
EXTAP	92	96	3
NMTAP	92	144	2
NMTAP	92	144	3
EXTAP	92	192	4
EXTAP	92	192	5
NMTAP	92	240	4
NMTAP	92	240	5
EXTAP	92	288	3
EXTAP	92	288	6
NMTAP	92	336	3
NMTAP	92	336	6
EXTAP	93	0	7
NMTAP	93	12	6
NMTAP	93	24	5
NMTAP	93	36	4
NMTAP	93	48	2
NMTAP	93	48	3
EXTAP	93	96	1
NMTAP	93	144	0
NMTAP	93	156	1
NMTAP	93	168	2
NMTAP	93	180	3
EXTAP	93	192	4
EXTAP	93	192	5
NMTAP	93	240	6
EXTAP	93	288	7
NMTAP	93	312	0
NMTAP	93	336	7
NMTAP	93	360	0
EXTAP	94	0	1
EXTAP	94	0	6
NMTAP	94	48	2
NMTAP	94	48	5
EXTAP	94	96	3
EXTAP	94	96	4
NMTAP	94	168	7
EXTAP	94	192	7
NMTAP	94	240	1
NMTAP	94	264	0
EXTAP	94	288	1
NMTAP	94	336	3
NMTAP	94	360	4
EXTAP	95	0	3
EXTAP	95	48	4
EXTAP	95	48	6
EXTAP	95	96	3
EXTAP	95	96	7
EXTAP	95	144	3
EXTAP	95	144	7
EXTAP	95	192	3
EXTAP	95	192	7
NMTAP	95	204	2
NMTAP	95	204	6
NMTAP	95	216	1
NMTAP	95	216	5
NMTAP	95	228	0
NMTAP	95	228	4
EXTAP	95	240	3
EXTAP	95	240	7
EXTAP	95	288	3
EXTAP	95	288	7
NMTAP	95	300	0
NMTAP	95	300	4
NMTAP	95	312	1
NMTAP	95	312	5
NMTAP	95	324	2
NMTAP	95	324	6
EXTAP	95	336	3
EXTAP	95	336	7
BXHLD	96	0	3	96
BXTAP	96	0	7
NMHLD	96	96	4	96
NMHLD	96	192	5	96
NMHLD	96	288	6	96
NMHLD	97	0	7	96
NMHLD	97	96	0	96
NMHLD	97	192	1	96
NMTAP	97	288	2
NMSTR	98	0	3
NMSCL	98	0	3	96	96	1
NMTAP	98	0	4
CNSI_	98	192	1	0	96	7
NMTAP	98	192	5
NMSTR	98	288	5
NMSI_	98	288	5	96	96	7
CNSCL	98	288	7	0	96	5
NMTAP	99	0	4
NMTAP	99	96	4
CNSCR	99	96	7	0	96	1
CNSI_	99	192	1	0	96	3
NMTAP	99	192	4
NMTAP	99	288	4
EXTAP	100	0	2
NMTAP	100	24	6
EXTAP	100	48	2
NMTAP	100	72	6
EXTAP	100	96	3
NMTAP	100	120	4
EXTAP	100	144	3
NMTAP	100	168	4
EXTAP	100	192	1
NMTAP	100	216	5
EXTAP	100	240	1
NMTAP	100	264	5
EXTAP	100	288	2
NMTAP	100	312	3
EXTAP	100	336	2
NMTAP	100	360	3
EXTAP	101	0	1
NMTAP	101	24	0
EXTAP	101	48	1
NMTAP	101	72	0
EXTAP	101	96	4
NMTAP	101	120	5
EXTAP	101	144	4
NMTAP	101	168	5
EXTAP	101	192	7
NMTAP	101	216	6
EXTAP	101	240	7
NMTAP	101	264	6
EXTAP	101	288	1
NMTAP	101	312	0
EXTAP	101	336	1
NMTAP	101	360	0
EXTAP	102	0	1
NMTAP	102	16	2
NMTAP	102	32	3
EXTAP	102	48	7
NMTAP	102	64	6
NMTAP	102	80	5
EXTAP	102	96	0
NMTAP	102	112	1
NMTAP	102	128	2
EXTAP	102	144	6
NMTAP	102	160	5
NMTAP	102	176	4
EXTAP	102	192	7
NMTAP	102	208	0
NMTAP	102	224	1
EXTAP	102	240	5
NMTAP	102	256	4
NMTAP	102	272	3
EXTAP	102	288	7
NMTAP	102	304	0
NMTAP	102	320	1
EXTAP	102	336	5
NMTAP	102	352	4
NMTAP	102	368	3
EXTAP	103	0	1
EXTAP	103	12	2
EXTAP	103	24	3
EXTAP	103	36	4
EXTAP	103	48	5
EXTAP	103	60	6
EXTAP	103	72	7
EXTAP	103	84	0
EXTAP	103	96	1
EXTAP	103	108	2
EXTAP	103	120	3
EXTAP	103	132	4
EXTAP	103	144	5
EXTAP	103	156	6
EXTAP	103	168	7
EXTAP	103	180	0
EXTAP	103	192	1
NMTTP	103	198	2	D	0	M1
EXTAP	103	204	2
NMTTP	103	210	3	D	0	M1
EXTAP	103	216	3
NMTTP	103	222	4	D	0	M1
EXTAP	103	228	4
NMTTP	103	234	5	D	0	M1
EXTAP	103	240	5
NMTTP	103	246	6	D	0	M1
EXTAP	103	252	6
NMTTP	103	258	7	D	0	M1
EXTAP	103	264	7
NMTTP	103	270	0	D	0	M1
EXTAP	103	276	0
NMTTP	103	282	1	D	0	M1
EXTAP	103	288	1
NMTTP	103	294	2	D	0	M1
EXTAP	103	300	2
NMTTP	103	306	3	D	0	M1
EXTAP	103	312	3
NMTTP	103	318	4	D	0	M1
EXTAP	103	324	4
NMTTP	103	330	5	D	0	M1
EXTAP	103	336	5
NMTTP	103	342	6	D	0	M1
EXTAP	103	348	6
NMTTP	103	354	7	D	0	M1
EXTAP	103	360	7
NMTTP	103	366	0	D	0	M1
EXTAP	103	372	0
NMTTP	103	378	1	D	0	M1
NMTTP	104	0	0	C	1	M1
BXTAP	104	0	1

T_REC_TAP	595
T_REC_BRK	12
T_REC_XTP	204
T_REC_BXX	18
T_REC_HLD	65
T_REC_XHO	2
T_REC_BHO	0
T_REC_BXH	1
T_REC_STR	17
T_REC_BST	0
T_REC_XST	13
T_REC_XBS	0
T_REC_TTP	93
T_REC_THO	0
T_REC_SLD	28
T_REC_BSL	4
T_REC_ALL	1052
T_NUM_TAP	922
T_NUM_BRK	35
T_NUM_HLD	67
T_NUM_SLD	28
T_NUM_ALL	1052
T_JUDGE_TAP	952
T_JUDGE_HLD	136
T_JUDGE_SLD	32
T_JUDGE_ALL	1120
TTM_EACHPAIRS	135
TTM_SCR_TAP	461000
TTM_SCR_BRK	91000
TTM_SCR_HLD	67000
TTM_SCR_SLD	42000
TTM_SCR_ALL	661000
TTM_SCR_S	637800
TTM_SCR_SS	657500
TTM_RAT_ACV	10053

