VERSION	0.00.00	1.04.00
FES_MODE	0
BPM_DEF	180.000	180.000	180.000	180.000
MET_DEF	4	4
RESOLUTION	384
CLK_DEF	384
COMPATIBLE_CODE	MA2

BPM	0	0	180.000
MET	0	0	4	4

NMTAP	1	192	3
NMTAP	1	192	4
NMTAP	1	288	2
NMTAP	1	288	5
BXSTR	2	0	0
NMSSL	2	0	0	96	384	4
BXTAP	2	0	7
NMTAP	3	192	3
NMTAP	3	192	5
NMTAP	3	288	3
NMTAP	3	288	5
NMTAP	4	0	0
NMSTR	4	0	7
NMSSR	4	0	7	96	384	3
NMTAP	5	192	2
NMTAP	5	288	2
NMSTR	6	0	1
NMSI_	6	0	1	96	144	5
NMTAP	6	0	3
NMTAP	6	288	6
NMTAP	7	0	4
NMSTR	7	0	6
NMSV_	7	0	6	96	144	3
NMTAP	7	288	2
NMHLD	8	0	1	96
NMHLD	8	0	3	96
NMHLD	8	192	4	96
NMHLD	8	192	6	96
NMHLD	9	0	3	64
NMHLD	9	64	2	64
NMHLD	9	128	1	64
NMHLD	9	192	0	64
NMHLD	9	256	7	64
NMHLD	9	320	6	64
NMTHO	10	0	0	64	C	0	M1
NMTTP	10	288	1	B	0	M1
NMTTP	10	288	2	B	0	M1
NMTTP	10	288	5	B	0	M1
NMTTP	10	288	6	B	0	M1
NMTTP	11	0	2	A	0	M1
NMTTP	11	0	3	E	0	M1
NMTTP	11	0	5	E	0	M1
NMTTP	11	0	5	A	0	M1
NMTAP	11	192	3
NMTAP	11	240	3
NMTAP	11	288	4
NMTAP	11	336	4
BRTAP	12	0	2
NMTAP	12	48	2
NMTAP	12	96	3
NMTAP	12	144	1
NMTAP	12	192	5
NMTAP	12	240	5
NMTAP	12	288	4
NMTAP	12	336	6
NMTAP	13	0	2
NMTAP	13	48	2
NMTAP	13	96	5
NMTAP	13	144	4
NMTAP	13	192	0
NMTAP	13	240	0
NMTAP	13	288	6
NMTAP	13	336	5
NMTAP	14	0	2
NMTAP	14	48	2
NMTAP	14	96	3
NMTAP	14	144	1
NMTAP	14	192	5
NMTAP	14	240	5
NMTAP	14	288	4
NMTAP	14	336	6
NMTAP	15	0	3
NMTAP	15	48	3
NMTAP	15	96	7
NMTAP	15	144	6
NMTAP	15	192	0
NMTAP	15	240	1
NMTAP	15	288	5
NMTAP	15	336	4
BRTAP	16	0	2
NMTAP	16	48	2
NMTAP	16	96	3
NMTAP	16	144	1
NMTAP	16	192	5
NMTAP	16	240	5
NMTAP	16	288	4
NMTAP	16	336	6
NMTAP	17	0	0
NMTAP	17	48	1
NMTAP	17	96	2
BRTAP	17	144	7
NMTAP	17	192	3
NMTAP	17	240	3
NMTAP	17	288	5
NMTAP	17	336	2
NMTAP	18	0	7
NMTAP	18	48	6
NMTAP	18	96	0
NMTAP	18	144	1
NMTAP	18	192	5
NMTAP	18	240	4
NMTAP	18	288	1
NMTAP	18	336	2
BRTAP	19	0	5
NMTAP	19	48	4
BRTAP	19	96	3
NMTAP	19	144	2
NMTAP	19	144	5
NMTAP	19	192	4
NMTAP	19	216	3
NMTAP	19	240	4
NMTAP	19	264	3
NMSTR	19	288	4
NMSUL	19	288	4	96	288	3
NMTAP	19	312	3
NMTAP	19	336	4
NMTAP	19	360	3
NMSTR	20	288	0
NMSUL	20	288	0	96	384	7
NMTHO	22	0	0	192	C	0	M1
NMTTP	22	192	0	E	0	M1
NMHLD	23	0	5	192
NMTAP	23	96	4
NMHLD	23	192	2	192
NMTAP	23	288	1
NMHLD	24	0	7	192
NMTAP	24	96	6
NMHLD	24	192	3	168
NMTAP	24	288	2
NMHLD	25	0	5	192
NMTAP	25	96	6
NMHLD	25	192	1	192
NMTAP	25	288	0
NMHLD	26	0	3	192
NMTAP	26	96	4
NMTAP	26	192	2
NMTAP	26	288	1
NMTAP	26	288	4
NMHLD	27	0	2	192
NMTAP	27	0	3
NMTAP	27	96	1
NMHLD	27	192	6	192
NMTAP	27	288	7
NMHLD	28	0	0	192
NMTAP	28	96	1
NMHLD	28	192	4	168
NMTAP	28	288	5
NMHLD	29	0	2	192
NMTAP	29	96	1
NMHLD	29	192	6	192
NMTAP	29	288	7
NMHLD	30	0	4	72
NMTAP	30	96	3
NMTAP	30	192	5
NMTAP	30	240	5
NMTAP	30	288	4
NMTAP	30	288	6
NMSTR	31	0	7
NMSI_	31	0	7	96	96	3
NMTAP	31	96	1
NMSTR	31	192	0
NMSI_	31	192	0	96	96	4
NMTAP	31	288	5
NMSTR	32	0	7
NMSI_	32	0	7	96	96	3
NMTAP	32	96	2
NMSTR	32	192	1
NMSI_	32	192	1	96	96	5
NMTAP	32	288	7
NMSTR	33	0	6
NMSCR	33	0	6	96	96	1
NMTAP	33	96	4
NMSTR	33	192	2
NMSCR	33	192	2	96	96	5
NMTAP	33	288	7
NMSTR	34	0	6
NMSI_	34	0	6	96	96	2
NMTAP	34	96	0
NMHLD	34	192	1	96
NMTAP	34	288	4
NMTAP	34	336	5
BRTAP	35	0	2
BRTAP	35	0	6
NMSTR	35	96	7
NMSCL	35	96	7	96	96	4
NMTAP	35	192	2
NMSTR	35	288	0
NMSCR	35	288	0	96	96	3
NMTAP	36	0	4
NMHLD	36	96	5	96
NMHLD	36	192	6	96
NMSTR	36	288	7
NMSCR	36	288	7	96	96	2
NMTAP	37	0	4
NMSTR	37	96	3
NMSI_	37	96	3	96	96	7
NMTAP	37	192	5
NMSTR	37	288	6
NMSCL	37	288	6	96	96	3
NMTAP	38	0	0
NMHLD	38	96	0	96
NMTAP	38	192	3
NMTAP	38	240	3
NMTAP	38	288	0
NMTAP	38	336	0
BRTAP	39	0	1
BRTAP	39	0	7
NMTAP	39	96	4
NMTAP	39	192	3
NMTAP	39	192	5
NMTAP	39	240	5
NMHLD	39	288	0	96
NMTAP	40	0	1
NMTAP	40	96	3
NMTAP	40	192	2
NMTAP	40	192	4
NMTAP	40	240	2
NMHLD	40	288	7	96
NMTAP	41	0	6
NMTAP	41	96	4
NMTAP	41	192	2
NMTAP	41	192	3
NMTAP	41	240	2
NMHLD	41	288	1	384
NMSTR	41	288	5
NMSCL	41	288	5	96	96	2
CNSI_	42	96	2	0	96	6
CNSI_	42	192	6	0	96	0
BRTAP	43	0	2
BRTAP	43	0	7
NMTAP	43	96	3
NMTAP	43	192	2
NMTAP	43	192	4
NMTAP	43	240	2
NMHLD	43	288	6	96
NMTAP	44	0	7
NMTAP	44	96	0
NMTAP	44	96	4
NMTAP	44	192	2
NMTAP	44	192	6
NMTAP	44	240	6
NMSTR	44	288	1
NMSCL	44	288	1	96	96	6
NMTAP	45	0	4
NMSTR	45	96	5
NMSI_	45	96	5	96	96	1
NMTAP	45	192	2
NMSTR	45	288	0
NMSSL	45	288	0	96	192	4
EXTAP	46	288	3
EXTAP	46	288	5
NMTAP	47	0	2
NMTAP	47	0	6
NMHLD	47	96	0	96
NMTAP	47	192	3
NMTAP	47	240	3
NMTAP	47	288	1
NMTAP	47	336	1
NMTAP	48	0	1
NMTAP	48	0	5
NMHLD	48	96	7	96
NMTAP	48	192	4
NMTAP	48	240	4
NMTAP	48	288	6
NMTAP	48	336	6
NMHLD	49	0	2	96
NMTAP	49	0	6
NMHLD	49	96	1	96
NMTAP	49	192	0
NMTAP	49	240	0
NMTAP	49	288	1
EXTAP	50	0	6
EXTAP	50	48	6
EXTAP	50	96	7
NMTAP	50	192	3
NMTAP	50	192	5
NMTAP	50	288	2
NMTAP	50	288	4
NMSTR	51	0	1
NMSI_	51	0	1	96	96	5
NMTAP	51	96	7
NMTAP	51	192	6
NMTAP	51	240	6
NMTAP	51	288	4
NMSTR	52	0	3
NMSI_	52	0	3	96	96	7
NMTAP	52	0	5
NMTAP	52	96	5
NMTAP	52	192	6
NMTAP	52	240	6
EXTAP	52	288	7
NMHLD	53	0	0	96
NMTAP	53	0	5
NMHLD	53	96	1	96
NMHLD	53	192	2	96
NMHLD	53	288	4	480
NMHLD	54	0	3	192
NMTTP	55	0	4	B	0	M1
NMHLD	55	96	3	96
NMTTP	55	192	2	B	0	M1
NMTTP	55	192	3	B	0	M1
NMHLD	55	288	5	96
NMTTP	56	0	5	B	0	M1
NMTTP	56	0	6	B	0	M1
NMHLD	56	96	2	96
NMTTP	56	192	1	B	0	M1
NMTTP	56	192	2	B	0	M1
NMHLD	56	288	6	96
NMTTP	57	0	5	B	0	M1
NMTTP	57	0	6	B	0	M1
NMHLD	57	96	2	96
NMTTP	57	192	1	B	0	M1
NMTTP	57	192	2	B	0	M1
NMHLD	57	288	4	96
NMTTP	58	0	3	B	0	M1
NMTTP	58	0	4	B	0	M1
NMTTP	58	96	5	B	0	M1
NMTTP	58	96	6	B	0	M1
NMHLD	58	192	0	192
NMTTP	58	288	0	C	0	M1
BRHLD	59	0	7	192
NMTTP	59	96	5	B	0	M1
NMTTP	59	96	6	B	0	M1
NMHLD	59	192	1	192
NMTTP	59	288	1	B	0	M1
NMTTP	59	288	2	B	0	M1
NMHLD	60	0	6	192
NMTTP	60	96	5	B	0	M1
NMTTP	60	96	5	E	0	M1
NMHLD	60	192	2	192
NMTTP	60	288	3	E	0	M1
NMTTP	60	288	3	D	0	M1
NMHLD	61	0	4	192
NMTTP	61	96	5	E	0	M1
NMTTP	61	96	5	D	0	M1
NMHLD	61	192	3	192
NMTTP	61	288	2	B	0	M1
NMTTP	61	288	2	A	0	M1
NMHLD	62	0	4	192
NMTHO	62	96	0	96	C	0	M1
NMHLD	63	0	1	96
NMHLD	63	96	2	96
NMHLD	63	192	3	144
NMTAP	63	288	4
NMHLD	64	0	5	96
NMHLD	64	96	6	96
NMHLD	64	192	7	96
NMHLD	64	288	0	96
NMHLD	65	0	1	96
NMHLD	65	96	2	96
NMHLD	65	192	3	96
NMTAP	65	288	4
NMHLD	66	0	4	96
NMHLD	66	0	5	288
NMTAP	66	192	4
NMHLD	66	288	3	192
NMHLD	67	0	4	96
NMHLD	67	192	2	96
NMHLD	67	192	3	96
NMHLD	68	0	1	96
NMTAP	68	0	2
NMTAP	68	96	2
NMHLD	68	192	0	96
NMTAP	68	192	1
NMTAP	68	288	1
NMHLD	69	0	0	96
NMTAP	69	0	7
NMTAP	69	96	7
NMTAP	69	192	6
NMTAP	69	192	7
NMSTR	69	288	5
NMSI_	69	288	5	96	96	1
NMSTR	69	288	6
NMSI_	69	288	6	96	96	2
EXTAP	70	192	0
EXTAP	70	192	3
NMTAP	71	0	2
NMTAP	71	64	2
NMTAP	71	96	3
NMTAP	71	160	3
NMTAP	71	192	4
NMTAP	71	256	4
NMTAP	71	288	5
NMTAP	71	352	5
NMTAP	72	0	4
NMTAP	72	64	4
NMTAP	72	96	3
NMTAP	72	160	3
NMTAP	72	192	2
NMTAP	72	256	2
NMTAP	72	288	1
NMTAP	72	352	1
NMTAP	73	0	0
NMTAP	73	64	0
NMTAP	73	96	7
NMTAP	73	160	7
NMTAP	73	192	6
NMTAP	73	256	6
NMTAP	73	288	5
NMTAP	73	352	5
NMTAP	74	0	4
NMTAP	74	64	4
NMTAP	74	96	3
NMTAP	74	160	3
NMTAP	74	192	2
NMTAP	74	256	2
NMHLD	74	288	4	96
NMTAP	75	0	3
NMTAP	75	48	3
NMTAP	75	96	2
NMTAP	75	96	4
NMTAP	75	144	2
NMTAP	75	144	4
NMTAP	75	192	1
NMTAP	75	192	5
NMTAP	75	240	1
NMTAP	75	240	5
NMTAP	75	288	0
NMTAP	75	336	0
NMTAP	76	0	1
NMTAP	76	0	7
NMTAP	76	48	1
NMTAP	76	48	7
NMTAP	76	96	2
NMTAP	76	96	6
NMTAP	76	144	2
NMTAP	76	144	6
NMTAP	76	192	3
NMTAP	76	192	5
NMTAP	76	240	3
NMTAP	76	240	5
NMTAP	76	288	4
NMTAP	76	336	4
NMTAP	77	0	3
NMTAP	77	24	2
NMTAP	77	48	1
NMTAP	77	72	0
NMTAP	77	96	7
NMTAP	77	120	6
NMTAP	77	144	5
NMTAP	77	168	4
NMTAP	77	192	3
NMTAP	77	216	2
NMTAP	77	240	1
NMTAP	77	264	0
NMTAP	77	288	7
NMTAP	77	312	6
NMTAP	77	336	5
NMTAP	77	360	4
BXHLD	78	0	3	384
NMTHO	78	192	0	192	C	1	M1
EXTAP	79	96	0
EXTAP	79	96	7
BXTAP	79	192	0
BXTAP	79	216	7
BXTAP	79	240	0
BXTAP	79	264	7
BXTAP	79	288	0
NMTAP	80	0	1
NMTAP	80	0	6
NMTAP	80	48	2
NMTAP	80	48	5
NMSTR	80	96	3
BRSI_	80	96	3	96	48	7
NMTAP	80	96	4
NMSTR	80	192	6
BRSI_	80	192	6	96	48	3
NMTAP	80	288	2
NMSTR	81	0	0
BRSI_	81	0	0	96	48	5
NMTAP	81	0	5
NMSTR	81	96	4
BRSI_	81	96	4	96	48	0
NMSTR	81	192	1
BRSI_	81	192	1	96	48	4
NMTAP	81	288	7
NMSTR	82	0	6
BRSCR	82	0	6	96	48	1
NMSTR	82	96	3
BRSI_	82	96	3	96	48	7
NMSTR	82	192	4
BRSI_	82	192	4	96	48	0
NMSTR	82	288	2
BRSCR	82	288	2	96	48	5
NMTAP	83	0	7
NMTAP	83	96	6
NMTAP	83	96	7
NMTAP	83	192	3
NMTAP	83	192	4
NMTAP	83	288	0
NMTAP	83	288	1
NMTAP	84	0	6
NMSTR	84	0	7
BRSI_	84	0	7	96	48	2
NMSTR	84	96	3
BRSI_	84	96	3	96	48	6
NMSTR	84	192	7
BRSI_	84	192	7	96	48	2
NMSTR	84	288	3
BRSI_	84	288	3	96	48	7
NMSTR	85	0	0
BRSI_	85	0	0	96	48	2
NMSTR	85	96	4
BRSI_	85	96	4	96	48	0
NMTAP	85	192	1
NMTAP	85	288	2
NMTAP	85	288	7
NMTAP	86	0	3
NMTAP	86	0	6
NMTAP	86	48	5
NMTAP	86	72	4
NMTAP	86	96	5
NMTAP	86	144	2
NMTAP	86	168	3
NMTAP	86	192	2
NMTAP	86	240	5
NMTAP	86	264	4
NMTAP	86	288	6
NMTAP	86	336	1
NMTAP	86	360	0
NMTAP	87	0	1
NMTAP	87	48	6
NMTAP	87	72	7
NMTAP	87	96	6
NMTAP	87	144	0
NMTAP	87	144	5
NMTAP	87	192	1
NMSTR	87	192	4
BRSCR	87	192	4	96	48	7
BRTAP	87	288	3
NMTAP	88	0	0
NMTAP	88	0	1
NMTAP	88	48	0
NMTAP	88	48	1
NMTAP	88	96	2
NMTAP	88	96	7
NMTAP	88	144	3
NMTAP	88	144	6
NMSTR	88	192	4
BRSCL	88	192	4	96	48	1
NMTAP	88	192	5
NMSTR	88	288	7
BRSI_	88	288	7	96	48	3
NMSTR	89	0	0
BRSI_	89	0	0	96	48	4
NMSTR	89	96	5
BRSCR	89	96	5	96	48	0
NMSTR	89	192	1
BRSI_	89	192	1	96	48	3
BRSI_	89	192	1	96	48	5
NMTAP	90	0	6
NMTAP	90	0	7
NMTAP	90	48	6
NMTAP	90	48	7
NMTAP	90	96	0
NMTAP	90	96	5
NMTAP	90	144	1
NMTAP	90	144	4
NMTAP	90	192	2
NMSTR	90	192	3
BRSCR	90	192	3	96	48	6
NMSTR	90	288	0
BRSI_	90	288	0	96	48	4
NMSTR	91	0	7
BRSI_	91	0	7	96	48	3
NMSTR	91	96	2
BRSCL	91	96	2	96	48	7
NMSTR	91	192	6
BRSI_	91	192	6	96	48	2
BRSI_	91	192	6	96	48	4
NMTAP	92	0	0
NMTAP	92	48	0
NMTAP	92	96	1
NMTAP	92	96	3
NMTAP	92	144	1
NMTAP	92	144	3
NMTAP	92	192	3
NMTAP	92	192	4
NMTAP	92	240	3
NMTAP	92	240	4
NMTAP	92	288	4
NMTAP	92	288	6
NMTAP	92	336	4
NMTAP	92	336	6
NMSTR	93	0	7
BRSI_	93	0	7	96	48	4
NMSTR	93	96	0
BRSI_	93	96	0	96	48	3
NMSTR	93	192	7
BRSI_	93	192	7	96	48	2
BRTAP	93	288	0
NMTAP	94	0	1
NMTAP	94	0	3
NMTAP	94	96	3
NMTAP	94	96	4
NMTAP	94	144	3
NMTAP	94	144	4
NMTAP	94	192	3
NMTAP	94	192	4
NMTAP	94	240	2
NMTAP	94	264	3
NMTAP	94	288	1
NMTAP	94	336	6
NMTAP	94	360	7
NMTAP	95	0	5
NMTAP	95	48	1
NMTAP	95	72	0
NMTAP	95	96	2
NMTAP	95	144	6
NMTAP	95	168	4
NMTAP	95	192	5
NMTAP	95	240	3
NMTAP	95	240	4
NMTAP	95	288	3
NMTAP	95	288	4
NMTAP	96	0	0
NMHLD	96	0	6	96
NMHLD	96	96	4	96
NMHLD	96	192	3	96
NMHLD	96	288	1	96
NMHLD	97	0	6	96
NMHLD	97	96	4	96
NMHLD	97	192	3	96
NMHLD	97	288	1	96
NMHLD	98	0	5	96
NMHLD	98	96	4	96
NMHLD	98	192	3	96
NMHLD	98	288	2	96
NMHLD	99	0	5	96
NMHLD	99	96	4	96
NMTAP	99	192	3
NMTAP	99	288	2
NMTAP	99	288	5
BRTAP	100	0	1
NMTAP	100	24	0
NMTAP	100	48	1
NMTAP	100	72	0
BRTAP	100	96	2
NMTAP	100	120	7
NMTAP	100	144	2
NMTAP	100	168	7
BRTAP	100	192	3
NMTAP	100	216	6
NMTAP	100	240	3
NMTAP	100	264	6
BRTAP	100	288	4
NMTAP	100	312	5
NMTAP	100	336	4
NMTAP	100	360	5
BRTAP	101	0	7
NMTAP	101	24	6
NMTAP	101	48	7
NMTAP	101	72	6
BRTAP	101	96	0
NMTAP	101	120	5
NMTAP	101	144	0
NMTAP	101	168	5
BRTAP	101	192	1
NMTAP	101	216	4
NMTAP	101	240	1
NMTAP	101	264	4
BRTAP	101	288	2
NMTAP	101	312	5
NMTAP	101	336	2
NMTAP	101	360	5
BXTAP	102	0	3
BXTAP	102	24	4
BXTAP	102	48	3
BXTAP	102	72	4
BXTAP	102	96	2
BXTAP	102	120	5
BXTAP	102	144	2
BXTAP	102	168	5
BXTAP	102	192	1
BXTAP	102	216	6
BXTAP	102	240	1
BXTAP	102	264	6
BXTAP	102	288	0
BXTAP	102	312	7
BXTAP	102	336	0
BXTAP	102	360	7
BRTAP	103	0	0
BXTAP	103	24	7
BRTAP	103	48	0
BXTAP	103	72	7
BRTAP	103	96	0
BXTAP	103	120	7
BRTAP	103	144	0
BXTAP	103	168	7
BRTAP	103	192	0
BXTAP	103	216	7
BRTAP	103	240	0
BXTAP	103	264	7
BRSTR	103	288	0
BRSI_	103	288	0	96	48	4
BXTAP	103	312	7
BRTAP	103	336	0
BXTAP	103	360	7
BXTAP	104	0	0
NMTTP	104	12	0	C	1	M1

T_REC_TAP	383
T_REC_BRK	28
T_REC_XTP	10
T_REC_BXX	31
T_REC_HLD	88
T_REC_XHO	0
T_REC_BHO	1
T_REC_BXH	1
T_REC_STR	54
T_REC_BST	1
T_REC_XST	0
T_REC_XBS	1
T_REC_TTP	38
T_REC_THO	4
T_REC_SLD	26
T_REC_BSL	32
T_REC_ALL	698
T_NUM_TAP	485
T_NUM_BRK	95
T_NUM_HLD	92
T_NUM_SLD	26
T_NUM_ALL	698
T_JUDGE_TAP	546
T_JUDGE_HLD	263
T_JUDGE_SLD	58
T_JUDGE_ALL	867
TTM_EACHPAIRS	87
TTM_SCR_TAP	242500
TTM_SCR_BRK	247000
TTM_SCR_HLD	92000
TTM_SCR_SLD	39000
TTM_SCR_ALL	620500
TTM_SCR_S	592700
TTM_SCR_SS	611000
TTM_RAT_ACV	10155

