VERSION	0.00.00	1.04.00
FES_MODE	0
BPM_DEF	180.000	180.000	180.000	180.000
MET_DEF	4	4
RESOLUTION	384
CLK_DEF	384
COMPATIBLE_CODE	MA2

BPM	0	0	180.000
MET	0	0	4	4

NMTTP	2	0	0	B	0	L1
NMTTP	2	0	0	C	1	L1
NMTTP	2	0	1	B	0	L1
NMTTP	2	0	6	B	0	L1
NMTTP	2	0	7	B	0	L1
NMTHO	4	0	0	384	C	0	L1
NMTTP	4	0	2	B	0	L1
NMTTP	4	0	3	B	0	L1
NMTTP	4	0	4	B	0	L1
NMTTP	4	0	5	B	0	L1
NMTTP	6	0	1	E	0	L1
NMTTP	6	192	0	C	0	L1
NMTTP	7	0	5	E	0	L1
NMTTP	7	192	6	E	0	L1
NMTTP	8	0	7	E	0	L1
NMTTP	8	192	0	C	0	L1
NMTTP	9	0	3	E	0	L1
NMTTP	9	192	2	E	0	L1
NMTTP	10	0	0	C	1	L1
NMTAP	12	0	2
NMTAP	12	96	2
NMTAP	12	192	3
NMTAP	12	288	3
NMTAP	13	0	4
NMTAP	13	96	4
NMTAP	13	192	3
NMTAP	13	192	5
NMTAP	13	288	3
NMTAP	13	288	5
NMTAP	14	0	6
NMTAP	14	96	6
NMTAP	14	192	7
NMTAP	14	288	7
NMTAP	15	0	0
NMTAP	15	96	1
NMTAP	15	192	2
NMTAP	15	192	7
NMTAP	16	0	2
NMTAP	16	96	2
NMTAP	16	192	2
NMTAP	16	192	3
NMTAP	16	288	2
NMTAP	16	288	3
NMTAP	17	0	5
NMTAP	17	96	5
NMTAP	17	192	4
NMTAP	17	192	5
NMTAP	17	288	4
NMTAP	17	288	5
NMTAP	18	0	3
NMTAP	18	96	3
NMTAP	18	192	2
NMTAP	18	192	4
NMTAP	18	288	2
NMTAP	18	288	4
NMTAP	19	0	1
NMTAP	19	96	0
NMTAP	19	192	7
NMTAP	19	288	6
NMHLD	20	0	0	768
NMHLD	20	0	5	384
EXTAP	22	192	0
NMHLD	23	0	1	192
NMHLD	23	192	2	192
NMHLD	24	0	3	192
NMTAP	24	192	4
NMHLD	25	0	5	192
NMHLD	25	192	4	192
NMHLD	26	0	3	192
NMTAP	26	192	2
NMHLD	27	0	1	192
NMHLD	27	192	0	192
NMHLD	28	0	7	192
NMTAP	28	192	6
NMHLD	29	0	5	192
NMHLD	29	192	6	192
NMHLD	30	0	7	192
NMTAP	30	192	0
NMSTR	31	0	1
NMSCR	31	0	1	96	192	4
NMSTR	32	0	5
NMSCR	32	0	5	96	192	0
NMTAP	33	0	1
NMTAP	33	96	1
NMTAP	33	192	2
NMTAP	33	288	2
NMTAP	34	0	3
NMTAP	34	192	2
NMTAP	34	192	4
NMSTR	35	0	5
NMSI_	35	0	5	96	192	2
NMSTR	36	0	1
NMSI_	36	0	1	96	192	5
NMTAP	37	0	6
NMTAP	37	96	6
NMTAP	37	192	7
NMTAP	37	288	7
NMTAP	38	0	0
NMTAP	38	96	0
EXTAP	38	192	0
EXTAP	38	192	7
NMTAP	39	0	1
NMTAP	39	96	1
NMTAP	39	192	0
NMTAP	39	192	1
NMTAP	40	0	6
NMTAP	40	96	6
NMTAP	40	192	6
NMTAP	40	192	7
NMTAP	41	0	0
NMTAP	41	96	0
NMTAP	41	192	1
NMTAP	41	288	1
NMTAP	42	0	2
NMTAP	42	96	2
NMTAP	42	192	2
NMTAP	42	192	3
NMTAP	43	0	1
NMTAP	43	96	1
NMTAP	43	192	0
NMTAP	43	192	1
NMTAP	44	0	6
NMTAP	44	96	6
NMTAP	44	192	6
NMTAP	44	192	7
NMTAP	45	0	5
NMTAP	45	96	5
NMTAP	45	192	4
NMTAP	45	288	4
NMTAP	46	0	5
NMTAP	46	96	5
NMTAP	46	192	4
NMTAP	46	192	6
NMTAP	47	0	6
NMTAP	47	96	6
NMTAP	47	192	6
NMTAP	47	192	7
NMTAP	48	0	1
NMTAP	48	96	1
NMTAP	48	192	0
NMTAP	48	192	1
NMTAP	49	0	1
NMTAP	49	96	1
NMTAP	49	192	2
NMTAP	49	288	3
NMTAP	50	0	4
NMTAP	50	0	5
NMTAP	50	96	4
NMTAP	50	96	5
NMTAP	50	192	3
NMTAP	50	192	6
NMTAP	51	0	6
NMTAP	51	96	6
NMTAP	51	192	5
NMTAP	51	288	4
NMTAP	52	0	2
NMTAP	52	0	3
NMTAP	52	96	2
NMTAP	52	96	3
NMTAP	52	192	1
NMTAP	52	192	4
NMTAP	53	0	5
NMTAP	53	96	5
NMTAP	53	192	3
NMTAP	53	288	3
NMHLD	54	0	3	192
NMHLD	54	0	4	192
NMTTP	55	0	2	B	0	L1
NMTTP	55	96	3	B	0	L1
NMTTP	55	192	4	E	0	L1
NMTTP	56	0	6	E	0	L1
NMTTP	56	96	5	B	0	L1
NMTTP	56	192	4	B	0	L1
NMTTP	57	0	1	B	0	L1
NMTTP	57	96	2	B	0	L1
NMTTP	57	192	3	B	0	L1
NMTTP	57	288	4	B	0	L1
NMTTP	58	0	5	B	0	L1
NMTTP	58	96	6	B	0	L1
NMTTP	58	192	6	A	0	L1
NMTTP	58	192	7	E	0	L1
NMTTP	59	0	0	B	0	L1
NMTTP	59	96	1	B	0	L1
NMTTP	59	192	2	E	0	L1
NMTTP	60	0	7	B	0	L1
NMTTP	60	96	6	B	0	L1
NMTTP	60	192	6	E	0	L1
NMTTP	61	0	2	B	0	L1
NMTTP	61	0	3	B	0	L1
NMTTP	61	0	3	E	0	L1
NMTTP	61	192	4	B	0	L1
NMTTP	61	192	5	B	0	L1
NMTTP	61	192	5	E	0	L1
NMTTP	62	0	0	C	0	L1
NMHLD	63	0	1	192
NMTAP	63	192	0
NMHLD	64	0	6	192
NMTAP	64	192	7
NMHLD	65	0	5	192
NMTAP	65	192	4
NMHLD	66	0	2	192
NMTAP	66	192	3
NMHLD	67	0	4	192
NMHLD	67	192	5	192
NMHLD	68	0	6	192
NMHLD	68	192	7	192
NMHLD	69	0	0	192
NMHLD	69	192	1	192
NMTAP	70	0	2
NMTAP	70	192	2
NMTAP	70	192	3
NMSTR	71	0	2
NMSXR	71	0	2	96	528	7
NMTAP	71	0	3
NMSTR	73	0	6
NMSXR	73	0	6	96	528	3
NMSTR	75	0	2
NMSCL	75	0	2	96	432	5
EXTAP	77	0	3
EXTAP	77	0	4
NMTTP	78	0	0	C	1	L1
EXTAP	79	0	0
EXTAP	79	0	7
EXTAP	79	96	1
EXTAP	79	96	6
BXTAP	79	192	2
BXTAP	79	192	5
NMTAP	80	0	2
NMTAP	80	96	2
NMTAP	80	192	1
NMTAP	80	288	0
NMTAP	80	288	1
NMTAP	81	0	7
NMTAP	81	48	7
NMTAP	81	96	7
NMTAP	81	192	0
NMTAP	81	192	6
NMTAP	82	0	5
NMTAP	82	96	5
NMTAP	82	192	6
NMTAP	82	288	6
NMTAP	82	288	7
NMTAP	83	0	0
NMTAP	83	48	0
NMTAP	83	96	0
NMTAP	83	192	1
NMTAP	83	192	7
NMTAP	84	0	2
NMTAP	84	96	2
NMTAP	84	192	1
NMTAP	84	192	3
NMTAP	84	288	0
NMTAP	85	0	7
NMTAP	85	96	6
NMTAP	85	192	4
NMTAP	85	192	5
NMTAP	85	288	4
NMTAP	85	288	5
NMTAP	86	0	3
NMTAP	86	48	3
NMTAP	86	96	3
NMTAP	86	192	4
NMTAP	86	240	4
NMTAP	86	288	4
NMTAP	87	0	3
NMTAP	87	0	4
NMTAP	87	96	3
NMTAP	87	96	4
BRTAP	87	192	2
BRTAP	87	192	5
NMTAP	88	0	2
NMTAP	88	48	2
NMTAP	88	96	2
NMTAP	88	192	2
NMTAP	88	192	3
NMTAP	88	288	2
NMTAP	88	288	3
NMTAP	89	0	1
NMTAP	89	48	1
NMTAP	89	96	1
NMTAP	89	192	0
NMTAP	89	192	1
NMTAP	90	0	6
NMTAP	90	48	6
NMTAP	90	96	6
NMTAP	90	192	6
NMTAP	90	192	7
NMTAP	90	288	6
NMTAP	90	288	7
NMTAP	91	0	5
NMTAP	91	48	5
NMTAP	91	96	5
NMTAP	91	192	4
NMTAP	91	192	6
NMTAP	92	0	2
NMTAP	92	48	2
NMTAP	92	96	2
NMTAP	92	192	2
NMTAP	92	192	3
NMTAP	92	288	1
NMTAP	92	288	4
NMTAP	93	0	5
NMTAP	93	48	5
NMTAP	93	96	5
NMTAP	93	192	4
NMTAP	93	192	5
NMTAP	93	288	3
NMTAP	93	288	6
NMTAP	94	0	2
NMTAP	94	0	5
NMTAP	94	96	2
NMTAP	94	96	5
NMTAP	94	192	1
NMTAP	94	192	4
NMTAP	94	288	1
NMTAP	94	288	4
NMTAP	95	0	2
NMTAP	95	0	3
NMTAP	95	96	1
NMTAP	95	96	4
BRTAP	95	192	0
BRTAP	95	192	5
NMSTR	96	0	6
NMSCL	96	0	6	96	288	3
NMTAP	97	192	2
NMTAP	97	288	2
NMSTR	98	0	2
NMSI_	98	0	2	96	288	5
NMTAP	99	192	6
NMTAP	99	288	6
NMTAP	100	0	5
NMTAP	100	48	5
NMTAP	100	96	5
NMTAP	100	192	4
NMTAP	100	192	5
NMTAP	100	288	3
NMTAP	100	288	6
NMTAP	101	0	2
NMTAP	101	48	2
NMTAP	101	96	2
NMTAP	101	192	2
NMTAP	101	192	3
NMTAP	101	288	1
NMTAP	101	288	4
NMTAP	102	0	0
NMTAP	102	48	0
NMTAP	102	96	0
NMTAP	102	192	7
NMTAP	102	240	7
NMTAP	102	288	7
NMTAP	103	0	0
NMTAP	103	0	7
NMTAP	103	48	0
NMTAP	103	48	7
NMTAP	103	96	0
NMTAP	103	96	7
NMTAP	103	192	1
NMTAP	103	192	6
NMTAP	103	240	1
NMTAP	103	240	6
NMTAP	103	288	1
NMTAP	103	288	6
BRTAP	104	0	2
BRTAP	104	0	5

T_REC_TAP	256
T_REC_BRK	6
T_REC_XTP	9
T_REC_BXX	2
T_REC_HLD	26
T_REC_XHO	0
T_REC_BHO	0
T_REC_BXH	0
T_REC_STR	9
T_REC_BST	0
T_REC_XST	0
T_REC_XBS	0
T_REC_TTP	46
T_REC_THO	1
T_REC_SLD	9
T_REC_BSL	0
T_REC_ALL	364
T_NUM_TAP	320
T_NUM_BRK	8
T_NUM_HLD	27
T_NUM_SLD	9
T_NUM_ALL	364
T_JUDGE_TAP	328
T_JUDGE_HLD	128
T_JUDGE_SLD	9
T_JUDGE_ALL	465
TTM_EACHPAIRS	71
TTM_SCR_TAP	160000
TTM_SCR_BRK	20800
TTM_SCR_HLD	27000
TTM_SCR_SLD	13500
TTM_SCR_ALL	221300
TTM_SCR_S	213900
TTM_SCR_SS	220500
TTM_RAT_ACV	10036

