VERSION	0.00.00	1.04.00
FES_MODE	0
BPM_DEF	208.000	208.000	208.000	208.000
MET_DEF	4	4
RESOLUTION	384
CLK_DEF	576
COMPATIBLE_CODE	MA2

BPM	0	0	208.000
MET	0	0	4	3
MET	33	0	4	4

NMTAP	2	192	4
NMTAP	2	288	3
NMTAP	3	0	3
NMTTP	3	96	5	B	0	M1
NMTTP	3	96	5	E	0	M1
NMTTP	3	192	2	B	0	M1
NMTTP	3	192	3	E	0	M1
NMTAP	3	288	4
NMTTP	4	0	5	B	0	M1
NMTTP	4	0	5	E	0	M1
NMTTP	4	96	2	B	0	M1
NMTTP	4	96	3	E	0	M1
NMTAP	4	192	3
NMTTP	4	288	5	B	0	M1
NMTTP	4	288	5	E	0	M1
NMTTP	5	0	2	B	0	M1
NMTTP	5	0	3	E	0	M1
NMHLD	5	96	6	96
NMTTP	5	192	5	B	0	M1
NMTTP	5	192	5	E	0	M1
NMTTP	5	288	2	B	0	M1
NMTTP	5	288	3	E	0	M1
NMHLD	6	0	4	96
NMTTP	6	96	5	B	0	M1
NMTTP	6	96	5	E	0	M1
NMTTP	6	192	2	B	0	M1
NMTTP	6	192	3	E	0	M1
NMHLD	6	288	3	96
NMTTP	7	0	5	B	0	M1
NMTTP	7	0	5	E	0	M1
NMTTP	7	96	2	B	0	M1
NMTTP	7	96	3	E	0	M1
NMHLD	7	192	1	96
NMTTP	7	288	5	B	0	M1
NMTTP	7	288	5	E	0	M1
NMTTP	8	0	2	B	0	M1
NMTTP	8	0	3	E	0	M1
NMTAP	8	96	6
NMTTP	8	192	5	B	0	M1
NMTTP	8	192	5	E	0	M1
NMTAP	8	192	7
NMTTP	8	288	2	B	0	M1
NMTTP	8	288	3	E	0	M1
NMTAP	8	288	7
NMHLD	9	0	7	96
NMTTP	9	96	5	B	0	M1
NMTTP	9	96	5	E	0	M1
NMTTP	9	192	2	B	0	M1
NMTTP	9	192	3	E	0	M1
NMTAP	9	288	4
NMTTP	10	0	5	B	0	M1
NMTTP	10	0	5	E	0	M1
NMTAP	10	0	6
NMTTP	10	96	2	B	0	M1
NMTTP	10	96	3	E	0	M1
NMTAP	10	96	6
NMHLD	10	192	6	96
NMTTP	10	288	5	B	0	M1
NMTTP	10	288	5	E	0	M1
NMTTP	11	0	2	B	0	M1
NMTTP	11	0	3	E	0	M1
NMTAP	11	96	4
NMTTP	11	192	5	B	0	M1
NMTTP	11	192	5	E	0	M1
NMTTP	11	288	2	B	0	M1
NMTTP	11	288	3	E	0	M1
NMHLD	12	0	4	96
NMTAP	12	144	3
NMTAP	12	144	5
NMTAP	12	192	3
NMTAP	12	192	5
NMHLD	12	288	3	96
NMHLD	12	288	5	96
NMTAP	13	48	3
NMTAP	13	48	5
NMTAP	13	96	3
NMTAP	13	96	5
NMHLD	13	192	2	96
NMHLD	13	192	4	96
NMTAP	13	336	2
NMTAP	13	336	4
NMTAP	14	0	2
NMTAP	14	0	4
BRTAP	14	96	3
NMTAP	14	192	5
NMTAP	14	240	6
NMTAP	14	288	7
NMTAP	14	336	0
NMTAP	15	0	1
NMTTP	15	96	4	B	0	M1
NMTTP	15	96	4	E	0	M1
NMTTP	15	192	2	B	0	M1
NMTTP	15	192	3	E	0	M1
NMTAP	15	288	3
NMTTP	16	0	4	B	0	M1
NMTTP	16	0	4	E	0	M1
NMTAP	16	0	5
NMTAP	16	48	6
NMTTP	16	96	2	B	0	M1
NMTTP	16	96	3	E	0	M1
NMTAP	16	96	7
NMTAP	16	144	0
NMTAP	16	192	1
NMTTP	16	288	4	B	0	M1
NMTTP	16	288	4	E	0	M1
NMTTP	17	0	2	B	0	M1
NMTTP	17	0	3	E	0	M1
NMHLD	17	96	3	96
NMTTP	17	192	4	B	0	M1
NMTTP	17	192	4	E	0	M1
NMTTP	17	288	2	B	0	M1
NMTTP	17	288	3	E	0	M1
NMHLD	18	0	6	96
NMTTP	18	96	4	B	0	M1
NMTTP	18	96	4	E	0	M1
NMTTP	18	192	2	B	0	M1
NMTTP	18	192	3	E	0	M1
NMTAP	18	288	1
NMTAP	18	336	0
NMTTP	19	0	4	B	0	M1
NMTTP	19	0	4	E	0	M1
NMTAP	19	0	7
NMTAP	19	48	6
NMTTP	19	96	2	B	0	M1
NMTTP	19	96	3	E	0	M1
NMTAP	19	96	5
NMTAP	19	192	3
NMHLD	19	288	3	192
NMTTP	19	288	4	B	0	M1
NMTTP	19	288	4	E	0	M1
NMTTP	20	0	2	B	0	M1
NMTTP	20	0	3	E	0	M1
NMTTP	20	192	4	B	0	M1
NMTTP	20	192	4	E	0	M1
NMTAP	20	192	5
NMTAP	20	240	6
NMTTP	20	288	2	B	0	M1
NMTTP	20	288	3	E	0	M1
NMTAP	20	288	7
NMTAP	20	336	0
NMTAP	21	0	1
NMTAP	21	96	3
NMTTP	21	96	4	B	0	M1
NMTTP	21	96	4	E	0	M1
NMTTP	21	192	2	B	0	M1
NMTAP	21	192	3
NMTTP	21	192	3	E	0	M1
NMHLD	21	288	5	96
NMTTP	22	0	4	B	0	M1
NMTTP	22	0	4	E	0	M1
NMTTP	22	96	2	B	0	M1
NMTTP	22	96	3	E	0	M1
NMHLD	22	192	1	96
NMTTP	22	288	4	B	0	M1
NMTTP	22	288	4	E	0	M1
NMTTP	23	0	2	B	0	M1
NMTTP	23	0	3	E	0	M1
NMTAP	23	96	6
NMTTP	23	192	4	B	0	M1
NMTTP	23	192	4	E	0	M1
NMTAP	23	192	7
NMTTP	23	288	2	B	0	M1
NMTTP	23	288	3	E	0	M1
NMTAP	23	288	7
NMHLD	24	0	6	96
NMTTP	24	96	4	B	0	M1
NMTTP	24	96	4	E	0	M1
NMTTP	24	192	2	B	0	M1
NMTTP	24	192	3	E	0	M1
NMHLD	24	288	1	96
NMTTP	25	0	4	B	0	M1
NMTTP	25	0	4	E	0	M1
NMTTP	25	96	2	B	0	M1
NMTTP	25	96	3	E	0	M1
NMHLD	25	192	5	96
NMTTP	25	288	4	B	0	M1
NMTTP	25	288	4	E	0	M1
NMTTP	26	0	2	B	0	M1
NMTTP	26	0	3	E	0	M1
BRTAP	26	96	0
NMTAP	27	0	6
NMTAP	27	32	5
NMTAP	27	64	4
NMTTP	27	96	7	E	0	M1
NMTTP	27	128	6	E	0	M1
NMTTP	27	160	5	E	0	M1
NMTTP	27	192	4	E	0	M1
NMTAP	27	288	1
NMTAP	27	320	2
NMTAP	27	352	3
NMTTP	28	0	1	E	0	M1
NMTTP	28	32	2	E	0	M1
NMTTP	28	64	3	E	0	M1
NMTTP	28	96	4	E	0	M1
NMTAP	28	192	6
NMTAP	28	224	5
NMTAP	28	256	4
NMTTP	28	288	7	E	0	M1
NMTTP	28	320	6	E	0	M1
NMTTP	28	352	5	E	0	M1
NMTTP	29	0	4	E	0	M1
NMTAP	29	96	1
NMTAP	29	128	2
NMTAP	29	160	3
NMTTP	29	192	1	E	0	M1
NMTTP	29	224	2	E	0	M1
NMTTP	29	256	3	E	0	M1
NMTTP	29	288	4	E	0	M1
NMSTR	30	0	7
NMSCL	30	0	7	96	192	4
NMTAP	30	96	3
NMTAP	30	192	1
NMSTR	30	288	0
NMSCR	30	288	0	96	192	3
NMTAP	31	0	4
NMTAP	31	96	6
NMSTR	31	192	7
NMSCL	31	192	7	96	192	4
NMTAP	31	288	3
NMTAP	32	0	1
BRTAP	32	96	0
BXTAP	33	0	1
BXTAP	33	0	4
NMTAP	33	48	2
NMTAP	33	72	3
NMTAP	33	96	2
NMTAP	33	144	2
NMTAP	33	168	3
NMTAP	33	192	2
NMTAP	33	240	2
NMTAP	33	264	3
NMTAP	33	288	2
NMTAP	33	336	2
NMTAP	33	360	3
NMTAP	34	0	2
NMTAP	34	48	2
NMTAP	34	72	3
NMTAP	34	96	2
NMTAP	34	144	2
NMTAP	34	168	3
NMTAP	34	192	2
NMTAP	34	240	2
NMTAP	34	264	3
NMTAP	34	288	2
NMTAP	34	336	2
NMTAP	34	360	3
NMTAP	35	0	2
NMTAP	35	48	2
NMTAP	35	72	1
NMTAP	35	96	2
NMTAP	35	144	2
NMTAP	35	168	0
NMTAP	35	192	2
NMTAP	35	240	2
NMTAP	35	264	7
NMTAP	35	288	2
NMTAP	35	336	2
NMTAP	35	360	6
NMTAP	36	0	2
NMTAP	36	48	2
NMTAP	36	72	5
NMTAP	36	96	2
NMTAP	36	144	2
NMTAP	36	168	4
NMTAP	36	192	2
NMTAP	36	240	2
NMTAP	36	264	3
NMTAP	36	288	2
NMTAP	36	336	3
NMTAP	36	336	4
BRTAP	37	0	5
NMTAP	37	48	5
NMTAP	37	72	4
NMTAP	37	96	5
NMTAP	37	144	5
NMTAP	37	168	4
NMTAP	37	192	5
NMTAP	37	240	5
NMTAP	37	264	4
NMTAP	37	288	5
NMTAP	37	336	5
NMTAP	37	360	4
NMTAP	38	0	5
NMTAP	38	48	5
NMTAP	38	72	6
NMTAP	38	96	5
NMTAP	38	144	5
NMTAP	38	168	7
NMTAP	38	192	5
NMTAP	38	240	5
NMTAP	38	264	0
NMTAP	38	288	5
NMTAP	38	336	5
NMTAP	38	360	1
NMTAP	39	0	5
NMTAP	39	48	5
NMTAP	39	72	2
NMTAP	39	96	5
NMTAP	39	144	5
NMTAP	39	168	3
NMTAP	39	192	5
NMTAP	39	240	5
NMTAP	39	264	4
NMTAP	39	288	5
NMTAP	39	336	5
NMTAP	39	360	3
NMTAP	40	0	5
NMTAP	40	48	5
NMTAP	40	72	4
NMTAP	40	96	5
NMTAP	40	144	5
NMTAP	40	168	2
NMTAP	40	192	5
NMTAP	40	240	5
NMTAP	40	264	4
NMTAP	40	288	5
NMTAP	40	336	3
NMTAP	40	336	4
BRTAP	41	0	2
BRHLD	41	0	5	96
NMTAP	41	96	4
NMHLD	41	192	2	96
NMTAP	41	192	7
NMTAP	41	288	4
NMTAP	41	336	4
NMTAP	42	48	0
NMTAP	42	48	6
NMSTR	42	96	0
NMSCR	42	96	0	96	48	3
NMTAP	42	96	6
NMTAP	42	192	0
NMSTR	42	192	7
NMSCL	42	192	7	96	48	4
NMTAP	42	288	0
NMTAP	42	288	7
NMHLD	43	0	2	384
NMTAP	43	96	3
NMTAP	43	144	3
NMTAP	43	240	1
NMTAP	43	288	1
NMTAP	44	0	7
NMTAP	44	96	6
NMTAP	44	128	4
NMTAP	44	160	5
NMTAP	44	192	2
NMTAP	44	224	3
NMTAP	44	256	1
NMTAP	44	288	7
NMTAP	44	320	3
NMTAP	44	352	6
NMHLD	45	0	4	96
NMTAP	45	96	5
NMSTR	45	144	5
NMSI_	45	144	5	96	48	7
NMTAP	45	240	0
NMSTR	45	288	0
NMSCL	45	288	0	96	48	5
CNSI_	45	288	7	0	48	3
NMTAP	46	0	4
NMSTR	46	96	7
NMSCR	46	96	7	96	48	2
NMTAP	46	192	3
NMTAP	46	288	3
NMTAP	46	288	4
NMTAP	47	0	2
NMTAP	47	0	5
NMTAP	47	32	3
NMTAP	47	64	4
NMTAP	47	96	2
NMTAP	47	96	5
NMTAP	47	128	4
NMTAP	47	160	3
NMTAP	47	192	2
NMTAP	47	192	5
NMTAP	47	240	1
NMTAP	47	240	6
NMTAP	47	288	0
NMTAP	47	288	7
NMHLD	47	336	1	96
NMTAP	47	336	6
NMTAP	48	48	5
NMTAP	48	72	6
NMTAP	48	96	7
NMTAP	48	120	0
NMTAP	48	144	1
NMTAP	48	168	2
BXTAP	48	192	3
EXTAP	48	240	3
EXTAP	48	288	4
EXTAP	48	336	4
BRTAP	49	0	0
BRTAP	49	0	5
NMTAP	49	96	2
NMTAP	49	96	7
NMHLD	49	144	2	96
NMTAP	49	144	7
NMTTP	49	240	3	E	0	M1
NMTTP	49	264	4	E	0	M1
NMTTP	49	288	5	E	0	M1
NMTTP	49	312	6	E	0	M1
NMTTP	49	336	7	E	0	M1
NMTAP	50	0	1
NMTAP	50	96	5
NMHLD	50	144	5	96
NMTTP	50	240	5	E	0	M1
NMTTP	50	264	4	E	0	M1
NMTTP	50	288	3	E	0	M1
NMTTP	50	312	2	E	0	M1
NMTTP	50	336	1	E	0	M1
NMSTR	51	0	4
NMSI_	51	0	4	96	48	6
NMTAP	51	48	4
NMTAP	51	96	2
NMTAP	51	144	2
NMSTR	51	192	7
NMSI_	51	192	7	96	48	3
NMTAP	51	240	7
NMTAP	51	288	1
NMTAP	51	336	0
NMSTR	52	0	4
NMSCR	52	0	4	96	48	7
NMSTR	52	0	7
NMSCR	52	0	7	96	48	2
EXTAP	52	192	0
EXTAP	52	192	2
NMTAP	52	288	3
NMTAP	52	288	4
BRTAP	53	0	0
BRTAP	53	0	5
NMTAP	53	96	1
NMTAP	53	96	4
NMTAP	53	144	2
NMTAP	53	168	3
NMTAP	53	192	2
NMTAP	53	240	2
NMTAP	53	288	1
NMTAP	53	288	4
NMTAP	53	336	2
NMTAP	53	360	3
NMTAP	54	0	2
NMTAP	54	48	2
NMTAP	54	96	1
NMTAP	54	96	4
NMTAP	54	144	2
NMTAP	54	168	3
NMTAP	54	192	2
NMTAP	54	240	2
NMSTR	54	288	1
NMSI_	54	288	1	96	48	5
NMTAP	54	288	4
NMTAP	54	336	5
BRTAP	55	0	1
NMSTR	55	0	6
NMSI_	55	0	6	96	48	2
NMSTR	55	96	0
NMSI_	55	96	0	96	48	4
BRTAP	55	96	6
BRTAP	55	192	0
NMSTR	55	192	7
NMSCR	55	192	7	96	48	2
NMSTR	55	288	5
NMSI_	55	288	5	96	48	0
BRTAP	55	288	7
BXHLD	56	0	3	384
BXTAP	56	0	5
NMSTR	57	0	6
NMSI_	57	0	6	96	48	4
NMTAP	57	96	4
NMTAP	57	96	6
NMTAP	57	168	2
NMSTR	57	192	3
NMSI_	57	192	3	96	48	7
NMTAP	57	240	0
NMTAP	57	288	1
NMTAP	57	288	3
NMTAP	57	336	2
NMSTR	58	0	3
NMSI_	58	0	3	96	48	7
NMTAP	58	0	6
NMTAP	58	96	3
NMTAP	58	96	4
NMTAP	58	168	5
NMSTR	58	192	0
NMSI_	58	192	0	96	48	2
NMTAP	58	240	4
NMTAP	58	288	0
NMTAP	58	288	5
NMTAP	58	336	6
EXTAP	59	0	3
EXTAP	59	0	7
NMTAP	59	96	5
NMTAP	59	120	4
NMTAP	59	144	5
NMTAP	59	168	4
NMHLD	59	192	6	48
NMTAP	59	240	7
NMHLD	59	264	5	48
NMTAP	59	312	0
NMTAP	59	336	4
NMHLD	60	0	1	48
NMTAP	60	48	0
NMHLD	60	72	2	48
NMTAP	60	120	7
NMTAP	60	144	3
NMSTR	60	192	4
NMSI_	60	192	4	96	48	0
NMSTR	60	192	6
NMSI_	60	192	6	96	48	4
NMTAP	60	288	4
NMTAP	60	288	6
NMTAP	61	0	1
NMTAP	61	24	2
NMTAP	61	48	3
NMTAP	61	72	4
NMTAP	61	96	0
NMTAP	61	120	7
NMTAP	61	144	6
NMTAP	61	168	5
NMTAP	61	192	3
NMTAP	61	216	2
NMTAP	61	240	1
NMTAP	61	264	0
NMTAP	61	288	6
NMTAP	61	312	5
NMTAP	61	336	4
NMTAP	61	360	3
NMTAP	62	0	7
NMTAP	62	24	0
NMTAP	62	48	1
NMTAP	62	72	2
NMTAP	62	96	4
NMTAP	62	120	5
NMTAP	62	144	6
NMTAP	62	168	7
NMTAP	62	192	1
NMTAP	62	216	2
NMTAP	62	240	3
NMTAP	62	264	4
NMTAP	62	288	6
NMTAP	62	312	5
NMTAP	62	336	4
NMTAP	62	360	3
NMHLD	63	0	0	96
NMTAP	63	96	6
NMTAP	63	120	7
NMTAP	63	144	6
NMTAP	63	168	7
NMHLD	63	192	5	48
NMTAP	63	240	4
NMHLD	63	264	6	48
NMTAP	63	312	3
NMTAP	63	336	7
NMHLD	64	0	2	48
NMTAP	64	48	4
NMHLD	64	72	1	48
NMTAP	64	120	5
NMTAP	64	144	0
NMTAP	64	192	6
NMTAP	64	192	7
NMTAP	64	288	3
NMTAP	64	288	4
BRTAP	65	0	2
BRTAP	65	0	3
NMTAP	65	48	1
NMTAP	65	48	4
NMTAP	65	96	0
NMTAP	65	120	0
NMTAP	65	144	7
NMTAP	65	192	4
NMTAP	65	192	5
NMTAP	65	240	3
NMTAP	65	240	6
NMTAP	65	288	7
NMTAP	65	312	7
NMTAP	65	336	0
NMTAP	66	0	0
NMTAP	66	0	1
NMTAP	66	48	2
NMTAP	66	48	7
NMTAP	66	96	3
NMTAP	66	120	3
NMTAP	66	144	4
NMTAP	66	192	6
NMTAP	66	192	7
NMTAP	66	240	0
NMTAP	66	240	5
NMTAP	66	288	4
NMTAP	66	312	4
NMTAP	66	336	3
NMTAP	67	0	1
NMTAP	67	0	6
NMTAP	67	48	0
NMTAP	67	72	7
NMTAP	67	96	1
NMTAP	67	120	6
NMTAP	67	144	2
NMTAP	67	168	5
NMHLD	67	192	3	48
NMHLD	67	264	2	48
NMHLD	67	264	4	48
NMTAP	67	336	1
NMTAP	67	336	5
NMHLD	68	0	6	48
NMHLD	68	72	5	48
NMHLD	68	72	7	48
NMTAP	68	144	0
NMTAP	68	144	4
NMHLD	68	192	1	48
NMHLD	68	192	3	48
NMHLD	68	264	2	48
NMHLD	68	264	4	48
NMTAP	68	336	1
NMTAP	68	336	5
BRSTR	69	0	1
NMSI_	69	0	1	96	48	5
BRTAP	69	0	5
NMTAP	69	96	0
CNSI_	69	144	5	0	48	2
NMTAP	69	144	7
CNSI_	69	192	2	0	48	7
NMTAP	69	192	6
NMTAP	69	240	5
NMTAP	69	288	4
NMTAP	69	336	4
NMTAP	70	0	2
NMSTR	70	0	6
NMSI_	70	0	6	96	48	2
NMTAP	70	96	7
NMTAP	70	144	0
CNSI_	70	144	2	0	48	5
NMTAP	70	192	1
CNSI_	70	192	5	0	48	0
NMTAP	70	240	2
NMTAP	70	288	3
NMTAP	70	336	3
NMSTR	71	0	1
NMSCR	71	0	1	96	48	4
NMTAP	71	0	5
NMTAP	71	72	0
NMTAP	71	96	1
NMTAP	71	144	7
NMSTR	71	192	6
NMSCL	71	192	6	96	48	3
NMTAP	71	264	7
NMTAP	71	288	6
NMTAP	71	336	0
BRSTR	72	0	1
NMSI_	72	0	1	96	48	5
BRTAP	72	96	1
BRSTR	72	96	4
NMSI_	72	96	4	96	48	7
BRTAP	72	192	3
BRTAP	72	192	4
BRTAP	72	288	1
BRTAP	72	288	6
NMTAP	73	0	0
NMTAP	73	32	0
NMTAP	73	64	0
NMTAP	73	96	7
NMTAP	73	128	7
NMTAP	73	160	7
NMTAP	73	192	1
NMTAP	73	224	3
NMTAP	73	256	2
NMTAP	73	288	6
NMTAP	73	320	4
NMTAP	73	352	5
NMTAP	74	0	3
NMTAP	74	32	3
NMTAP	74	64	3
NMTAP	74	96	4
NMTAP	74	128	4
NMTAP	74	160	4
NMTAP	74	192	2
NMTAP	74	224	3
NMTAP	74	256	1
NMTAP	74	288	5
NMTAP	74	320	4
NMTAP	74	352	6
NMTAP	75	0	0
NMTAP	75	32	0
NMTAP	75	64	0
NMTAP	75	96	2
NMTAP	75	128	2
NMTAP	75	160	2
NMTAP	75	192	4
NMTAP	75	224	4
NMTAP	75	256	4
NMTAP	75	288	6
NMTAP	75	320	6
NMTAP	75	352	6
NMTAP	76	0	0
NMTAP	76	32	7
NMTAP	76	64	1
NMTAP	76	96	6
NMTAP	76	128	2
NMTAP	76	160	5
NMHLD	76	192	3	96
NMTAP	76	288	4
NMTAP	76	312	3
NMTAP	76	336	4
NMTAP	76	360	3
NMTTP	77	0	0	C	1	M1
BXTAP	77	0	2
EXTAP	77	72	7
EXTAP	77	144	6
BXTAP	77	192	1
EXHLD	77	192	6	96
NMTAP	77	288	4
NMTAP	77	312	5
NMTAP	77	336	4
NMTAP	77	360	5
NMTTP	78	0	4	E	1	M1
BXTAP	78	0	6
EXTAP	78	72	0
EXTAP	78	144	1
NMTTP	78	192	4	E	1	M1
BXTAP	78	192	7
EXTAP	78	264	6
EXTAP	78	336	5
BXTAP	79	0	2
NMTTP	79	0	4	E	1	M1
EXTAP	79	72	0
EXTAP	79	144	1
NMTTP	79	192	0	C	1	M1
BXSTR	79	192	6
NMSCL	79	192	6	96	96	1
BRHLD	80	0	0	3648
NMSTR	81	0	3
NMSCR	81	0	3	96	480	7
NMSTR	83	0	7
NMSUL	83	0	7	96	480	3
NMSTR	85	0	3
NMSCL	85	0	3	96	480	7
NMSTR	87	0	7
NMSI_	87	0	7	96	96	1
CNSI_	87	192	1	0	192	6
CNSI_	88	0	6	0	192	2
CNSI_	88	192	2	0	192	5
CNSI_	89	0	5	0	192	3
NMTAP	89	360	0
NMTAP	89	372	7
BXHLD	90	0	1	336
BXTAP	90	0	6
BXTAP	90	192	7
BXTAP	90	264	2
BXTAP	90	336	5
BXTAP	91	0	1
BXHLD	91	0	5	336
BXTAP	91	192	3
BXTAP	91	264	6
BXTAP	91	336	0
BXHLD	92	0	0	192
BXTAP	92	0	5
BXHLD	92	192	3	72
BXHLD	92	264	2	72
BXHLD	92	336	0	48
BXHLD	93	0	7	72
BXHLD	93	72	6	72
BXHLD	93	144	4	48
BXTAP	93	192	5
NMSTR	93	288	0
NMSCR	93	288	0	96	48	3
NMTAP	93	288	7
BRSTR	94	0	0
NMSI_	94	0	0	96	48	5
NMTAP	94	48	4
NMSTR	94	96	0
NMSI_	94	96	0	96	48	4
NMTAP	94	144	4
NMTAP	94	192	0
NMTAP	94	240	7
NMSTR	94	288	0
NMSI_	94	288	0	96	48	5
NMTAP	94	304	1
NMTAP	94	320	2
NMTAP	94	336	3
NMTAP	94	336	5
BRSTR	95	0	0
NMSCR	95	0	0	96	48	3
NMTAP	95	48	4
NMSTR	95	96	0
NMSI_	95	96	0	96	48	4
NMTAP	95	144	4
NMTAP	95	192	0
NMTAP	95	240	7
NMSTR	95	288	0
NMSI_	95	288	0	96	48	5
NMTAP	95	304	1
NMTAP	95	320	2
NMTAP	95	336	3
NMTAP	95	336	5
BRTAP	96	0	0
NMTAP	96	48	4
NMTAP	96	96	0
NMTAP	96	112	1
NMTAP	96	128	2
NMTAP	96	144	3
NMTAP	96	144	5
BRTAP	96	192	6
BXTAP	96	192	7
BXTAP	96	264	0
BRTAP	96	264	1
BXTAP	96	336	2
BRTAP	96	336	3
BRTAP	97	0	4
BXTAP	97	0	6
BXTAP	97	72	0
BRTAP	97	72	7
BRTAP	97	144	1
BXTAP	97	144	6
BXTAP	97	192	1
BRTAP	97	192	6
NMTAP	97	288	3
NMTAP	97	288	4
BRTAP	98	0	2
NMTAP	98	24	3
NMTAP	98	48	2
NMTAP	98	72	3
NMTAP	98	96	2
NMTAP	98	120	3
NMTAP	98	144	2
NMTAP	98	168	3
NMTAP	98	192	0
NMTAP	98	216	7
NMTAP	98	240	0
NMTAP	98	264	7
NMTAP	98	288	0
NMTAP	98	312	7
NMTAP	98	336	0
NMTAP	98	360	7
NMTAP	99	0	3
NMTAP	99	24	5
NMTAP	99	48	3
NMTAP	99	72	5
NMTAP	99	96	3
NMTAP	99	120	5
NMTAP	99	144	3
NMTAP	99	168	5
NMTAP	99	192	1
NMTAP	99	216	3
NMTAP	99	240	1
NMTAP	99	264	3
NMTAP	99	288	1
NMTAP	99	312	3
NMTAP	99	336	1
NMTAP	99	360	3
BRHLD	100	0	2	48
BXHLD	100	0	3	48
BXHLD	100	72	0	48
BRHLD	100	72	1	48
BXTAP	100	144	2
BRTAP	100	144	7
BXHLD	100	192	4	48
BRHLD	100	192	5	48
BRHLD	100	264	6	48
BXHLD	100	264	7	48
BRTAP	100	336	0
BXTAP	100	336	5
BXHLD	101	0	1	48
BRHLD	101	0	3	48
BRHLD	101	72	3	48
BXHLD	101	72	4	48
BRTAP	101	144	4
BXTAP	101	144	6
BRHLD	101	192	0	48
BXHLD	101	192	7	48
BXHLD	101	264	1	48
BRHLD	101	264	6	48
BRTAP	101	336	2
BXTAP	101	336	5
NMTAP	102	0	3
NMTAP	102	24	4
NMTAP	102	48	3
NMTAP	102	72	4
NMTAP	102	96	2
NMTAP	102	120	5
NMTAP	102	144	2
NMTAP	102	168	5
NMTAP	102	192	0
NMTAP	102	216	7
NMTAP	102	240	0
NMTAP	102	264	7
NMTAP	102	288	1
NMTAP	102	312	6
NMTAP	102	336	1
NMTAP	102	360	6
NMTAP	103	0	4
NMTAP	103	24	5
NMTAP	103	48	4
NMTAP	103	72	5
NMTAP	103	96	1
NMTAP	103	120	0
NMTAP	103	144	1
NMTAP	103	168	0
NMTAP	103	192	2
NMTAP	103	216	3
NMTAP	103	240	2
NMTAP	103	264	3
NMTAP	103	288	0
NMTAP	103	312	5
NMTAP	103	336	0
NMTAP	103	360	5
BRTAP	104	0	0
NMTAP	104	24	5
NMTAP	104	48	1
NMTAP	104	72	4
NMTAP	104	96	2
NMTAP	104	120	3
NMTAP	104	144	2
NMTAP	104	168	2
BRTAP	104	192	7
NMTAP	104	216	2
NMTAP	104	240	6
NMTAP	104	264	3
NMTAP	104	288	5
NMTAP	104	312	4
NMTAP	104	336	5
NMTAP	104	360	5
BRTAP	105	0	0
NMTAP	105	24	5
NMTAP	105	48	1
NMTAP	105	72	4
NMTAP	105	96	2
NMTAP	105	120	3
NMTAP	105	144	2
NMTAP	105	168	2
BRTAP	105	192	7
NMTAP	105	216	0
NMTAP	105	240	6
NMTAP	105	264	1
NMTAP	105	288	5
NMTAP	105	312	2
NMTAP	105	336	4
NMTAP	105	360	3
BRTAP	106	0	4
NMTAP	106	12	5
NMTAP	106	24	6
NMTAP	106	36	7
NMTAP	106	48	0
NMTAP	106	60	1
NMTAP	106	72	2
NMTAP	106	84	3
NMTAP	106	96	4
NMTAP	106	108	5
NMTAP	106	120	6
NMTAP	106	132	7
NMTAP	106	144	0
NMTAP	106	156	1
NMTAP	106	168	2
NMTAP	106	180	3
NMTAP	106	192	4
NMTAP	106	204	5
NMTAP	106	216	6
NMTAP	106	228	7
NMTAP	106	240	0
NMTAP	106	252	1
NMTAP	106	264	2
NMTAP	106	276	3
NMTAP	106	288	4
NMTAP	106	300	5
NMTAP	106	312	6
NMTAP	106	324	7
NMTAP	106	336	0
NMTAP	106	348	1
NMTAP	106	360	2
NMTAP	106	372	3
NMTTP	107	0	0	C	1	M1
NMTAP	107	288	3
NMTAP	107	312	4
NMTAP	107	336	3
NMTAP	107	360	4
BRSTR	108	0	3
NMSCL	108	0	3	96	36	0
NMTAP	108	96	7
NMTAP	108	108	6
NMTAP	108	120	5
NMTAP	108	132	4
NMTAP	108	144	7
NMTAP	108	156	6
NMTAP	108	168	5
NMTAP	108	180	4
BRSTR	108	192	3
NMSCL	108	192	3	96	36	0
NMTAP	108	288	7
NMTAP	108	300	6
NMTAP	108	312	5
NMTAP	108	324	4
NMTAP	108	336	7
NMTAP	108	348	6
NMTAP	108	360	5
NMTAP	108	372	4
BRSTR	109	0	3
NMSCL	109	0	3	96	36	0
NMTAP	109	96	7
NMTAP	109	108	6
NMTAP	109	120	5
NMTAP	109	132	4
NMTAP	109	144	7
NMTAP	109	156	6
NMTAP	109	168	5
NMTAP	109	180	4
BRTAP	109	192	3
NMTAP	109	288	4
NMTAP	109	312	3
NMTAP	109	336	4
NMTAP	109	360	3
BRSTR	110	0	5
NMSCR	110	0	5	96	36	0
NMTAP	110	96	1
NMTAP	110	108	2
NMTAP	110	120	3
NMTAP	110	132	4
NMTAP	110	144	1
NMTAP	110	156	2
NMTAP	110	168	3
NMTAP	110	180	4
BRSTR	110	192	5
NMSCR	110	192	5	96	36	0
NMTAP	110	288	1
NMTAP	110	300	2
NMTAP	110	312	3
NMTAP	110	324	4
NMTAP	110	336	1
NMTAP	110	348	2
NMTAP	110	360	3
NMTAP	110	372	4
BRSTR	111	0	5
NMSCR	111	0	5	96	36	0
NMTAP	111	96	1
NMTAP	111	108	2
NMTAP	111	120	3
NMTAP	111	132	4
NMTAP	111	144	1
NMTAP	111	156	2
NMTAP	111	168	3
NMTAP	111	180	4
BRTAP	111	192	5
NMTAP	111	288	0
NMTAP	111	288	6
NMTAP	112	0	2
NMTAP	112	24	4
NMTAP	112	48	2
NMTAP	112	72	4
NMTAP	112	96	2
NMTAP	112	120	4
NMTAP	112	144	2
NMTAP	112	168	4
NMTAP	112	192	2
NMTAP	112	216	4
NMTAP	112	240	2
NMTAP	112	264	4
NMTAP	112	288	2
NMTAP	112	312	4
NMTAP	112	336	2
NMTAP	112	360	4
NMTAP	113	0	3
NMTAP	113	24	5
NMTAP	113	48	3
NMTAP	113	72	5
NMTAP	113	96	3
NMTAP	113	120	5
NMTAP	113	144	3
NMTAP	113	168	5
NMTAP	113	192	3
NMTAP	113	216	5
NMTAP	113	240	3
NMTAP	113	264	5
NMTAP	113	288	3
NMTAP	113	312	5
NMTAP	113	336	3
NMTAP	113	360	5
NMTAP	114	0	2
NMTAP	114	24	6
NMTAP	114	48	2
NMTAP	114	72	6
NMTAP	114	96	2
NMTAP	114	120	6
NMTAP	114	144	2
NMTAP	114	168	6
NMTAP	114	192	2
NMTAP	114	216	6
NMTAP	114	240	2
NMTAP	114	264	6
NMTAP	114	288	2
NMTAP	114	312	6
NMTAP	114	336	2
NMTAP	114	360	6
NMTAP	115	0	1
NMTAP	115	24	7
NMTAP	115	48	1
NMTAP	115	72	7
NMTAP	115	96	1
NMTAP	115	120	7
NMTAP	115	144	1
NMTAP	115	168	7
NMTAP	115	192	1
NMTAP	115	216	7
NMTAP	115	240	1
NMTAP	115	264	7
NMTAP	115	288	1
NMTAP	115	312	7
NMTAP	115	336	1
NMTAP	115	360	7
BRTAP	116	0	0
NMTAP	116	24	0
NMTAP	116	48	0
NMTAP	116	72	0
NMTAP	116	96	0
NMTAP	116	120	0
NMTAP	116	144	0
NMTAP	116	168	0
NMTAP	116	192	0
NMTAP	116	216	0
NMTAP	116	240	0
NMTAP	116	264	0
NMTAP	116	288	0
NMTAP	116	312	0
NMTAP	116	336	0
NMTAP	116	360	0
NMTAP	117	0	0
NMTAP	117	24	0
NMTAP	117	48	0
NMTAP	117	72	0
NMTAP	117	96	0
NMTAP	117	120	0
NMTAP	117	144	0
NMTAP	117	168	0
NMTAP	117	192	0
NMTAP	117	216	0
NMTAP	117	240	0
NMTAP	117	264	0
NMSTR	117	288	0
BRSI_	117	288	0	96	768	4
NMTAP	117	312	0
NMTAP	117	336	0
NMTAP	117	360	0
BRHLD	118	0	0	768

T_REC_TAP	731
T_REC_BRK	42
T_REC_XTP	15
T_REC_BXX	30
T_REC_HLD	45
T_REC_XHO	1
T_REC_BHO	11
T_REC_BXH	18
T_REC_STR	36
T_REC_BST	11
T_REC_XST	0
T_REC_XBS	1
T_REC_TTP	140
T_REC_THO	0
T_REC_SLD	47
T_REC_BSL	1
T_REC_ALL	1129
T_NUM_TAP	922
T_NUM_BRK	114
T_NUM_HLD	46
T_NUM_SLD	47
T_NUM_ALL	1129
T_JUDGE_TAP	1006
T_JUDGE_HLD	228
T_JUDGE_SLD	48
T_JUDGE_ALL	1282
TTM_EACHPAIRS	101
TTM_SCR_TAP	461000
TTM_SCR_BRK	296400
TTM_SCR_HLD	46000
TTM_SCR_SLD	70500
TTM_SCR_ALL	873900
TTM_SCR_S	836650
TTM_SCR_SS	862500
TTM_RAT_ACV	10132

