VERSION	0.00.00	1.04.00
FES_MODE	0
BPM_DEF	208.000	208.000	208.000	208.000
MET_DEF	4	4
RESOLUTION	384
CLK_DEF	576
COMPATIBLE_CODE	MA2

BPM	0	0	208.000
MET	0	0	4	3
MET	33	0	4	4

NMTTP	3	0	1	D	0	M1
NMTTP	3	96	2	D	0	M1
NMTTP	3	192	3	D	0	M1
NMTTP	3	288	1	E	0	M1
NMTTP	4	0	2	E	0	M1
NMTTP	4	96	3	E	0	M1
NMTTP	4	192	1	B	0	M1
NMTTP	4	288	2	B	0	M1
NMTTP	5	0	3	B	0	M1
NMTTP	5	96	4	B	0	M1
NMTTP	5	192	5	B	0	M1
NMTTP	5	288	6	B	0	M1
NMTTP	6	0	5	E	0	M1
NMTTP	6	96	6	E	0	M1
NMTTP	6	192	7	E	0	M1
NMTTP	6	288	5	D	0	M1
NMTTP	7	0	6	D	0	M1
NMTTP	7	96	7	D	0	M1
NMTTP	7	192	0	E	0	M1
NMTTP	7	288	0	C	0	M1
NMTTP	8	0	4	E	0	M1
NMTAP	8	192	2
NMTAP	8	288	4
NMHLD	9	0	6	96
NMHLD	9	96	4	288
NMTAP	10	0	5
NMTAP	10	96	3
NMHLD	10	192	1	96
NMHLD	10	288	3	288
NMTAP	11	192	2
NMTAP	11	288	4
NMHLD	12	0	6	192
NMTAP	12	192	4
NMHLD	12	288	4	192
NMTAP	13	96	3
NMHLD	13	192	3	144
NMTAP	13	336	1
NMSTR	14	0	1
NMSCR	14	0	1	96	192	6
NMSUR	14	0	1	96	192	6
NMTAP	15	0	0
NMTAP	15	0	7
NMTAP	15	96	1
NMTAP	15	192	2
NMTAP	15	288	1
NMTAP	15	288	3
NMTAP	16	0	2
NMTAP	16	96	3
NMTAP	16	192	3
NMTAP	16	192	4
NMTAP	16	288	4
NMTAP	17	0	5
NMHLD	17	96	4	192
NMTAP	17	96	6
NMTAP	17	192	5
NMTAP	17	288	5
NMTAP	18	0	2
NMHLD	18	0	3	192
NMTAP	18	96	2
NMTAP	18	192	0
NMTAP	18	288	1
NMTAP	18	288	7
NMTAP	19	0	2
NMTAP	19	0	6
NMTAP	19	96	3
NMTAP	19	96	5
NMSTR	19	192	4
NMSCR	19	192	4	96	240	3
NMTAP	20	192	0
NMTAP	20	288	1
NMTAP	21	0	2
NMTAP	21	0	3
NMTAP	21	96	4
NMTAP	21	192	3
NMTAP	21	288	4
NMTAP	21	288	5
NMTAP	22	0	3
NMTAP	22	96	4
NMTAP	22	192	1
NMTAP	22	192	3
NMTAP	22	288	4
NMTAP	23	0	3
NMTAP	23	96	4
NMTAP	23	96	6
NMTAP	23	192	3
NMTAP	23	192	5
NMTAP	23	288	2
NMTAP	23	288	4
NMHLD	24	0	1	96
NMTAP	24	0	3
NMTAP	24	96	0
NMTAP	24	192	1
NMTAP	24	192	7
NMTAP	24	288	4
NMHLD	24	288	6	96
NMTAP	25	0	7
NMTAP	25	96	0
NMTAP	25	96	6
NMTAP	25	192	1
NMTAP	25	192	3
NMTAP	25	288	4
NMTAP	25	288	6
NMSTR	26	0	0
BRSI_	26	0	0	96	48	4
NMSTR	26	0	7
BRSI_	26	0	7	96	48	3
NMTAP	27	0	1
NMHLD	27	0	3	96
NMTAP	27	96	2
NMTAP	27	192	3
NMHLD	27	288	4	96
NMTAP	27	288	6
NMTAP	28	0	5
NMTAP	28	96	4
NMHLD	28	192	3	96
NMTAP	28	288	4
NMTAP	29	0	3
NMTAP	29	0	4
NMTAP	29	96	2
NMTAP	29	192	3
NMTAP	29	288	4
NMTAP	30	0	5
NMTAP	30	96	4
NMTAP	30	96	6
NMHLD	30	144	4	144
NMTAP	30	144	6
NMTAP	30	288	3
NMTAP	31	0	1
NMTAP	31	0	3
NMTAP	31	48	1
NMHLD	31	48	3	144
NMTAP	31	192	4
NMTAP	31	288	3
NMTAP	31	288	5
NMSTR	32	0	2
NMSXR	32	0	2	96	192	3
NMSTR	32	0	6
NMSXR	32	0	6	96	192	7
BRTAP	33	0	1
BRHLD	33	0	5	1488
NMTAP	33	48	1
NMTAP	33	96	1
NMTAP	33	144	1
NMTAP	33	192	1
NMTAP	33	240	1
NMTAP	33	288	1
NMTAP	33	336	1
NMTAP	34	0	2
NMTAP	34	48	2
NMTAP	34	96	2
NMTAP	34	144	2
NMTAP	34	192	2
NMTAP	34	240	2
NMTAP	34	288	2
NMTAP	34	336	2
NMTAP	35	0	3
NMTAP	35	48	3
NMTAP	35	96	3
NMTAP	35	144	3
NMTAP	35	192	3
NMTAP	35	240	3
NMTAP	35	288	3
NMTAP	35	336	3
NMTAP	36	0	4
NMTAP	36	48	4
NMTAP	36	96	4
NMTAP	36	144	4
NMTAP	36	192	4
NMTAP	36	240	4
NMTAP	36	288	4
NMTAP	36	336	4
BRHLD	37	0	2	1488
BRTAP	37	0	6
NMTAP	37	48	6
NMTAP	37	96	6
NMTAP	37	144	6
NMTAP	37	192	6
NMTAP	37	240	6
NMTAP	37	288	6
NMTAP	37	336	6
NMTAP	38	0	5
NMTAP	38	48	5
NMTAP	38	96	5
NMTAP	38	144	5
NMTAP	38	192	5
NMTAP	38	240	5
NMTAP	38	288	5
NMTAP	38	336	5
NMTAP	39	0	4
NMTAP	39	48	4
NMTAP	39	96	4
NMTAP	39	144	4
NMTAP	39	192	4
NMTAP	39	240	4
NMTAP	39	288	4
NMTAP	39	336	4
NMTAP	40	0	3
NMTAP	40	48	3
NMTAP	40	96	3
NMTAP	40	144	3
NMTAP	40	192	3
NMTAP	40	240	3
NMTAP	40	288	3
NMTAP	40	336	3
EXTAP	41	0	1
EXTAP	41	0	5
NMSTR	41	96	4
NMSCL	41	96	4	96	192	6
NMTAP	41	96	6
NMTAP	41	144	4
NMTAP	41	144	6
NMTAP	42	96	4
NMTAP	42	96	5
NMTAP	42	192	6
NMTAP	42	192	7
NMTAP	42	288	0
NMTAP	42	288	1
NMTAP	43	0	2
NMTAP	43	0	3
NMTAP	43	96	1
NMTAP	43	96	4
NMTAP	43	144	1
NMTAP	43	144	4
NMTAP	43	240	3
NMTAP	43	240	6
NMTAP	43	288	3
NMSTR	43	288	6
NMSUL	43	288	6	96	96	2
NMTAP	44	0	0
NMHLD	44	96	1	96
NMHLD	44	192	2	96
NMSTR	44	288	3
NMSCL	44	288	3	96	96	0
NMTAP	45	0	4
NMTAP	45	96	6
NMHLD	45	144	6	96
NMTAP	45	240	7
NMHLD	45	288	7	96
NMTAP	46	0	5
NMTAP	46	96	0
NMTAP	46	96	6
NMTAP	46	192	1
NMTAP	46	192	7
NMSTR	46	288	0
NMSCL	46	288	0	96	192	2
NMTAP	46	288	2
NMSTR	47	240	1
NMSI_	47	240	1	96	48	5
NMTAP	47	288	1
NMTAP	47	336	7
NMTAP	48	96	2
NMTAP	48	96	6
NMTAP	48	192	0
NMTAP	48	216	1
NMTAP	48	240	2
NMTAP	48	264	3
NMTAP	48	288	7
NMTAP	48	312	6
NMTAP	48	336	5
NMTAP	48	360	4
NMSTR	49	0	1
NMSCR	49	0	1	96	72	4
NMTAP	49	96	5
NMTAP	49	144	5
NMTAP	49	240	6
NMTAP	49	288	4
NMTAP	49	336	5
NMSTR	50	0	6
NMSCL	50	0	6	96	72	3
NMTAP	50	96	0
NMTAP	50	144	0
NMTAP	50	240	2
NMTAP	50	288	3
NMTAP	50	336	1
NMTAP	51	0	5
NMTAP	51	48	4
NMTAP	51	96	6
NMHLD	51	144	3	96
NMTAP	51	240	4
NMSTR	51	288	3
NMSCL	51	288	3	96	96	0
NMSTR	51	288	4
NMSCR	51	288	4	96	96	7
NMTAP	52	192	1
NMTAP	52	192	6
NMTAP	52	288	3
NMTAP	52	288	4
NMTAP	53	0	1
NMTAP	53	48	1
NMTAP	53	96	0
NMTAP	53	144	0
NMTAP	53	192	2
NMTAP	53	240	2
NMTAP	53	288	4
NMTAP	53	336	4
NMTAP	54	0	3
NMTAP	54	48	3
NMTAP	54	96	5
NMTAP	54	144	5
NMTAP	54	192	7
NMTAP	54	240	7
NMTAP	54	288	6
NMTAP	54	336	6
NMTAP	55	0	0
EXTAP	55	0	7
NMTAP	55	48	0
NMTAP	55	96	6
EXTAP	55	96	7
NMTAP	55	144	6
EXTAP	55	192	0
NMTAP	55	192	1
NMTAP	55	240	1
EXTAP	55	288	0
NMTAP	55	288	7
NMTAP	55	336	7
BRTAP	56	0	1
BRTAP	56	0	6
NMSTR	57	0	0
NMSCR	57	0	0	96	96	5
NMTAP	57	0	7
NMTAP	57	144	6
NMSTR	57	192	6
NMSI_	57	192	6	96	48	2
NMTAP	57	288	0
NMTAP	58	0	1
NMSTR	58	0	7
NMSCL	58	0	7	96	96	2
NMTAP	58	144	1
NMSTR	58	192	1
NMSI_	58	192	1	96	48	5
NMTAP	58	288	7
NMSTR	59	0	0
NMSCR	59	0	0	96	96	5
NMTAP	59	0	6
NMTAP	59	144	7
NMHLD	59	192	7	72
NMHLD	59	264	6	72
NMTAP	59	336	5
NMHLD	60	0	1	72
NMHLD	60	72	2	72
NMTAP	60	144	3
NMSTR	60	192	3
NMSI_	60	192	3	96	48	1
NMSI_	60	192	3	96	48	7
NMTAP	61	0	0
NMTAP	61	48	0
NMSTR	61	96	6
NMSI_	61	96	6	96	48	3
NMTAP	61	144	6
NMTAP	61	192	2
NMTAP	61	288	0
NMTAP	61	288	1
NMTAP	62	0	7
NMTAP	62	48	7
NMSTR	62	96	1
NMSI_	62	96	1	96	48	4
NMTAP	62	144	1
NMTAP	62	192	5
NMTAP	62	288	6
NMTAP	62	288	7
NMHLD	63	0	0	96
NMTAP	63	96	7
NMTAP	63	192	2
NMTAP	63	192	3
NMTAP	63	264	2
NMTAP	63	264	3
NMTAP	63	336	0
NMTAP	63	336	6
NMTAP	64	0	4
NMTAP	64	0	5
NMTAP	64	72	4
NMTAP	64	72	5
NMTAP	64	144	1
NMTAP	64	144	7
NMSTR	64	192	1
BRSI_	64	192	1	96	48	5
NMTAP	64	192	7
NMTAP	65	0	6
NMTAP	65	48	6
NMTAP	65	96	4
NMTAP	65	144	5
NMTAP	65	192	2
NMTAP	65	240	3
NMTAP	65	288	0
NMTAP	65	288	1
NMTAP	66	0	1
NMTAP	66	48	1
NMTAP	66	96	3
NMTAP	66	144	2
NMTAP	66	192	5
NMTAP	66	240	4
NMTAP	66	288	6
NMTAP	66	288	7
NMTAP	67	0	0
NMTAP	67	48	0
NMTAP	67	96	7
NMTAP	67	144	7
NMHLD	67	192	1	72
NMHLD	67	264	2	72
NMTAP	67	336	3
NMHLD	68	0	7	72
NMHLD	68	72	6	72
NMTAP	68	144	5
NMHLD	68	192	3	72
NMHLD	68	264	2	72
NMTAP	68	336	1
NMTAP	69	0	0
NMSTR	69	0	1
NMSCR	69	0	1	96	48	4
NMTAP	69	96	5
NMSTR	69	192	6
NMSCL	69	192	6	96	48	3
NMTAP	69	192	7
NMTAP	69	288	2
NMHLD	70	0	0	96
NMTAP	70	96	7
NMSTR	70	144	0
NMSCR	70	144	0	96	72	3
NMSTR	70	144	7
NMSCL	70	144	7	96	72	4
NMHLD	71	0	0	72
NMHLD	71	72	1	72
NMTAP	71	144	2
NMHLD	71	192	4	72
NMHLD	71	264	5	72
NMTAP	71	336	6
NMSTR	72	0	6
NMSI_	72	0	6	96	48	4
NMSTR	72	96	0
NMSI_	72	96	0	96	48	2
NMSTR	72	192	7
NMSI_	72	192	7	96	48	3
NMSTR	72	288	0
NMSCR	72	288	0	96	1440	7
NMTHO	73	0	0	144	C	1	M1
NMTHO	74	0	0	144	C	1	M1
NMTHO	75	0	0	144	C	1	M1
NMTHO	76	0	0	144	C	1	M1
NMHLD	77	0	0	72
NMHLD	77	72	7	72
NMTAP	77	144	0
NMSTR	77	192	1
NMSI_	77	192	1	96	48	5
NMTAP	77	192	6
NMHLD	78	0	6	72
NMTAP	78	72	7
NMTAP	78	144	0
NMTAP	78	144	5
NMHLD	78	192	1	72
NMTAP	78	264	0
NMTAP	78	336	2
NMTAP	78	336	7
NMHLD	79	0	6	72
NMTAP	79	72	1
NMTAP	79	144	3
NMTAP	79	144	4
NMSTR	79	192	3
NMSCL	79	192	3	96	48	0
NMSTR	79	192	4
NMSCR	79	192	4	96	48	7
NMTTP	80	0	0	B	0	M1
NMTTP	80	0	0	C	1	M1
NMTTP	80	0	0	E	0	M1
NMTTP	80	0	4	B	0	M1
NMTTP	80	0	4	E	0	M1
NMHLD	81	0	2	192
NMHLD	81	0	3	144
NMHLD	82	0	4	144
NMHLD	82	0	5	192
NMHLD	83	0	3	192
NMHLD	83	0	4	144
NMTAP	83	288	3
NMTAP	83	288	4
NMTAP	84	0	2
NMTAP	84	96	3
NMTAP	84	192	4
NMTAP	84	288	5
NMHLD	85	0	6	192
NMHLD	85	0	7	144
NMTAP	85	288	7
NMHLD	86	0	0	144
NMHLD	86	0	1	192
NMTAP	86	288	0
NMHLD	87	0	7	192
NMTAP	87	192	0
NMTAP	87	288	7
NMTAP	88	0	6
NMSTR	88	96	5
NMSCL	88	96	5	96	192	2
NMTHO	89	0	0	192	C	0	M1
BRTAP	90	0	0
BRTAP	90	0	7
NMTAP	90	144	1
NMTAP	90	144	3
NMTAP	90	192	1
NMTAP	90	192	3
NMTAP	90	264	4
NMTAP	90	264	5
NMTAP	90	336	1
NMTAP	90	336	7
BRTAP	91	0	1
BRTAP	91	0	7
NMTAP	91	144	4
NMTAP	91	144	6
NMTAP	91	192	4
NMTAP	91	192	6
NMTAP	91	264	2
NMTAP	91	264	3
NMTAP	91	336	0
NMTAP	91	336	6
BRTAP	92	0	0
BRTAP	92	0	6
NMTAP	92	144	0
NMTAP	92	144	1
NMTAP	92	192	0
NMHLD	92	192	1	72
NMTAP	92	264	3
NMTAP	92	336	6
NMTAP	92	336	7
NMHLD	93	0	6	72
NMTAP	93	0	7
NMTAP	93	72	4
NMTAP	93	144	0
NMTAP	93	144	1
NMTAP	93	192	0
NMSTR	93	192	1
NMSI_	93	192	1	96	48	5
BRTAP	93	288	7
NMSTR	94	0	6
NMSI_	94	0	6	96	48	3
NMTAP	94	48	6
NMTAP	94	96	2
NMTAP	94	144	2
NMTAP	94	192	1
NMTAP	94	240	0
NMTAP	94	288	2
NMTAP	94	288	7
NMSTR	95	0	1
NMSI_	95	0	1	96	48	4
NMTAP	95	48	1
NMTAP	95	96	5
NMTAP	95	144	5
NMTAP	95	192	6
NMTAP	95	240	7
NMSTR	95	288	0
NMSCR	95	288	0	96	72	3
NMSTR	95	288	5
NMSCR	95	288	5	96	72	0
NMTAP	96	192	4
EXHLD	96	192	6	72
NMTAP	96	264	7
NMTAP	96	336	3
NMTAP	96	336	4
EXHLD	97	0	1	72
NMTAP	97	0	3
NMTAP	97	72	0
NMTAP	97	144	3
NMTAP	97	144	4
BRTAP	97	192	1
BRTAP	97	192	6
NMSTR	98	0	0
NMSI_	98	0	0	96	48	4
NMTAP	98	48	0
NMSTR	98	96	7
NMSI_	98	96	7	96	48	5
NMTAP	98	144	7
NMSTR	98	192	1
NMSI_	98	192	1	96	48	3
NMTAP	98	240	1
NMSTR	98	288	6
NMSI_	98	288	6	96	48	4
NMTAP	98	336	6
NMSTR	99	0	0
NMSI_	99	0	0	96	48	2
NMTAP	99	48	0
NMSTR	99	96	7
NMSI_	99	96	7	96	48	3
NMTAP	99	144	7
NMSTR	99	192	1
NMSI_	99	192	1	96	48	5
NMTAP	99	240	1
NMTAP	99	288	6
NMTAP	99	336	6
NMTAP	100	0	0
EXTAP	100	0	7
NMHLD	100	72	2	72
NMTAP	100	144	3
NMTAP	100	192	4
EXTAP	100	192	5
NMHLD	100	264	7	72
NMTAP	100	336	0
NMTAP	101	0	1
EXTAP	101	0	3
NMHLD	101	72	6	72
NMTAP	101	144	4
EXTAP	101	192	0
NMTAP	101	192	7
NMHLD	101	264	1	72
NMTAP	101	336	3
EXTAP	102	0	4
EXSTR	102	0	6
NMSI_	102	0	6	96	48	2
NMTAP	102	144	1
NMHLD	102	192	1	72
NMHLD	102	264	3	72
NMTAP	102	336	2
EXSTR	103	0	1
NMSI_	103	0	1	96	48	5
EXTAP	103	0	4
NMTAP	103	144	6
NMHLD	103	192	6	72
NMHLD	103	264	4	72
NMTAP	103	336	5
NMHLD	104	0	6	48
EXHLD	104	0	7	48
EXHLD	104	72	0	48
NMHLD	104	72	5	48
EXTAP	104	144	1
NMTAP	104	144	4
NMTAP	104	192	2
NMTAP	104	240	2
NMTAP	104	288	3
NMTAP	104	336	2
EXHLD	105	0	0	48
NMHLD	105	0	1	48
NMHLD	105	72	2	48
EXHLD	105	72	7	48
NMTAP	105	144	3
EXTAP	105	144	6
NMTAP	105	192	5
NMTAP	105	240	5
NMTAP	105	288	4
NMTAP	105	336	5
BRHLD	106	0	6	48
BRHLD	106	0	7	48
BRHLD	106	72	4	48
BRHLD	106	72	5	48
BRTAP	106	144	2
BRTAP	106	144	3
BRHLD	106	192	0	48
BRHLD	106	192	1	48
BRHLD	106	264	2	48
BRHLD	106	264	3	48
BRTAP	106	336	4
BRTAP	106	336	5
BXTAP	107	0	0
BXTAP	107	0	7
NMTAP	107	288	2
NMTAP	107	312	3
NMTAP	107	336	2
NMTAP	107	360	3
BRTAP	108	0	1
NMTAP	108	96	5
NMTAP	108	120	4
NMTAP	108	144	5
NMTAP	108	168	4
BRTAP	108	192	6
NMTAP	108	288	2
NMTAP	108	312	3
NMTAP	108	336	2
NMTAP	108	360	3
BRTAP	109	0	0
NMTAP	109	96	5
NMTAP	109	120	4
NMTAP	109	144	5
NMTAP	109	168	4
BRTAP	109	192	7
NMTAP	109	240	7
NMTAP	109	288	0
NMTAP	109	336	0
BRTAP	110	0	0
BRTAP	110	0	7
NMTAP	110	96	1
NMTAP	110	120	0
NMTAP	110	144	1
NMTAP	110	168	0
BRTAP	110	192	2
NMTAP	110	288	6
NMTAP	110	312	7
NMTAP	110	336	6
NMTAP	110	360	7
BRTAP	111	0	5
NMTAP	111	96	0
NMTAP	111	120	7
NMTAP	111	144	0
NMTAP	111	168	7
BXTAP	111	192	1
BXTAP	111	192	6
EXTAP	111	240	1
EXTAP	111	240	6
EXSTR	111	288	1
NMSXR	111	288	1	96	1344	4
EXSTR	111	288	6
NMSXL	111	288	6	96	1344	3
EXTAP	111	336	1
EXTAP	111	336	6
EXTAP	112	0	1
EXTAP	112	0	6
CNSCL	115	192	3	0	96	0
CNSCR	115	192	4	0	96	7
NMTTP	116	0	0	B	0	M1
NMTTP	116	24	1	B	0	M1
NMTTP	116	48	2	B	0	M1
NMTTP	116	72	3	B	0	M1
NMTTP	116	96	4	B	0	M1
NMTTP	116	120	5	B	0	M1
NMTTP	116	144	6	B	0	M1
NMTTP	116	168	7	B	0	M1
NMTTP	116	192	0	E	0	M1
NMTTP	116	216	1	E	0	M1
NMTTP	116	240	2	E	0	M1
NMTTP	116	264	3	E	0	M1
NMTTP	116	288	4	E	0	M1
NMTTP	116	312	5	E	0	M1
NMTTP	116	336	6	E	0	M1
NMTTP	116	360	7	E	0	M1
NMTTP	117	0	0	D	0	M1
NMTTP	117	24	1	D	0	M1
NMTTP	117	48	2	D	0	M1
NMTTP	117	72	3	D	0	M1
NMTTP	117	96	4	D	0	M1
NMTTP	117	120	5	D	0	M1
NMTTP	117	144	6	D	0	M1
NMTTP	117	168	7	D	0	M1
NMTAP	117	192	0
NMTAP	117	216	1
NMTAP	117	240	2
NMTAP	117	264	3
NMTAP	117	288	4
NMTAP	117	312	5
NMTAP	117	336	6
NMTAP	117	360	7
NMTTP	118	0	0	B	0	M1
NMTTP	118	0	0	C	1	M1
NMTTP	118	0	0	A	0	M1
NMTTP	118	0	4	B	0	M1
NMTTP	118	0	4	A	0	M1

T_REC_TAP	441
T_REC_BRK	25
T_REC_XTP	20
T_REC_HLD	77
T_REC_XHO	6
T_REC_STR	48
T_REC_BST	0
T_REC_XST	4
T_REC_TTP	55
T_REC_THO	5
T_REC_SLD	54
T_REC_ALL	735
T_NUM_TAP	568
T_NUM_BRK	25
T_NUM_HLD	88
T_NUM_SLD	54
T_NUM_ALL	735
T_JUDGE_TAP	593
T_JUDGE_HLD	260
T_JUDGE_SLD	54
T_JUDGE_ALL	907
TTM_EACHPAIRS	132
TTM_SCR_TAP	284000
TTM_SCR_BRK	65000
TTM_SCR_HLD	88000
TTM_SCR_SLD	81000
TTM_SCR_ALL	518000
TTM_SCR_S	500050
TTM_SCR_SS	515500
TTM_RAT_ACV	10048

