VERSION	0.00.00	1.04.00
FES_MODE	0
BPM_DEF	208.000	208.000	208.000	208.000
MET_DEF	4	4
RESOLUTION	384
CLK_DEF	576
COMPATIBLE_CODE	MA2

BPM	0	0	208.000
MET	0	0	4	3
MET	33	0	4	4

NMHLD	3	0	1	288
NMHLD	4	192	2	288
NMHLD	6	0	3	288
NMHLD	7	192	4	288
NMHLD	9	0	5	288
NMHLD	10	192	6	288
NMTAP	12	0	4
NMTAP	12	0	5
NMTAP	12	192	4
NMTAP	12	288	4
NMTAP	13	96	3
NMTAP	13	192	3
NMTAP	14	0	2
EXTAP	14	96	2
EXTAP	14	96	3
NMTAP	15	0	1
NMTAP	15	96	1
NMTAP	15	192	1
NMTAP	15	288	0
NMTAP	15	288	1
NMTAP	16	192	2
NMTAP	16	288	2
NMTAP	17	0	2
NMTAP	17	96	2
NMTAP	17	96	3
NMTAP	18	0	4
NMTAP	18	96	4
NMTAP	18	192	4
NMTAP	18	288	3
NMTAP	18	288	4
NMTAP	19	192	5
NMTAP	19	288	5
NMTAP	20	0	5
NMTAP	20	96	4
NMTAP	20	96	5
NMTAP	21	0	6
NMTAP	21	96	6
NMTAP	21	192	6
NMTAP	21	288	6
NMTAP	21	288	7
NMTAP	22	192	5
NMTAP	22	288	5
NMTAP	23	0	5
NMTAP	23	96	4
NMTAP	23	96	5
NMTAP	24	0	3
NMTAP	24	96	3
NMTAP	24	192	3
NMTAP	24	288	3
NMTAP	24	288	4
NMTAP	25	192	2
NMTAP	25	192	3
NMTAP	25	288	2
NMTAP	25	288	3
NMTAP	26	0	2
NMTAP	26	0	3
BRTAP	26	96	2
BRTAP	26	96	3
NMTTP	27	0	0	B	0	L1
NMTTP	27	96	1	B	0	L1
NMTTP	27	192	2	B	0	L1
NMTTP	27	288	3	B	0	L1
NMTTP	28	192	7	B	0	L1
NMTTP	28	288	6	B	0	L1
NMTTP	29	0	5	B	0	L1
NMTTP	29	96	4	B	0	L1
NMTTP	30	0	0	B	0	L1
NMTTP	30	96	1	B	0	L1
NMTTP	30	192	2	B	0	L1
NMTTP	30	288	3	B	0	L1
NMTTP	31	192	7	B	0	L1
NMTTP	31	288	6	B	0	L1
NMTTP	32	0	5	B	0	L1
NMTTP	32	96	4	B	0	L1
NMTAP	33	0	3
NMTAP	33	96	3
NMTAP	33	192	3
NMTAP	33	288	3
NMTAP	34	0	2
NMTAP	34	96	2
NMTAP	34	192	2
NMTAP	34	288	2
NMTAP	35	0	1
NMTAP	35	96	1
NMTAP	35	192	1
NMTAP	35	288	1
NMTAP	36	0	0
NMTAP	36	96	0
NMTAP	36	192	0
NMTAP	36	192	7
NMTAP	37	0	7
NMTAP	37	96	7
NMTAP	37	192	7
NMTAP	37	288	7
NMTAP	38	0	6
NMTAP	38	96	6
NMTAP	38	192	6
NMTAP	38	288	6
NMTAP	39	0	5
NMTAP	39	96	5
NMTAP	39	192	5
NMTAP	39	288	5
NMTAP	40	0	4
NMTAP	40	96	4
NMTAP	40	192	3
NMTAP	40	192	4
NMTAP	41	0	5
NMTAP	41	96	5
NMTAP	41	192	6
NMTAP	41	288	6
NMTAP	42	0	7
NMTAP	42	96	7
NMTAP	42	192	0
NMTAP	42	192	1
NMTAP	43	0	2
NMTAP	43	96	2
NMTAP	43	192	1
NMTAP	43	288	1
NMTAP	44	0	0
NMTAP	44	96	0
NMTAP	44	192	6
NMTAP	44	192	7
NMTAP	45	0	5
NMTAP	45	96	5
NMTAP	45	192	6
NMTAP	45	288	6
NMTAP	46	0	7
NMTAP	46	96	7
NMTAP	46	192	0
NMTAP	46	192	1
NMTAP	47	0	2
NMTAP	47	96	2
NMTAP	47	192	1
NMTAP	47	288	1
NMTAP	48	0	0
NMTAP	48	96	0
NMTAP	48	192	6
NMTAP	48	192	7
NMTAP	49	0	5
NMTAP	49	96	5
NMTAP	49	192	4
NMTAP	49	192	5
NMTAP	49	288	4
NMTAP	49	288	5
NMTAP	50	0	6
NMTAP	50	96	6
NMTAP	50	192	6
NMTAP	50	192	7
NMTAP	50	288	6
NMTAP	50	288	7
NMTAP	51	0	0
NMTAP	51	96	0
NMTAP	51	192	0
NMTAP	51	192	1
NMTAP	51	288	0
NMTAP	51	288	1
NMTAP	52	0	2
NMTAP	52	96	2
NMTAP	52	192	2
NMTAP	52	192	3
NMTAP	52	288	2
NMTAP	52	288	3
NMHLD	53	0	3	384
NMHLD	53	0	4	384
NMTHO	55	0	0	384	C	1	L1
NMSTR	57	0	0
NMSI_	57	0	0	96	144	5
NMSTR	57	0	1
NMSI_	57	0	1	96	144	4
NMSTR	58	0	6
NMSI_	58	0	6	96	144	3
NMSTR	58	0	7
NMSI_	58	0	7	96	144	2
NMSTR	59	0	0
NMSI_	59	0	0	96	144	5
NMSTR	59	0	1
NMSI_	59	0	1	96	144	4
NMTAP	60	0	6
NMTAP	60	0	7
NMTAP	60	96	6
NMTAP	60	96	7
NMTAP	60	192	0
NMTAP	60	192	5
NMTAP	61	0	6
NMTAP	61	0	7
NMTAP	61	96	6
NMTAP	61	96	7
NMTAP	61	192	5
NMTAP	61	288	5
NMTAP	62	0	3
NMTAP	62	0	4
NMTAP	62	96	3
NMTAP	62	96	4
NMTAP	62	192	2
NMTAP	62	288	2
NMTAP	63	0	0
NMTAP	63	0	1
NMTAP	63	96	0
NMTAP	63	96	1
NMTAP	63	192	2
NMTAP	63	288	2
NMTAP	64	0	3
NMTAP	64	0	4
NMTAP	64	96	3
NMTAP	64	96	4
NMTAP	64	192	5
NMTAP	64	288	5
NMSTR	65	0	6
NMSI_	65	0	6	96	144	3
NMSTR	65	0	7
NMSI_	65	0	7	96	144	2
NMSTR	66	0	0
NMSI_	66	0	0	96	144	5
NMSTR	66	0	1
NMSI_	66	0	1	96	144	4
NMSTR	67	0	6
NMSI_	67	0	6	96	144	3
NMSTR	67	0	7
NMSI_	67	0	7	96	144	2
NMTAP	68	0	0
NMTAP	68	0	1
NMTAP	68	96	0
NMTAP	68	96	1
NMTAP	68	192	2
NMTAP	68	192	7
NMTAP	69	0	0
NMTAP	69	0	1
NMTAP	69	96	0
NMTAP	69	96	1
NMTAP	69	192	2
NMTAP	69	288	2
NMTAP	70	0	3
NMTAP	70	0	4
NMTAP	70	96	3
NMTAP	70	96	4
NMTAP	70	192	5
NMTAP	70	288	5
NMTAP	71	0	6
NMTAP	71	0	7
NMTAP	71	96	6
NMTAP	71	96	7
NMTAP	71	192	5
NMTAP	71	288	5
NMTAP	72	0	3
NMTAP	72	0	4
NMTAP	72	96	3
NMTAP	72	96	4
NMTAP	72	192	2
NMTAP	72	288	2
NMHLD	73	0	1	192
NMTAP	73	192	0
NMHLD	74	0	6	192
NMTAP	74	192	7
NMHLD	75	0	1	192
NMTAP	75	192	0
NMHLD	76	0	6	192
NMTAP	76	192	7
NMTAP	77	0	4
NMTAP	77	0	5
NMTAP	77	96	4
NMTAP	77	96	5
NMTAP	77	192	4
NMTAP	77	192	5
NMTAP	78	0	3
NMTAP	78	0	4
NMTAP	78	96	3
NMTAP	78	96	4
NMTAP	78	192	3
NMTAP	78	192	4
NMTAP	79	0	2
NMTAP	79	0	3
NMTAP	79	96	2
NMTAP	79	96	3
NMTAP	79	192	2
NMTAP	79	192	3
NMTTP	80	0	0	C	1	L1
NMSTR	81	0	1
NMSI_	81	0	1	96	144	5
NMSTR	82	0	6
NMSI_	82	0	6	96	144	2
NMSTR	83	0	0
NMSI_	83	0	0	96	144	4
NMTAP	84	0	5
NMTAP	84	96	5
NMTAP	84	192	4
NMTAP	84	192	5
NMSTR	85	0	6
NMSI_	85	0	6	96	144	2
NMSTR	86	0	1
NMSI_	86	0	1	96	144	5
NMSTR	87	0	7
NMSI_	87	0	7	96	144	3
NMTAP	88	0	2
NMTAP	88	96	2
NMHLD	88	192	2	384
NMHLD	88	192	3	384
NMSTR	90	0	0
NMSCL	90	0	0	96	168	5
NMSTR	90	0	1
NMSCR	90	0	1	96	168	4
NMSTR	91	0	6
NMSCL	91	0	6	96	168	3
NMSTR	91	0	7
NMSCR	91	0	7	96	168	2
NMSTR	92	0	0
NMSCL	92	0	0	96	168	5
NMSTR	92	0	1
NMSCR	92	0	1	96	168	4
NMTAP	93	0	6
NMTAP	93	0	7
NMTAP	93	96	6
NMTAP	93	96	7
NMTAP	93	192	0
NMTAP	93	192	5
NMTAP	94	0	6
NMTAP	94	0	7
NMTAP	94	96	6
NMTAP	94	96	7
NMTAP	94	192	5
NMTAP	94	240	5
NMTAP	94	288	5
NMTAP	95	0	3
NMTAP	95	0	4
NMTAP	95	96	3
NMTAP	95	96	4
NMTAP	95	192	2
NMTAP	95	240	2
NMTAP	95	288	2
NMTAP	96	0	0
NMTAP	96	0	1
NMTAP	96	96	0
NMTAP	96	96	1
NMTAP	96	192	2
NMTAP	96	240	2
NMTAP	96	288	2
NMTAP	97	0	3
NMTAP	97	0	4
NMTAP	97	96	3
NMTAP	97	96	4
NMTAP	97	192	5
NMTAP	97	288	5
NMSTR	98	0	6
NMSCL	98	0	6	96	168	3
NMSTR	98	0	7
NMSCR	98	0	7	96	168	2
NMSTR	99	0	0
NMSCL	99	0	0	96	168	5
NMSTR	99	0	1
NMSCR	99	0	1	96	168	4
NMSTR	100	0	6
NMSCL	100	0	6	96	168	3
NMSTR	100	0	7
NMSCR	100	0	7	96	168	2
NMTAP	101	0	0
NMTAP	101	0	1
NMTAP	101	96	0
NMTAP	101	96	1
NMTAP	101	192	2
NMTAP	101	192	7
NMTAP	102	0	0
NMTAP	102	0	1
NMTAP	102	96	0
NMTAP	102	96	1
NMTAP	102	192	2
NMTAP	102	240	2
NMTAP	102	288	2
NMTAP	103	0	3
NMTAP	103	0	4
NMTAP	103	96	3
NMTAP	103	96	4
NMTAP	103	192	5
NMTAP	103	240	5
NMTAP	103	288	5
NMTAP	104	0	6
NMTAP	104	0	7
NMTAP	104	96	6
NMTAP	104	96	7
NMTAP	104	192	5
NMTAP	104	240	5
NMTAP	104	288	5
NMTAP	105	0	3
NMTAP	105	0	4
NMTAP	105	96	3
NMTAP	105	96	4
NMTAP	105	192	2
NMTAP	105	288	2
NMHLD	106	0	0	384
NMHLD	106	0	1	384
BRTAP	107	192	0
BRTAP	107	192	1
EXTAP	108	0	6
EXTAP	108	0	7
EXTAP	108	192	6
EXTAP	108	192	7
EXTAP	109	0	4
EXTAP	109	0	5
EXTAP	109	192	4
EXTAP	109	192	5
EXTAP	110	0	2
EXTAP	110	0	3
EXTAP	110	192	2
EXTAP	110	192	3
EXTAP	111	0	0
EXTAP	111	0	1
EXTAP	111	192	0
EXTAP	111	192	1
NMHLD	112	0	0	1344
NMHLD	112	0	7	1344
NMTHO	116	0	0	768	C	1	L1

T_REC_TAP	290
T_REC_BRK	4
T_REC_XTP	18
T_REC_BXX	0
T_REC_HLD	18
T_REC_XHO	0
T_REC_BHO	0
T_REC_BXH	0
T_REC_STR	30
T_REC_BST	0
T_REC_XST	0
T_REC_XBS	0
T_REC_TTP	17
T_REC_THO	2
T_REC_SLD	30
T_REC_BSL	0
T_REC_ALL	409
T_NUM_TAP	355
T_NUM_BRK	4
T_NUM_HLD	20
T_NUM_SLD	30
T_NUM_ALL	409
T_JUDGE_TAP	359
T_JUDGE_HLD	180
T_JUDGE_SLD	30
T_JUDGE_ALL	569
TTM_EACHPAIRS	106
TTM_SCR_TAP	177500
TTM_SCR_BRK	10400
TTM_SCR_HLD	20000
TTM_SCR_SLD	45000
TTM_SCR_ALL	252900
TTM_SCR_S	244950
TTM_SCR_SS	252500
TTM_RAT_ACV	10015

