VERSION	0.00.00	1.04.00
FES_MODE	0
BPM_DEF	184.000	184.000	184.000	184.000
MET_DEF	4	4
RESOLUTION	384
CLK_DEF	384
COMPATIBLE_CODE	MA2

BPM	0	0	184.000
MET	0	0	4	4
MET	37	0	4	6
MET	38	192	4	4
MET	41	192	4	6
MET	43	0	4	4
MET	91	0	4	2
MET	91	192	4	4

NMTAP	1	288	3
NMTAP	1	336	4
BXTAP	2	0	2
BXHLD	2	0	5	384
NMTAP	2	288	3
NMTAP	2	336	3
NMHLD	3	0	2	384
NMTAP	3	288	3
NMTAP	3	336	3
NMHLD	4	0	4	576
NMTAP	4	288	3
NMTAP	4	336	3
NMHLD	5	0	2	384
NMSTR	6	0	4
NMSXR	6	0	4	96	288	2
NMSTR	7	0	3
NMSUL	7	0	3	96	288	5
NMSTR	8	0	4
NMSCR	8	0	4	96	288	1
NMTHO	9	0	0	288	C	0	M1
EXTAP	9	288	7
BRTAP	10	0	0
BRSTR	10	0	7
NMSCL	10	0	7	96	96	4
NMHLD	10	192	1	96
NMHLD	11	0	2	96
NMSTR	11	0	5
NMSCL	11	0	5	96	96	2
NMHLD	11	192	1	96
NMHLD	12	0	1	96
EXHLD	12	0	7	96
NMHLD	12	144	2	336
EXTAP	12	144	6
NMHLD	13	0	4	96
NMTAP	13	192	2
NMTAP	13	192	4
EXTAP	13	288	3
EXTAP	13	312	4
EXTAP	13	336	3
NMTAP	14	0	3
NMTAP	14	0	4
NMTAP	14	48	1
NMHLD	14	72	1	72
NMTAP	14	144	3
NMTAP	14	168	2
NMTAP	14	192	4
NMTAP	14	240	6
NMHLD	14	264	6	72
NMTAP	14	336	4
NMTAP	14	360	5
NMTAP	15	0	3
NMTAP	15	48	1
NMHLD	15	72	1	72
NMTAP	15	144	7
NMTAP	15	168	0
NMTAP	15	192	6
NMTAP	15	240	2
NMHLD	15	264	2	72
NMTAP	15	336	6
NMTAP	16	0	1
NMTAP	16	24	7
NMTAP	16	48	1
NMTAP	16	72	7
NMTAP	16	96	1
NMTAP	16	120	7
NMTAP	16	144	1
NMTAP	16	168	7
NMTAP	16	192	2
NMTAP	16	216	6
NMTAP	16	240	2
NMTAP	16	264	6
NMTAP	16	288	3
NMTAP	16	312	5
NMTAP	16	336	3
NMTAP	16	360	5
NMTAP	17	0	2
NMTAP	17	24	4
NMTAP	17	48	2
NMTAP	17	72	4
BRTAP	17	96	3
NMSTR	17	192	2
NMSV_	17	192	2	96	48	4
NMHLD	17	192	4	96
NMHLD	18	0	6	96
NMTAP	18	48	7
NMTAP	18	96	0
NMHLD	18	144	1	96
NMTAP	18	192	2
NMTAP	18	240	3
NMTAP	18	288	5
NMTAP	18	312	4
NMTAP	18	336	6
NMTAP	18	360	4
NMHLD	19	0	5	96
NMTAP	19	48	7
NMTAP	19	96	0
NMHLD	19	144	1	96
NMTAP	19	192	2
NMTAP	19	240	3
NMTAP	19	288	5
NMTAP	19	312	4
NMTAP	19	336	6
NMTAP	19	360	3
EXSTR	20	0	5
NMSI_	20	0	5	96	48	1
NMTAP	20	48	5
NMSTR	20	96	3
NMSI_	20	96	3	96	48	7
NMTAP	20	144	3
NMSTR	20	192	6
NMSI_	20	192	6	96	48	2
NMTAP	20	240	6
NMSTR	20	288	0
NMSI_	20	288	0	96	48	4
NMTAP	20	336	0
NMSTR	21	0	3
NMSI_	21	0	3	96	48	6
NMTAP	21	48	3
NMSTR	21	96	1
NMSI_	21	96	1	96	48	4
NMTAP	21	144	1
NMTAP	21	192	0
NMTAP	21	240	7
EXTAP	21	288	3
EXTAP	21	288	6
NMHLD	22	0	1	96
NMTAP	22	48	0
NMTAP	22	96	7
NMHLD	22	144	6	96
NMTAP	22	192	5
NMTAP	22	240	4
NMTAP	22	288	2
NMTAP	22	312	3
NMTAP	22	336	1
NMTAP	22	360	3
NMHLD	23	0	2	96
NMTAP	23	48	0
NMTAP	23	96	7
NMHLD	23	144	6	96
NMTAP	23	192	5
NMTAP	23	240	4
NMTAP	23	288	2
NMTAP	23	312	3
NMTAP	23	336	1
NMTAP	23	360	4
BRTAP	24	0	0
NMTAP	24	48	6
NMTAP	24	96	3
NMTAP	24	96	5
NMTAP	24	144	2
NMTAP	24	192	0
NMTAP	24	192	1
NMTAP	24	240	2
NMTAP	24	288	6
NMTAP	24	288	7
NMTAP	24	336	5
NMTAP	25	0	2
NMTAP	25	24	4
NMTAP	25	48	2
NMTAP	25	72	4
NMTAP	25	96	3
NMTAP	25	120	5
NMTAP	25	144	3
NMTAP	25	168	5
NMSTR	25	192	4
NMSI_	25	192	4	96	48	0
NMTAP	25	216	6
NMTAP	25	240	4
NMTAP	25	264	6
NMTAP	25	288	4
BXTAP	26	0	1
BXHLD	26	0	7	96
NMTAP	26	96	2
EXTAP	26	144	2
NMHLD	26	192	1	96
NMTAP	26	192	4
NMTAP	26	240	3
NMHLD	26	288	4	96
NMTAP	26	336	2
NMSTR	27	0	1
NMSI_	27	0	1	96	48	4
NMTAP	27	48	3
NMTAP	27	96	4
NMTAP	27	144	5
NMTAP	27	192	6
NMTAP	27	192	7
NMTAP	27	240	0
NMTAP	27	240	5
NMTAP	27	288	1
NMTAP	27	312	4
NMTAP	27	336	2
NMTAP	27	360	3
BXHLD	28	0	0	96
NMTAP	28	96	5
EXTAP	28	144	5
NMTAP	28	192	3
NMHLD	28	192	6	96
NMTAP	28	240	4
NMHLD	28	288	3	96
NMTAP	28	336	5
EXSTR	29	0	6
NMSI_	29	0	6	96	48	3
NMTAP	29	48	4
EXTAP	29	96	3
NMTAP	29	144	2
EXTAP	29	192	0
NMTAP	29	240	0
NMTAP	29	288	1
NMTAP	29	312	7
NMTAP	29	336	1
NMHLD	30	0	0	48
NMHLD	30	0	6	48
NMHLD	30	72	4	48
NMHLD	30	72	5	48
NMTAP	30	144	2
NMTAP	30	144	3
NMTAP	30	192	2
NMTAP	30	192	3
NMTAP	30	240	1
NMTAP	30	264	2
NMTAP	30	288	1
NMTAP	30	312	2
NMTAP	30	336	1
NMHLD	31	0	1	48
NMHLD	31	0	7	48
NMHLD	31	72	2	48
NMHLD	31	72	3	48
NMTAP	31	144	4
NMTAP	31	144	5
NMTAP	31	192	4
NMTAP	31	192	5
NMTAP	31	240	6
NMTAP	31	264	5
NMTAP	31	288	6
NMTAP	31	312	5
NMTAP	31	336	6
NMTAP	32	0	3
BRHLD	32	0	7	288
NMHLD	32	192	0	96
NMSTR	33	0	1
NMSI_	33	0	1	96	48	3
NMSTR	33	0	5
NMSI_	33	0	5	96	48	7
NMSTR	33	96	1
NMSI_	33	96	1	96	48	7
NMSTR	33	96	5
NMSI_	33	96	5	96	48	3
NMTAP	33	192	1
NMTAP	33	192	5
BRTAP	33	288	0
BRTAP	33	288	4
NMHLD	34	0	1	48
NMTAP	34	0	3
NMHLD	34	96	1	48
NMTAP	34	96	3
NMHLD	34	192	1	48
NMTTP	34	192	2	B	0	M1
NMTTP	34	288	0	A	0	M1
NMHLD	34	288	1	48
NMTAP	35	0	3
NMHLD	35	0	6	48
NMTAP	35	96	3
NMHLD	35	96	6	48
NMTTP	35	192	5	B	0	M1
NMHLD	35	192	6	48
NMHLD	35	288	6	48
NMTTP	35	288	7	A	0	M1
NMTAP	36	0	0
NMTAP	36	48	0
NMTAP	36	96	4
NMTAP	36	120	5
NMTAP	36	144	6
NMTAP	36	168	7
NMTAP	36	192	1
NMTAP	36	216	2
NMTAP	36	240	3
NMTAP	36	264	4
NMSTR	36	288	7
NMSI_	36	288	7	96	48	2
NMTAP	36	312	6
NMTAP	36	336	5
NMTAP	36	360	4
BRSTR	37	0	7
NMSI_	37	0	7	96	48	4
BRSTR	37	96	7
NMSCR	37	96	7	96	48	2
BRSTR	37	192	7
NMSCL	37	192	7	96	48	4
BRSTR	37	288	7
NMSI_	37	288	7	96	48	3
BRSTR	38	0	7
NMSF_	38	0	7	96	48	3
BRTAP	38	96	7
BRTAP	38	192	1
BRTAP	38	192	5
NMTAP	38	288	3
NMTAP	38	288	6
NMTAP	38	336	7
NMSTR	39	0	0
NMSI_	39	0	0	96	48	4
NMTAP	39	0	1
NMSTR	39	96	3
NMSI_	39	96	3	96	48	7
EXTAP	39	192	6
EXTAP	39	240	6
EXTAP	39	288	0
EXTAP	39	336	1
NMTAP	40	0	2
NMSTR	40	0	3
NMSI_	40	0	3	96	48	7
NMSTR	40	96	0
NMSUR	40	96	0	96	96	6
EXTAP	40	192	6
EXTAP	40	240	5
EXHLD	40	288	4	96
NMHLD	41	0	0	96
NMSTR	41	96	3
NMSCL	41	96	3	96	96	0
NMSTR	41	192	0
NMSCL	41	192	0	96	96	5
NMSTR	41	288	5
NMSCL	41	288	5	96	96	2
NMSTR	42	0	2
NMSCL	42	0	2	96	96	7
NMTAP	42	96	7
NMTAP	42	192	4
NMTAP	42	288	3
NMTAP	42	312	5
NMTAP	42	336	2
NMTAP	42	360	4
BRTAP	43	0	0
NMTAP	43	48	2
NMTAP	43	72	3
NMTAP	43	96	1
NMTAP	43	144	0
NMTAP	43	144	6
NMTAP	43	192	0
NMTAP	43	192	6
NMTAP	43	240	5
NMTAP	43	264	4
NMTAP	43	288	5
NMTAP	43	336	0
NMTAP	43	336	6
NMTAP	44	0	1
NMTAP	44	0	5
NMTAP	44	48	3
NMTAP	44	64	4
NMTAP	44	80	2
NMTAP	44	96	3
NMTAP	44	144	1
NMTAP	44	144	5
NMSTR	44	192	1
NMSLR	44	192	1	96	72	5
NMTAP	44	192	5
NMTAP	44	288	4
NMTAP	44	336	6
NMHLD	45	0	7	96
NMSTR	45	96	4
NMSI_	45	96	4	96	48	0
NMTAP	45	144	4
NMTAP	45	192	7
CNSI_	45	240	0	0	48	2
NMTAP	45	240	6
NMTAP	45	288	5
NMTAP	45	336	4
NMTAP	46	0	2
NMTAP	46	0	3
NMTAP	46	48	1
NMTAP	46	96	2
NMTAP	46	96	3
NMTAP	46	144	4
NMTAP	46	192	1
NMTAP	46	192	3
NMTAP	46	240	0
NMTAP	46	288	1
NMTAP	46	288	7
NMTAP	46	336	2
NMTAP	46	336	6
NMTAP	47	0	3
NMTAP	47	0	5
NMTAP	47	48	6
NMTAP	47	72	7
NMTAP	47	96	5
NMTAP	47	144	0
NMTAP	47	144	4
NMTAP	47	192	0
NMTAP	47	192	4
NMTAP	47	240	2
NMTAP	47	264	3
NMTAP	47	288	2
NMTAP	47	336	1
NMTAP	47	336	7
NMTAP	48	0	2
NMTAP	48	0	6
NMTAP	48	48	4
NMTAP	48	64	3
NMTAP	48	80	5
NMTAP	48	96	4
NMTAP	48	144	3
NMTAP	48	144	7
NMTAP	48	192	2
NMTAP	48	192	6
NMTAP	48	240	1
NMTAP	48	240	5
NMTAP	48	288	0
NMTAP	48	288	4
NMTAP	48	336	0
NMTAP	48	336	4
NMTAP	49	0	1
NMTAP	49	24	3
NMTAP	49	48	1
NMTAP	49	72	3
NMTAP	49	96	2
NMTAP	49	120	0
NMTAP	49	144	2
NMTAP	49	168	0
NMTAP	49	192	3
NMTAP	49	216	7
NMTAP	49	240	4
NMTAP	49	264	6
NMTAP	49	288	3
NMTAP	49	312	5
NMTAP	49	336	2
NMTAP	49	360	4
BXSTR	50	0	1
NMSI_	50	0	1	96	48	5
BXSTR	50	96	0
NMSCL	50	96	0	96	48	5
NMSCR	50	96	0	96	48	3
BXTAP	50	96	1
BXTAP	50	192	0
BXHLD	51	0	3	288
BXSTR	51	0	6
NMSUL	51	0	6	96	192	2
NMSTR	52	0	2
NMSUL	52	0	2	96	192	6
NMHLD	52	0	3	288
NMTAP	53	0	5
NMTAP	53	96	4
NMTAP	53	96	6
NMHLD	53	144	4	144
NMHLD	53	144	6	144
NMTAP	54	0	6
NMTTP	54	48	6	E	0	M1
NMTTP	54	64	5	B	0	M1
NMTTP	54	80	4	B	0	M1
NMTTP	54	96	4	E	0	M1
NMTAP	54	144	2
NMTAP	54	288	2
NMTAP	54	288	3
NMTAP	55	0	1
NMTTP	55	48	2	E	0	M1
NMTTP	55	64	2	B	0	M1
NMTTP	55	80	3	B	0	M1
NMTTP	55	96	4	E	0	M1
NMTAP	55	144	5
NMTAP	55	288	6
NMTTP	55	336	6	E	0	M1
NMTTP	55	352	5	B	0	M1
NMTTP	55	368	4	B	0	M1
NMTTP	56	0	4	E	0	M1
NMTAP	56	48	2
NMTAP	56	192	2
NMTAP	56	192	3
NMTAP	56	288	3
NMTAP	56	288	4
NMTAP	57	0	6
NMTTP	57	48	6	E	0	M1
NMTTP	57	64	5	B	0	M1
NMTTP	57	80	4	B	0	M1
NMTTP	57	96	4	E	0	M1
NMTAP	57	144	2
NMTAP	57	288	2
NMTAP	57	288	3
EXHLD	58	0	3	192
NMTAP	58	0	4
NMTTP	58	192	0	C	0	M1
BXTAP	58	288	1
BXTAP	58	288	7
BXHLD	59	0	2	384
BXTAP	59	0	6
NMTTP	59	192	1	B	0	M1
NMTTP	59	192	2	B	0	M1
NMTTP	59	288	4	B	0	M1
NMTTP	59	288	5	B	0	M1
BXHLD	60	0	6	384
NMTTP	60	192	5	B	0	M1
NMTTP	60	192	6	B	0	M1
NMTTP	60	288	2	B	0	M1
NMTTP	60	288	3	B	0	M1
BXHLD	61	0	1	192
NMTTP	61	96	3	B	0	M1
NMTTP	61	96	4	B	0	M1
NMTTP	61	96	4	D	0	M1
BXHLD	61	192	6	192
NMTTP	61	288	0	B	0	M1
NMTTP	61	288	0	D	0	M1
NMTTP	61	288	7	B	0	M1
BXTAP	62	0	1
BXTAP	62	96	1
BXTAP	62	96	3
BXTAP	62	192	3
BXTAP	62	192	5
BXTAP	62	288	1
BXTAP	62	288	7
EXSTR	63	0	2
NMSI_	63	0	2	96	48	4
NMTAP	63	48	2
NMTAP	63	96	4
NMTAP	63	144	5
EXSTR	63	192	6
NMSI_	63	192	6	96	48	2
NMTAP	63	240	6
NMTAP	63	288	2
NMTAP	63	336	1
EXSTR	64	0	0
NMSI_	64	0	0	96	48	4
NMTAP	64	48	0
NMTAP	64	96	4
NMTAP	64	144	5
EXSTR	64	192	6
NMSI_	64	192	6	96	48	2
NMTAP	64	240	6
NMTAP	64	288	1
NMTAP	64	336	1
NMTAP	65	0	0
EXTAP	65	0	7
NMTAP	65	48	0
NMTAP	65	48	7
NMTAP	65	96	6
NMTAP	65	96	7
NMTAP	65	144	6
NMTAP	65	144	7
NMTAP	65	192	5
NMTAP	65	192	6
NMTAP	65	240	4
NMTAP	65	240	5
NMTAP	65	288	3
NMTAP	65	288	4
NMTAP	65	336	2
NMTAP	65	336	3
NMTAP	66	0	2
NMTAP	66	24	3
NMTAP	66	48	1
NMTAP	66	72	4
NMTAP	66	96	0
NMTAP	66	120	5
NMTAP	66	144	7
BRTAP	66	192	1
BRTAP	66	192	6
NMSTR	66	288	4
NMSI_	66	288	4	96	48	6
NMTAP	66	288	5
NMTAP	66	312	3
NMTAP	66	336	2
NMTAP	66	360	1
EXSTR	67	0	0
NMSI_	67	0	0	96	48	4
BXTAP	67	0	4
NMTAP	67	96	0
NMTAP	67	96	4
NMTAP	67	144	5
NMTAP	67	168	6
NMTAP	67	192	3
NMTAP	67	192	7
NMTAP	67	240	2
NMTAP	67	288	0
NMSTR	67	288	1
NMSUR	67	288	1	96	48	5
NMTAP	67	336	7
NMTAP	68	0	1
EXSTR	68	0	6
NMSUL	68	0	6	96	48	2
NMTAP	68	48	7
EXSTR	68	96	0
NMSI_	68	96	0	96	48	4
NMTAP	68	96	6
NMTAP	68	144	1
NMTAP	68	192	0
EXTAP	68	192	5
NMTAP	68	240	6
EXTAP	68	288	3
NMTAP	68	288	7
NMSTR	69	0	2
NMSI_	69	0	2	96	48	7
EXTAP	69	0	3
NMTAP	69	48	1
NMTAP	69	72	0
NMTAP	69	96	2
NMTAP	69	144	5
NMSTR	69	192	6
NMSI_	69	192	6	96	48	3
EXTAP	69	192	7
NMTAP	69	240	5
NMTAP	69	264	4
NMTAP	69	288	6
NMTAP	69	336	0
NMTAP	70	0	1
EXSTR	70	0	3
NMSI_	70	0	3	96	48	7
NMTAP	70	48	2
NMTAP	70	72	4
NMTAP	70	96	3
NMTAP	70	144	5
NMSTR	70	192	4
NMSCR	70	192	4	96	48	7
NMTAP	70	240	0
NMTAP	70	256	1
NMTAP	70	272	2
NMSTR	70	288	3
NMSI_	70	288	3	96	48	0
EXTAP	71	0	3
EXSTR	71	0	7
NMSI_	71	0	7	96	48	3
NMTAP	71	96	3
EXTAP	71	96	7
NMTAP	71	144	2
NMTAP	71	168	1
NMTAP	71	192	0
NMTAP	71	192	4
NMTAP	71	240	5
NMTAP	71	288	6
NMSTR	71	288	7
NMSUL	71	288	7	96	48	3
NMTAP	71	336	0
EXSTR	72	0	1
NMSUR	72	0	1	96	48	5
NMTAP	72	0	7
NMTAP	72	48	2
EXSTR	72	96	0
NMSI_	72	96	0	96	48	4
EXTAP	72	96	1
NMTAP	72	144	7
EXTAP	72	192	0
NMSTR	72	192	3
NMSI_	72	192	3	96	48	7
NMTAP	72	240	2
NMTAP	72	288	1
EXTAP	72	288	3
BXTAP	73	0	2
BXTAP	73	0	6
NMSTR	73	96	0
NMSI_	73	96	0	96	48	4
NMSTR	73	96	7
NMSI_	73	96	7	96	48	3
NMTAP	73	108	1
NMTAP	73	108	6
NMTAP	73	120	2
NMTAP	73	120	5
NMTAP	73	132	3
NMTAP	73	132	4
BXSTR	73	192	0
NMSI_	73	192	0	96	48	2
BXSTR	73	192	7
NMSI_	73	192	7	96	48	5
BXTAP	73	288	0
BXTAP	73	288	7
BXTAP	74	0	3
BXSTR	74	0	4
NMSV_	74	0	4	96	48	1
NMSV_	74	0	4	96	48	7
BXTAP	74	96	4
BXTAP	74	192	2
BXTAP	74	192	6
NMSTR	74	288	0
NMSI_	74	288	0	96	48	2
NMTAP	74	288	1
NMTAP	74	312	7
NMTAP	74	336	6
NMTAP	74	360	5
BRTAP	75	0	0
BRSTR	75	0	4
NMSI_	75	0	4	96	48	0
NMTAP	75	96	0
NMTAP	75	96	4
NMTAP	75	144	1
NMTAP	75	168	2
NMTAP	75	192	3
NMTAP	75	192	6
NMTAP	75	240	5
NMTAP	75	288	2
NMSTR	75	288	4
BRSI_	75	288	4	96	48	1
NMTAP	75	336	3
BRSTR	76	0	4
NMSI_	76	0	4	96	48	7
NMTAP	76	0	6
NMTAP	76	48	5
NMTAP	76	96	2
BRSTR	76	96	4
BRSI_	76	96	4	96	48	0
NMTAP	76	144	3
BRTAP	76	192	4
BXSTR	76	192	7
NMSI_	76	192	7	96	48	3
NMTAP	76	240	6
NMTAP	76	288	5
BRTAP	76	288	7
BXTAP	77	0	4
BRSTR	77	0	5
NMSI_	77	0	5	96	48	0
NMTAP	77	48	6
NMTAP	77	72	7
NMTAP	77	96	5
NMTAP	77	144	2
BXTAP	77	192	0
BRSTR	77	192	1
NMSI_	77	192	1	96	48	4
NMTAP	77	240	2
NMTAP	77	264	3
NMTAP	77	288	1
NMTAP	77	336	6
BXTAP	78	0	4
BRSTR	78	0	5
NMSI_	78	0	5	96	48	0
NMTAP	78	48	6
NMTAP	78	72	7
NMTAP	78	96	5
NMTAP	78	144	2
NMSTR	78	192	3
NMSCL	78	192	3	96	48	0
NMTAP	78	240	7
NMTAP	78	256	6
NMTAP	78	272	5
NMSTR	78	288	4
NMSI_	78	288	4	96	48	7
BXSTR	79	0	0
NMSI_	79	0	0	96	48	4
NMTAP	79	0	4
NMTAP	79	96	0
NMTAP	79	96	4
NMTAP	79	144	5
NMTAP	79	168	6
NMTAP	79	192	2
NMTAP	79	192	7
NMTAP	79	240	1
NMSTR	79	288	0
BRSCL	79	288	0	96	48	5
NMTAP	79	288	6
NMTAP	79	336	7
BRSTR	80	0	0
NMSCR	80	0	0	96	48	3
NMTAP	80	0	3
NMTAP	80	48	1
BRSTR	80	96	0
BRSI_	80	96	0	96	48	4
NMTAP	80	96	4
NMTAP	80	144	6
BRTAP	80	192	0
BXTAP	80	192	3
NMTAP	80	240	2
BRTAP	80	288	0
BRTAP	80	288	5
NMTAP	81	0	6
NMTAP	81	24	7
NMTAP	81	48	6
NMTAP	81	72	7
NMTAP	81	96	5
NMTAP	81	120	4
NMTAP	81	144	5
NMTAP	81	168	4
NMTAP	81	192	0
NMTAP	81	216	1
NMTAP	81	240	0
NMTAP	81	264	1
NMTAP	81	288	3
NMTAP	81	312	2
NMTAP	81	336	3
NMTAP	81	360	2
NMTAP	82	0	6
NMTAP	82	24	0
NMTAP	82	48	6
NMTAP	82	72	0
NMTAP	82	96	6
NMTAP	82	120	0
NMTAP	82	144	6
NMTAP	82	168	0
NMTAP	82	192	7
NMTAP	82	216	7
NMTAP	82	240	7
NMTAP	82	264	7
BRTAP	82	288	0
BRTAP	82	288	6
BRTAP	83	0	3
BRTAP	83	0	5
NMTAP	83	48	1
NMTAP	83	72	3
NMTAP	83	96	1
NMTAP	83	144	0
NMTAP	83	144	5
NMTAP	83	192	6
NMTAP	83	216	4
NMTAP	83	240	6
NMTAP	83	288	1
NMTAP	83	312	0
NMTAP	83	336	1
NMTAP	83	360	2
NMTAP	84	0	1
NMTAP	84	48	6
NMTAP	84	72	4
NMTAP	84	96	6
NMTAP	84	144	3
NMTAP	84	144	5
NMTAP	84	192	1
NMTAP	84	216	7
NMTAP	84	240	1
NMTAP	84	288	5
NMTAP	84	312	4
NMTAP	84	336	5
NMTAP	84	360	6
BRSTR	85	0	5
NMSI_	85	0	5	96	48	1
NMTAP	85	48	5
NMSTR	85	96	0
NMSI_	85	96	0	96	48	4
NMTAP	85	144	0
NMSTR	85	192	6
NMSI_	85	192	6	96	48	2
NMTAP	85	240	6
NMSTR	85	288	0
NMSCL	85	288	0	96	48	5
NMTAP	85	336	0
BRSTR	86	0	3
NMSUR	86	0	3	96	48	7
NMTAP	86	48	3
BRSTR	86	96	0
NMSUR	86	96	0	96	48	4
NMTAP	86	144	0
BRSTR	86	192	6
NMSI_	86	192	6	96	48	3
NMTAP	86	240	6
BRTAP	86	288	0
BRTAP	86	288	6
BRTAP	87	0	2
BRTAP	87	0	4
NMTAP	87	48	1
NMTAP	87	72	3
NMTAP	87	96	1
NMTAP	87	144	2
NMTAP	87	144	7
NMTAP	87	192	6
NMTAP	87	216	4
NMTAP	87	240	6
NMSTR	87	288	1
NMSI_	87	288	1	96	24	5
NMTAP	87	312	0
NMTAP	87	336	1
NMTAP	87	360	2
BRTAP	88	0	1
NMTAP	88	48	6
NMTAP	88	72	4
NMTAP	88	96	6
NMTAP	88	144	0
NMTAP	88	144	5
NMTAP	88	192	1
NMTAP	88	216	3
NMTAP	88	240	1
NMTAP	88	288	0
NMTAP	88	288	1
NMTAP	88	312	7
NMTAP	88	336	6
NMTAP	88	360	5
BRTAP	89	0	3
BRTAP	89	0	4
NMTAP	89	48	2
NMTAP	89	72	2
NMTAP	89	96	3
BRTAP	89	144	1
BRTAP	89	144	4
NMTAP	89	192	5
NMTAP	89	216	5
NMTAP	89	240	4
BRTAP	89	288	3
BRTAP	89	288	6
NMTAP	89	336	1
NMTAP	89	360	1
NMTAP	90	0	0
BRTAP	90	48	1
BRTAP	90	48	4
NMTAP	90	96	6
NMTAP	90	120	6
NMTAP	90	144	7
BRTAP	90	192	0
BRTAP	90	192	5
NMTAP	90	240	1
NMTAP	90	264	0
NMTAP	90	288	1
NMTAP	90	312	0
NMTAP	90	336	1
NMTAP	90	360	0
EXTAP	91	0	1
NMTAP	91	12	2
NMTAP	91	24	3
NMTAP	91	36	4
NMTAP	91	48	5
NMTAP	91	60	6
NMTAP	91	72	7
NMTAP	91	84	0
EXTAP	91	96	1
NMTAP	91	108	2
NMTAP	91	120	3
NMTAP	91	132	4
NMTAP	91	144	5
NMTAP	91	156	6
NMTAP	91	168	7
NMTAP	91	180	0
BXHLD	91	192	1	1440
NMTTP	91	192	7	B	1	M1
NMTTP	91	200	0	C	0	M1
NMTTP	91	208	3	B	0	M1
NMTTP	91	216	3	A	0	M1
NMTAP	95	192	2
NMTAP	95	192	5
NMTAP	95	240	3
NMTAP	95	288	4
NMTAP	95	336	3
NMTAP	96	0	4
NMTAP	96	48	5
NMTAP	96	96	5
NMTAP	96	144	4
NMTAP	96	192	3
NMTAP	96	240	4
NMTAP	96	288	3
NMTAP	96	336	2
NMTAP	97	0	2
NMTAP	97	48	3
NMTAP	97	96	4
NMTAP	97	144	2
NMTAP	97	192	3
NMTAP	97	240	5
NMTAP	97	288	5
NMTAP	97	336	3
NMTAP	98	0	2
NMTAP	98	48	2
NMTAP	98	96	3
NMTAP	98	144	4
NMHLD	98	192	5	96
NMTAP	98	240	2
NMTAP	98	288	3
NMTAP	98	336	4
NMSTR	99	0	3
NMSI_	99	0	3	96	96	7
NMSTR	99	0	6
NMSUL	99	0	6	96	96	0
NMTAP	99	48	3
NMTAP	99	48	6

T_REC_TAP	573
T_REC_BRK	36
T_REC_XTP	29
T_REC_BXX	27
T_REC_HLD	49
T_REC_XHO	3
T_REC_BHO	1
T_REC_BXH	9
T_REC_STR	49
T_REC_BST	18
T_REC_XST	13
T_REC_XBS	8
T_REC_TTP	39
T_REC_THO	1
T_REC_SLD	86
T_REC_BSL	4
T_REC_ALL	945
T_NUM_TAP	703
T_NUM_BRK	103
T_NUM_HLD	53
T_NUM_SLD	86
T_NUM_ALL	945
T_JUDGE_TAP	792
T_JUDGE_HLD	207
T_JUDGE_SLD	90
T_JUDGE_ALL	1089
TTM_EACHPAIRS	149
TTM_SCR_TAP	351500
TTM_SCR_BRK	267800
TTM_SCR_HLD	53000
TTM_SCR_SLD	129000
TTM_SCR_ALL	801300
TTM_SCR_S	767300
TTM_SCR_SS	791000
TTM_RAT_ACV	10130

