VERSION	0.00.00	1.04.00
FES_MODE	0
BPM_DEF	184.000	184.000	184.000	184.000
MET_DEF	4	4
RESOLUTION	384
CLK_DEF	384
COMPATIBLE_CODE	MA2

BPM	0	0	184.000
MET	0	0	4	4
MET	37	0	4	6
MET	38	192	4	4
MET	41	192	4	6
MET	43	0	4	4
MET	91	0	4	2
MET	91	192	4	4

NMSTR	2	0	4
NMSCR	2	0	4	96	672	3
CNSUR	4	0	3	0	576	5
NMSTR	6	0	3
NMSCL	6	0	3	96	672	4
CNSUL	8	0	4	0	288	2
NMTHO	9	0	0	288	C	0	M1
NMTAP	9	288	0
BRHLD	10	0	1	576
BRTAP	10	0	7
NMTTP	10	192	7	E	0	M1
NMTTP	11	0	6	E	0	M1
NMTTP	11	192	5	E	0	M1
EXHLD	12	0	0	96
EXHLD	12	0	4	96
EXTAP	12	144	0
EXTAP	12	144	4
NMTTP	13	0	2	E	0	M1
NMTTP	13	192	1	E	0	M1
EXTAP	13	288	0
EXTAP	13	288	7
NMHLD	14	0	3	72
NMHLD	14	72	2	72
NMTAP	14	144	1
NMHLD	14	192	4	72
NMHLD	14	264	5	72
NMTAP	14	336	6
NMHLD	15	0	3	72
NMHLD	15	72	2	72
NMTAP	15	144	1
NMHLD	15	192	4	72
NMHLD	15	264	5	72
NMTAP	15	336	6
NMTAP	16	0	3
NMTAP	16	48	3
NMTAP	16	96	2
NMTAP	16	96	4
NMTAP	16	144	2
NMTAP	16	144	4
NMTAP	16	192	1
NMTAP	16	192	5
NMTAP	16	240	1
NMTAP	16	240	5
NMSTR	16	288	0
NMSCR	16	288	0	96	192	7
NMTAP	16	288	6
NMTAP	16	336	0
NMTAP	16	336	6
EXTAP	17	288	0
EXTAP	17	288	7
EXTAP	18	0	1
EXTAP	18	0	4
NMTAP	18	48	2
NMTAP	18	96	3
NMTAP	18	144	1
NMTAP	18	144	4
NMTAP	18	192	2
NMTAP	18	240	3
BXTAP	18	288	0
NMTAP	19	0	3
NMTAP	19	0	6
NMTAP	19	48	5
NMTAP	19	96	4
NMTAP	19	144	3
NMTAP	19	144	6
NMTAP	19	192	5
NMTAP	19	240	4
BXTAP	19	288	7
NMHLD	20	0	0	48
NMHLD	20	48	4	48
NMHLD	20	96	1	48
NMHLD	20	144	5	48
NMHLD	20	192	2	48
NMHLD	20	240	6	48
NMHLD	20	288	3	48
NMHLD	20	336	7	48
NMSTR	21	0	4
NMSCL	21	0	4	96	96	1
NMTAP	21	96	7
NMTAP	21	144	7
NMSTR	21	192	7
NMSI_	21	192	7	96	48	4
EXTAP	22	0	3
EXTAP	22	0	6
NMTAP	22	48	5
NMTAP	22	96	4
NMTAP	22	144	3
NMTAP	22	144	6
NMTAP	22	192	5
NMTAP	22	240	4
BXTAP	22	288	7
NMTAP	23	0	1
NMTAP	23	0	4
NMTAP	23	48	2
NMTAP	23	96	3
NMTAP	23	144	1
NMTAP	23	144	4
NMTAP	23	192	2
NMTAP	23	240	3
BXTAP	23	288	0
EXTAP	24	0	7
NMTAP	24	48	7
NMTAP	24	96	0
NMTAP	24	96	6
NMTAP	24	144	0
NMTAP	24	144	6
NMTAP	24	192	1
NMTAP	24	192	5
NMTAP	24	240	1
NMTAP	24	240	5
NMTAP	24	288	2
NMTAP	24	288	4
NMTAP	24	336	2
NMTAP	24	336	4
NMSTR	25	0	3
NMSUR	25	0	3	96	96	4
EXTAP	25	288	3
EXTAP	25	288	4
EXTAP	26	0	0
EXTAP	26	0	5
NMTAP	26	48	7
NMTAP	26	96	6
NMTAP	26	144	0
NMTAP	26	144	5
NMTAP	26	192	7
NMTAP	26	240	6
NMTAP	26	288	0
NMSTR	26	288	5
NMSI_	26	288	5	96	48	1
NMSTR	27	0	7
NMSI_	27	0	7	96	48	3
NMTAP	27	192	4
NMTAP	27	240	4
NMTAP	27	288	1
NMTAP	27	288	4
EXTAP	28	0	2
EXTAP	28	0	7
NMTAP	28	48	0
NMTAP	28	96	1
NMTAP	28	144	2
NMTAP	28	144	7
NMTAP	28	192	0
NMTAP	28	240	1
NMSTR	28	288	2
NMSI_	28	288	2	96	48	6
NMTAP	28	288	7
NMSTR	29	0	0
NMSI_	29	0	0	96	48	4
NMTAP	29	192	3
NMTAP	29	240	3
NMTAP	29	288	3
NMTAP	29	288	6
EXHLD	30	0	4	48
EXHLD	30	0	5	48
NMTAP	30	72	4
NMTAP	30	72	5
NMTAP	30	144	3
NMTAP	30	144	6
NMTAP	30	192	3
NMTAP	30	192	6
BRTAP	30	240	7
EXHLD	31	0	2	48
EXHLD	31	0	3	48
NMTAP	31	72	2
NMTAP	31	72	3
NMTAP	31	144	1
NMTAP	31	144	4
NMTAP	31	192	1
NMTAP	31	192	4
BRSTR	31	240	0
NMSCR	31	240	0	96	336	5
NMSUR	31	240	0	96	336	5
BXSTR	33	0	6
NMSI_	33	0	6	96	48	2
BXTAP	33	0	7
BXSTR	33	96	0
NMSI_	33	96	0	96	48	4
BXSTR	33	192	5
NMSI_	33	192	5	96	48	1
BXTAP	33	288	3
EXTAP	34	0	0
EXTAP	34	0	2
NMTAP	34	48	2
NMTAP	34	96	2
NMTAP	34	96	7
NMTAP	34	144	2
NMSTR	34	192	2
NMSI_	34	192	2	96	48	4
NMHLD	34	192	6	96
NMTAP	35	0	6
NMTAP	35	0	7
NMTAP	35	48	6
NMTAP	35	96	0
NMTAP	35	96	6
NMTAP	35	144	6
NMTAP	35	192	1
NMTAP	35	192	6
NMTAP	35	288	3
NMTAP	35	288	4
NMTAP	36	0	4
NMTAP	36	0	5
NMTAP	36	48	6
NMTAP	36	96	7
NMTAP	36	144	0
NMTAP	36	192	1
NMTAP	36	240	2
NMTAP	36	288	3
NMTAP	36	336	4
BRTAP	37	0	5
BRTAP	37	0	6
BRTAP	37	96	0
BRTAP	37	96	7
BRTAP	37	192	1
BRTAP	37	192	2
BRTAP	37	288	3
BRTAP	37	288	4
BRTAP	38	0	4
BRTAP	38	0	6
BRTAP	38	96	1
BRTAP	38	96	3
BXTAP	38	192	0
BXTAP	38	192	7
NMTAP	38	240	6
NMTAP	38	288	5
NMTAP	38	336	4
NMSTR	39	0	2
NMSI_	39	0	2	96	48	6
NMSTR	39	0	3
NMSI_	39	0	3	96	48	6
NMTAP	39	192	0
NMTAP	39	192	7
NMTAP	39	240	1
NMTAP	39	288	2
NMTAP	39	336	3
NMTAP	40	0	4
NMSTR	40	0	5
NMSI_	40	0	5	96	48	1
NMTAP	40	96	0
NMTAP	40	192	2
NMTAP	40	240	3
NMHLD	40	288	4	288
NMTAP	41	0	5
NMTAP	41	96	6
BRSTR	41	192	7
NMSCR	41	192	7	96	192	3
NMSSR	41	192	7	96	192	3
NMTTP	42	192	0	C	1	M1
NMTTP	42	192	2	B	0	M1
NMTTP	42	192	3	B	0	M1
NMTTP	42	192	4	B	0	M1
NMTTP	42	192	5	B	0	M1
NMTAP	43	0	6
NMTAP	43	48	7
NMTAP	43	96	0
NMTAP	43	144	1
NMTAP	43	192	7
NMTAP	43	240	0
NMTAP	43	288	1
NMTAP	43	336	2
NMSTR	44	0	3
NMSCL	44	0	3	96	96	6
NMTAP	44	0	4
NMTAP	44	96	5
NMTAP	44	144	5
NMTAP	44	192	5
NMTAP	45	0	1
NMTAP	45	0	7
NMTAP	45	48	0
NMTAP	45	96	1
NMSTR	45	96	7
NMSI_	45	96	7	96	48	5
NMSTR	45	192	0
NMSI_	45	192	0	96	48	4
NMTAP	46	0	5
NMTAP	46	48	4
NMTAP	46	96	3
NMTAP	46	144	2
NMTAP	46	192	1
NMSTR	46	192	5
NMSI_	46	192	5	96	48	0
BXTAP	46	288	0
NMTAP	47	0	1
NMTAP	47	48	0
NMTAP	47	96	7
NMTAP	47	144	6
NMTAP	47	192	0
NMTAP	47	240	7
NMTAP	47	288	6
NMTAP	47	336	5
NMTAP	48	0	3
NMSTR	48	0	4
NMSCR	48	0	4	96	48	6
NMSTR	48	96	2
NMSCL	48	96	2	96	48	0
NMSTR	48	192	7
NMSI_	48	192	7	96	48	3
EXHLD	49	0	0	48
EXHLD	49	0	2	48
EXHLD	49	96	1	48
EXHLD	49	96	3	48
EXHLD	49	192	2	48
EXHLD	49	192	4	48
EXHLD	49	288	3	48
EXHLD	49	288	5	48
BRTAP	50	0	4
BRTAP	50	0	6
BRTAP	50	96	1
BRTAP	50	96	3
NMTTP	50	192	0	C	1	M1
NMTTP	50	192	1	B	0	M1
NMTTP	50	192	2	B	0	M1
NMTTP	50	192	3	B	0	M1
NMTTP	50	192	4	B	0	M1
NMTTP	50	192	5	B	0	M1
NMTTP	50	192	6	B	0	M1
EXSTR	51	0	0
NMSCR	51	0	0	96	288	3
EXHLD	51	0	7	576
CNSXR	52	0	3	0	192	6
NMHLD	53	0	3	672
NMSTR	53	0	6
NMSI_	53	0	6	96	48	4
CNSI_	53	144	4	0	96	0
NMHLD	54	0	7	96
NMHLD	54	192	6	96
EXHLD	55	0	1	576
EXSTR	55	0	5
NMSCL	55	0	5	96	288	2
CNSXL	56	0	2	0	192	7
NMTAP	57	0	6
NMTAP	57	96	5
NMTAP	57	192	4
NMTAP	57	288	3
NMSTR	58	0	2
NMSI_	58	0	2	96	96	4
NMSTR	58	0	6
NMSI_	58	0	6	96	96	4
CNSI_	58	192	4	0	48	0
CNSI_	58	192	4	0	48	0
EXTAP	59	0	1
EXTAP	59	0	7
NMTAP	59	48	0
NMSTR	59	96	1
NMSI_	59	96	1	96	96	5
NMHLD	59	96	7	192
CNSI_	59	288	5	0	48	2
EXTAP	60	0	0
EXTAP	60	0	6
NMTAP	60	48	7
NMHLD	60	96	0	192
NMSTR	60	96	6
NMSI_	60	96	6	96	96	2
CNSI_	60	288	2	0	48	5
EXTAP	61	0	1
EXTAP	61	0	7
NMTAP	61	48	0
NMTAP	61	96	1
NMTAP	61	96	7
EXTAP	61	192	0
EXTAP	61	192	6
NMTAP	61	240	7
NMTAP	61	288	0
NMTAP	61	288	6
EXTAP	62	0	1
EXSTR	62	0	7
NMSCL	62	0	7	96	96	3
NMTAP	62	96	0
NMTAP	62	144	0
NMTAP	62	192	0
EXHLD	62	288	2	384
EXTAP	62	288	3
EXTAP	63	0	1
NMTAP	63	96	7
NMTAP	63	192	5
NMTAP	63	288	3
EXTAP	64	0	0
EXTAP	64	0	1
NMTAP	64	96	6
NMTAP	64	96	7
NMTAP	64	192	4
NMTAP	64	192	5
NMTAP	64	288	2
NMTAP	64	288	3
EXTAP	65	0	0
EXTAP	65	0	1
NMTAP	65	48	0
NMTAP	65	48	1
NMTAP	65	96	2
NMTAP	65	96	7
NMTAP	65	144	2
NMTAP	65	144	7
NMTAP	65	192	3
NMTAP	65	192	6
NMTAP	65	240	3
NMTAP	65	240	6
NMTAP	65	288	4
NMTAP	65	288	5
NMTAP	66	0	2
NMTAP	66	24	3
NMTAP	66	48	2
NMTAP	66	72	3
NMTAP	66	96	2
NMTAP	66	120	3
NMTAP	66	144	2
EXSTR	66	192	1
NMSI_	66	192	1	96	48	4
EXSTR	66	192	4
NMSI_	66	192	4	96	48	0
BXTAP	67	0	3
BXTAP	67	0	7
NMTAP	67	96	5
NMTAP	67	144	3
NMTAP	67	168	4
NMSTR	67	192	3
NMSI_	67	192	3	96	48	6
NMSI_	67	192	3	96	48	7
BXTAP	68	0	6
BXTAP	68	0	7
BXTAP	68	96	4
BXTAP	68	96	5
BXTAP	68	192	2
BXTAP	68	192	3
BXTAP	68	288	0
BXTAP	68	288	1
NMTAP	69	0	6
NMTAP	69	48	5
NMTAP	69	48	7
EXTAP	69	96	0
EXTAP	69	96	4
NMTAP	69	192	1
NMTAP	69	240	0
NMTAP	69	240	2
EXTAP	69	288	3
EXTAP	69	288	7
NMHLD	70	0	6	192
NMTAP	70	96	7
NMTAP	70	144	0
NMTAP	70	192	1
NMTAP	70	288	3
NMTAP	70	288	4
BXTAP	71	0	0
BXTAP	71	0	4
NMTAP	71	96	2
NMTAP	71	144	4
NMTAP	71	168	3
NMSTR	71	192	4
NMSI_	71	192	4	96	48	0
NMSI_	71	192	4	96	48	1
BXTAP	72	0	0
BXTAP	72	0	1
BXTAP	72	96	2
BXTAP	72	96	3
BXTAP	72	192	4
BXTAP	72	192	5
BXTAP	72	288	6
BXTAP	72	288	7
NMTAP	73	0	0
NMHLD	73	0	1	96
NMTAP	73	96	3
NMTAP	73	144	3
NMTAP	73	192	3
NMTAP	73	288	0
NMTAP	73	288	6
BXTAP	74	0	5
BXTAP	74	0	7
BXTAP	74	96	0
BXTAP	74	96	2
NMTTP	74	192	0	B	0	M1
NMTTP	74	192	0	E	1	M1
NMTTP	74	192	0	A	0	M1
NMTTP	74	192	0	D	0	M1
NMTTP	74	192	1	E	0	M1
NMTTP	74	192	7	B	0	M1
NMTTP	74	192	7	E	0	M1
NMTTP	74	192	7	A	0	M1
BXTAP	75	0	2
BXTAP	75	0	6
NMTAP	75	48	5
NMTAP	75	72	4
NMTAP	75	96	5
NMTAP	75	144	3
NMTAP	75	168	4
NMSTR	75	192	3
NMSI_	75	192	3	96	48	6
NMSI_	75	192	3	96	48	7
BXTAP	76	0	6
BXTAP	76	0	7
BXTAP	76	96	4
BXTAP	76	96	5
BXTAP	76	192	2
BXTAP	76	192	3
BXTAP	76	288	0
BXTAP	76	288	1
EXTAP	77	0	6
EXTAP	77	0	7
NMTAP	77	48	5
NMTAP	77	96	4
NMTAP	77	144	3
EXTAP	77	192	2
NMTAP	77	240	1
NMTAP	77	288	0
NMTAP	77	336	7
EXHLD	78	0	4	192
EXTAP	78	0	6
NMTAP	78	96	3
NMTAP	78	144	3
NMSTR	78	192	3
NMSI_	78	192	3	96	48	7
NMTAP	78	288	0
BXTAP	79	0	1
BXTAP	79	0	5
NMTAP	79	48	2
NMTAP	79	72	3
NMTAP	79	96	2
NMTAP	79	144	4
NMTAP	79	168	3
NMSTR	79	192	4
NMSI_	79	192	4	96	48	0
NMSI_	79	192	4	96	48	1
BXTAP	80	0	2
BXTAP	80	0	7
NMTAP	80	48	1
NMTAP	80	72	0
NMTAP	80	96	1
NMTAP	80	144	6
NMTAP	80	168	7
NMSTR	80	192	6
NMSI_	80	192	6	96	48	2
NMSI_	80	192	6	96	48	3
NMTAP	81	0	4
NMTAP	81	48	5
NMTAP	81	96	6
NMTAP	81	144	7
NMTAP	81	192	0
NMTAP	81	192	1
NMTAP	81	240	2
NMTAP	81	288	3
NMTAP	81	288	7
NMTAP	82	0	6
NMTAP	82	24	7
NMTAP	82	48	6
NMTAP	82	72	7
NMTAP	82	96	6
NMTAP	82	120	7
NMTAP	82	144	6
NMTAP	82	168	7
NMTAP	82	192	5
NMTAP	82	216	0
NMTAP	82	240	5
NMTAP	82	264	0
EXTAP	83	0	1
EXTAP	83	0	4
NMTAP	83	48	2
NMTAP	83	72	3
NMTAP	83	96	2
NMTAP	83	144	1
NMTAP	83	144	4
NMTAP	83	192	2
NMTAP	83	216	3
NMTAP	83	240	2
BXTAP	83	288	0
NMTAP	84	0	3
NMTAP	84	0	6
NMTAP	84	48	5
NMTAP	84	72	4
NMTAP	84	96	5
NMTAP	84	144	3
NMTAP	84	144	6
NMTAP	84	192	5
NMTAP	84	216	4
NMTAP	84	240	5
BXTAP	84	288	7
NMHLD	85	0	0	48
NMHLD	85	48	4	48
NMHLD	85	96	1	48
NMHLD	85	144	5	48
NMHLD	85	192	2	48
NMHLD	85	240	6	48
NMHLD	85	288	3	48
NMHLD	85	336	7	48
NMSTR	86	0	4
NMSCL	86	0	4	96	96	0
NMTAP	86	96	7
NMTAP	86	144	7
NMSTR	86	192	7
NMSI_	86	192	7	96	48	3
EXTAP	87	0	1
EXTAP	87	0	4
NMTAP	87	48	2
NMTAP	87	72	3
NMTAP	87	96	2
NMTAP	87	144	1
NMTAP	87	144	4
NMTAP	87	192	2
NMTAP	87	216	3
NMTAP	87	240	2
BXTAP	87	288	0
BXTAP	87	288	7
NMTAP	88	0	3
NMTAP	88	0	6
NMTAP	88	48	5
NMTAP	88	72	4
NMTAP	88	96	5
NMTAP	88	144	3
NMTAP	88	144	6
NMTAP	88	192	5
NMTAP	88	216	4
NMTAP	88	240	5
BXTAP	88	288	0
BXTAP	88	288	7
BRTAP	89	0	1
NMTAP	89	24	0
NMTAP	89	48	1
NMTAP	89	72	0
NMTAP	89	96	1
BRTAP	89	144	6
NMTAP	89	168	7
NMTAP	89	192	6
NMTAP	89	216	7
NMTAP	89	240	6
BRTAP	89	288	2
NMTAP	89	312	3
NMTAP	89	336	2
NMTAP	89	360	3
NMTAP	90	0	2
BRTAP	90	48	5
NMTAP	90	72	4
NMTAP	90	96	5
NMTAP	90	120	4
NMTAP	90	144	5
BRTAP	90	192	3
NMTAP	90	216	4
NMTAP	90	240	3
NMTAP	90	264	4
NMSTR	90	288	3
BRSF_	90	288	3	96	96	7
BXSTR	91	192	0
NMSCR	91	192	0	96	2928	7
BXTAP	91	192	6
NMTHO	95	192	0	1488	C	0	M1

T_REC_TAP	330
T_REC_BRK	23
T_REC_XTP	46
T_REC_BXX	54
T_REC_HLD	33
T_REC_XHO	18
T_REC_BHO	1
T_REC_BXH	0
T_REC_STR	35
T_REC_BST	2
T_REC_XST	5
T_REC_XBS	4
T_REC_TTP	25
T_REC_THO	2
T_REC_SLD	52
T_REC_BSL	1
T_REC_ALL	631
T_NUM_TAP	441
T_NUM_BRK	85
T_NUM_HLD	53
T_NUM_SLD	52
T_NUM_ALL	631
T_JUDGE_TAP	524
T_JUDGE_HLD	173
T_JUDGE_SLD	53
T_JUDGE_ALL	750
TTM_EACHPAIRS	139
TTM_SCR_TAP	220500
TTM_SCR_BRK	221000
TTM_SCR_HLD	53000
TTM_SCR_SLD	78000
TTM_SCR_ALL	572500
TTM_SCR_S	547100
TTM_SCR_SS	564000
TTM_RAT_ACV	10150

