VERSION	0.00.00	1.04.00
FES_MODE	0
BPM_DEF	184.000	184.000	184.000	184.000
MET_DEF	4	4
RESOLUTION	384
CLK_DEF	384
COMPATIBLE_CODE	MA2

BPM	0	0	184.000
MET	0	0	4	4
MET	37	0	4	6
MET	38	192	4	4
MET	41	192	4	6
MET	43	0	4	4
MET	91	0	4	2
MET	91	192	4	4

NMTAP	2	0	2
NMTAP	2	192	2
NMTAP	3	0	2
NMTAP	3	192	2
NMTAP	4	0	3
NMTAP	4	192	3
NMTAP	5	0	3
NMTAP	5	192	3
NMTAP	6	0	4
NMTAP	6	192	4
NMTAP	7	0	4
NMTAP	7	192	4
NMTAP	8	0	5
NMTAP	8	192	5
NMTAP	9	0	5
NMTAP	9	192	5
NMHLD	10	0	5	192
NMHLD	10	192	4	192
NMHLD	11	0	3	192
NMTAP	11	192	2
NMHLD	12	0	2	192
NMHLD	12	192	3	192
NMHLD	13	0	4	192
NMTAP	13	192	5
NMHLD	14	0	6	192
NMHLD	14	192	7	192
NMHLD	15	0	0	192
NMTAP	15	192	1
NMHLD	16	0	1	192
NMHLD	16	192	0	192
NMHLD	17	0	7	192
BXTAP	17	192	6
NMTAP	18	0	6
NMTAP	18	96	6
NMTAP	18	192	6
NMTAP	18	288	6
NMTAP	19	0	5
NMTAP	19	96	5
NMTAP	19	192	5
NMTAP	19	288	5
NMTAP	20	0	4
NMTAP	20	96	4
NMTAP	20	192	4
NMTAP	20	288	4
NMTAP	21	0	3
NMTAP	21	96	3
NMTAP	21	192	2
NMTAP	21	192	3
NMTAP	22	0	1
NMTAP	22	96	1
NMTAP	22	192	1
NMTAP	22	288	1
NMTAP	23	0	2
NMTAP	23	96	2
NMTAP	23	192	2
NMTAP	23	288	2
NMTAP	24	0	3
NMTAP	24	96	3
NMTAP	24	192	3
NMTAP	24	288	3
NMTAP	25	0	4
NMTAP	25	96	4
NMTAP	25	192	4
NMTAP	25	192	5
NMTAP	26	0	6
NMTAP	26	96	6
NMTAP	26	192	5
NMTAP	26	288	5
NMTAP	27	0	4
NMTAP	27	96	4
NMTAP	27	192	2
NMTAP	27	192	3
NMTAP	28	0	1
NMTAP	28	96	1
NMTAP	28	192	2
NMTAP	28	288	2
NMTAP	29	0	3
NMTAP	29	96	3
NMTAP	29	192	4
NMTAP	29	192	5
EXTAP	30	0	3
EXTAP	30	72	3
EXTAP	30	144	3
EXTAP	31	0	4
EXTAP	31	72	4
EXTAP	31	144	4
NMHLD	32	0	3	192
NMHLD	32	0	4	192
NMTAP	33	0	3
NMTAP	33	0	4
NMTAP	33	96	3
NMTAP	33	96	4
BRTAP	33	192	2
BRTAP	33	192	5
NMTTP	34	0	3	B	0	L1
NMTTP	34	96	2	B	0	L1
NMTTP	34	192	1	B	0	L1
NMTTP	34	192	1	E	0	L1
NMTTP	35	0	7	B	0	L1
NMTTP	35	96	6	B	0	L1
NMTTP	35	192	5	B	0	L1
NMTTP	35	192	5	E	0	L1
NMTTP	36	0	3	B	0	L1
NMTTP	36	96	2	B	0	L1
NMTTP	36	192	1	B	0	L1
NMTTP	36	192	1	E	0	L1
NMTTP	37	0	6	B	0	L1
NMTTP	37	0	7	E	0	L1
NMTTP	37	192	4	B	0	L1
NMTTP	37	192	5	E	0	L1
NMTTP	38	0	2	B	0	L1
NMTTP	38	0	3	E	0	L1
NMTTP	38	192	4	B	0	L1
NMTTP	38	288	5	B	0	L1
NMTTP	39	0	6	B	0	L1
NMTTP	39	0	7	E	0	L1
NMTTP	39	192	0	B	0	L1
NMTTP	39	288	1	B	0	L1
NMTTP	40	0	2	B	0	L1
NMTTP	40	0	3	E	0	L1
NMTTP	40	192	4	B	0	L1
NMTTP	40	288	5	B	0	L1
NMTTP	41	0	6	B	0	L1
NMTTP	41	0	7	E	0	L1
NMTTP	41	192	0	C	1	L1
NMTAP	43	0	0
NMTAP	43	0	1
NMTAP	43	96	0
NMTAP	43	96	1
NMTAP	43	192	1
NMTAP	43	240	1
NMTAP	43	288	1
NMTAP	44	0	2
NMTAP	44	0	3
NMTAP	44	96	2
NMTAP	44	96	3
NMTAP	44	192	3
NMTAP	44	240	3
NMTAP	44	288	3
NMTAP	45	0	4
NMTAP	45	0	5
NMTAP	45	96	4
NMTAP	45	96	5
NMTAP	45	192	5
NMTAP	45	240	5
NMTAP	45	288	5
EXTAP	46	0	6
EXTAP	46	0	7
EXTAP	46	96	6
EXTAP	46	96	7
EXTAP	46	192	6
EXTAP	46	192	7
NMTAP	47	0	6
NMTAP	47	0	7
NMTAP	47	96	6
NMTAP	47	96	7
NMTAP	47	192	6
NMTAP	47	240	6
NMTAP	47	288	6
NMTAP	48	0	4
NMTAP	48	0	5
NMTAP	48	96	4
NMTAP	48	96	5
NMTAP	48	192	4
NMTAP	48	240	4
NMTAP	48	288	4
NMTAP	49	0	2
NMTAP	49	0	3
NMTAP	49	96	2
NMTAP	49	96	3
NMTAP	49	192	2
NMTAP	49	240	2
NMTAP	49	288	2
EXTAP	50	0	0
EXTAP	50	0	1
EXTAP	50	96	0
EXTAP	50	96	1
BRTAP	50	192	0
BRTAP	50	192	1
NMHLD	51	0	1	192
NMHLD	51	192	2	192
NMHLD	52	0	3	192
NMHLD	52	192	4	192
NMHLD	53	0	5	192
NMHLD	53	192	6	192
NMTAP	54	0	7
NMHLD	55	0	6	192
NMHLD	55	192	5	192
NMHLD	56	0	4	192
NMHLD	56	192	3	192
NMHLD	57	0	2	192
NMHLD	57	192	1	192
NMTAP	58	0	0
NMSTR	59	0	1
NMSI_	59	0	1	96	192	4
NMSTR	60	0	6
NMSI_	60	0	6	96	192	3
NMSTR	61	0	1
NMSI_	61	0	1	96	192	4
NMSTR	62	0	6
NMSI_	62	0	6	96	192	3
NMTAP	63	0	1
NMTAP	63	96	1
NMTAP	63	192	2
NMTAP	63	288	2
NMTAP	64	0	3
NMTAP	64	96	3
NMTAP	64	192	4
NMTAP	64	288	4
NMTAP	65	0	5
NMTAP	65	96	5
NMTAP	65	192	6
NMTAP	65	288	6
NMTAP	66	0	0
NMTAP	66	0	7
NMTAP	66	96	0
NMTAP	66	96	7
BRTAP	66	192	0
BRTAP	66	192	7
NMTAP	67	0	6
NMTAP	67	96	6
NMTAP	67	192	6
NMTAP	67	192	7
NMTAP	67	288	6
NMTAP	67	288	7
NMTAP	68	0	4
NMTAP	68	0	5
NMTAP	68	96	4
NMTAP	68	96	5
NMTAP	68	192	2
NMTAP	68	192	3
NMTAP	68	288	2
NMTAP	68	288	3
NMTAP	69	0	4
NMTAP	69	48	4
NMTAP	69	96	4
NMTAP	69	192	3
NMTAP	69	240	3
NMTAP	69	288	3
NMTAP	70	0	2
NMTAP	70	48	2
NMTAP	70	96	2
EXTAP	70	192	2
EXTAP	70	192	3
NMTAP	71	0	0
NMTAP	71	0	1
NMTAP	71	96	0
NMTAP	71	96	1
NMTAP	71	192	2
NMTAP	71	240	2
NMTAP	71	288	2
NMTAP	72	0	3
NMTAP	72	0	4
NMTAP	72	96	3
NMTAP	72	96	4
NMTAP	72	192	5
NMTAP	72	240	5
NMTAP	72	288	5
NMTAP	73	0	6
NMTAP	73	0	7
NMTAP	73	96	6
NMTAP	73	96	7
NMTAP	73	192	5
NMTAP	73	240	5
NMTAP	73	288	5
NMTAP	74	0	3
NMTAP	74	0	4
NMTAP	74	96	3
NMTAP	74	96	4
BXTAP	74	192	2
BXTAP	74	192	3
NMTAP	75	0	1
NMTAP	75	96	1
NMTAP	75	192	0
NMTAP	75	192	1
NMTAP	75	288	0
NMTAP	75	288	1
NMTAP	76	0	2
NMTAP	76	0	3
NMTAP	76	96	2
NMTAP	76	96	3
NMTAP	76	192	4
NMTAP	76	192	5
NMTAP	76	288	4
NMTAP	76	288	5
NMTAP	77	0	3
NMTAP	77	48	3
NMTAP	77	96	3
NMTAP	77	192	4
NMTAP	77	240	4
NMTAP	77	288	4
NMTAP	78	0	5
NMTAP	78	48	5
NMTAP	78	96	5
EXTAP	78	192	4
EXTAP	78	192	5
NMTAP	79	0	6
NMTAP	79	0	7
NMTAP	79	96	6
NMTAP	79	96	7
NMTAP	79	192	5
NMTAP	79	240	5
NMTAP	79	288	5
NMTAP	80	0	3
NMTAP	80	0	4
NMTAP	80	96	3
NMTAP	80	96	4
NMTAP	80	192	2
NMTAP	80	240	2
NMTAP	80	288	2
NMHLD	81	0	1	192
NMHLD	81	192	0	192
NMHLD	82	0	7	192
BRTAP	82	192	6
NMTAP	83	0	5
NMTAP	83	48	5
NMTAP	83	96	5
NMTAP	83	192	4
NMTAP	83	192	5
NMTAP	83	288	4
NMTAP	83	288	5
NMTAP	84	0	2
NMTAP	84	48	2
NMTAP	84	96	2
NMTAP	84	192	2
NMTAP	84	192	3
NMTAP	84	288	2
NMTAP	84	288	3
NMTAP	85	0	5
NMTAP	85	48	5
NMTAP	85	96	5
NMTAP	85	192	4
NMTAP	85	192	5
NMTAP	85	288	4
NMTAP	85	288	5
NMTAP	86	0	2
NMTAP	86	48	2
NMTAP	86	96	2
NMTAP	86	192	2
NMTAP	86	192	3
NMTAP	86	288	2
NMTAP	86	288	3
NMTAP	87	0	1
NMTAP	87	48	1
NMTAP	87	96	1
NMTAP	87	192	0
NMTAP	87	192	1
NMTAP	87	288	0
NMTAP	87	288	1
NMTAP	88	0	6
NMTAP	88	48	6
NMTAP	88	96	6
NMTAP	88	192	6
NMTAP	88	192	7
NMTAP	88	288	6
NMTAP	88	288	7
EXTAP	89	0	0
EXTAP	89	0	7
EXTAP	89	144	0
EXTAP	89	144	7
EXTAP	89	288	0
EXTAP	89	288	7
EXTAP	90	48	0
EXTAP	90	48	7
EXHLD	90	192	0	192
EXHLD	90	192	7	192
NMSTR	91	192	0
NMSCL	91	192	0	96	240	5
NMSTR	91	192	1
NMSCR	91	192	1	96	240	4
NMSTR	93	192	6
NMSCL	93	192	6	96	240	3
NMSTR	93	192	7
NMSCR	93	192	7	96	240	2
NMSTR	95	192	0
NMSCL	95	192	0	96	240	5
NMSTR	95	192	1
NMSCR	95	192	1	96	240	4
NMSTR	97	192	6
NMSCL	97	192	6	96	240	3
NMSTR	97	192	7
NMSCR	97	192	7	96	240	2

T_REC_TAP	258
T_REC_BRK	7
T_REC_XTP	28
T_REC_BXX	3
T_REC_HLD	29
T_REC_XHO	2
T_REC_BHO	0
T_REC_BXH	0
T_REC_STR	12
T_REC_BST	0
T_REC_XST	0
T_REC_XBS	0
T_REC_TTP	31
T_REC_THO	0
T_REC_SLD	12
T_REC_BSL	0
T_REC_ALL	382
T_NUM_TAP	329
T_NUM_BRK	10
T_NUM_HLD	31
T_NUM_SLD	12
T_NUM_ALL	382
T_JUDGE_TAP	339
T_JUDGE_HLD	124
T_JUDGE_SLD	12
T_JUDGE_ALL	475
TTM_EACHPAIRS	77
TTM_SCR_TAP	164500
TTM_SCR_BRK	26000
TTM_SCR_HLD	31000
TTM_SCR_SLD	18000
TTM_SCR_ALL	239500
TTM_SCR_S	231350
TTM_SCR_SS	238500
TTM_RAT_ACV	10041

