VERSION	0.00.00	1.04.00
FES_MODE	0
BPM_DEF	164.000	164.000	212.000	162.000
MET_DEF	4	4
RESOLUTION	384
CLK_DEF	384
COMPATIBLE_CODE	MA2

BPM	0	0	164.000
BPM	45	0	212.000
BPM	58	0	162.000
MET	0	0	4	4
MET	45	0	4	3
MET	57	0	4	4

NMTAP	1	288	0
NMTAP	1	312	1
NMTAP	1	336	2
NMTAP	1	360	3
NMTAP	2	0	4
NMTAP	2	0	5
NMTAP	2	48	4
NMTAP	2	48	5
NMTAP	2	144	2
NMTAP	2	144	6
NMSTR	2	192	2
NMSLL	2	192	2	96	96	6
NMTAP	2	192	6
NMSTR	2	288	6
NMSLL	2	288	6	96	96	2
NMSTR	3	0	2
NMSLL	3	0	2	96	96	6
NMSTR	3	96	6
NMSUL	3	96	6	96	96	2
NMTAP	3	192	2
NMTAP	3	288	7
NMTAP	3	312	6
NMTAP	3	336	5
NMTAP	3	360	4
NMTAP	4	0	2
NMTAP	4	0	3
NMTAP	4	48	2
NMTAP	4	48	3
NMTAP	4	144	1
NMTAP	4	144	5
NMTAP	4	192	1
NMSTR	4	192	5
NMSLR	4	192	5	96	96	2
NMSTR	4	288	2
NMSLR	4	288	2	96	96	7
NMSTR	5	0	7
NMSI_	5	0	7	96	48	3
NMTAP	5	192	1
NMTAP	5	192	5
NMTAP	5	288	3
NMTAP	5	288	4
NMTAP	5	312	2
NMTAP	5	336	1
NMTAP	5	360	0
NMSTR	6	0	6
NMSSL	6	0	6	96	192	2
NMTAP	6	0	7
NMTAP	6	96	0
NMTAP	6	144	1
NMSTR	6	192	2
NMSI_	6	192	2	96	48	0
NMSI_	6	192	2	96	48	4
NMSTR	7	0	5
NMSSR	7	0	5	96	192	1
NMTAP	7	0	6
NMTAP	7	96	7
NMTAP	7	144	0
NMSTR	7	192	1
NMSI_	7	192	1	96	48	3
NMSI_	7	192	1	96	48	7
EXSTR	8	0	4
NMSCL	8	0	4	96	48	1
EXTAP	8	0	5
NMTAP	8	48	5
NMTAP	8	96	6
NMTAP	8	144	6
EXTAP	8	192	0
EXSTR	8	192	7
NMSCL	8	192	7	96	48	4
NMTAP	8	240	0
NMTAP	8	288	1
NMTAP	8	336	1
EXSTR	9	0	2
NMSI_	9	0	2	96	48	6
EXTAP	9	0	3
NMSTR	9	96	0
NMSI_	9	96	0	96	48	4
NMTAP	9	96	2
NMTAP	9	192	0
NMSTR	9	192	3
NMSI_	9	192	3	96	48	7
NMTAP	9	288	3
NMTAP	9	288	5
NMTAP	10	0	4
NMTAP	10	48	2
NMTAP	10	48	6
NMTAP	10	96	3
NMTAP	10	144	1
NMTAP	10	144	5
NMTAP	10	192	2
NMTAP	10	216	3
NMTAP	10	240	2
NMTAP	10	264	3
NMTAP	10	288	1
NMTAP	10	312	4
NMTAP	10	336	1
NMTAP	10	360	4
BRSTR	11	0	0
NMSUR	11	0	0	96	192	1
NMSTR	11	0	5
NMSUL	11	0	5	96	192	3
NMTAP	12	0	2
NMHLD	12	48	2	336
NMTAP	12	144	4
NMTAP	12	240	4
NMTAP	12	336	4
NMTAP	13	0	3
NMHLD	13	48	3	336
NMTAP	13	144	5
NMTAP	13	240	5
NMTAP	13	336	5
NMTAP	14	0	4
NMHLD	14	48	4	336
NMTAP	14	144	6
NMTAP	14	240	6
NMTAP	14	336	6
NMTAP	15	0	5
NMHLD	15	48	5	240
NMTAP	15	144	6
NMTAP	15	240	7
NMTAP	15	288	7
NMTAP	16	0	5
NMHLD	16	48	5	336
NMTAP	16	144	3
NMTAP	16	240	3
NMTAP	16	336	3
NMTAP	17	0	4
NMHLD	17	48	4	336
NMTAP	17	144	2
NMTAP	17	240	2
NMTAP	17	336	2
NMTAP	18	0	3
NMHLD	18	48	3	336
NMTAP	18	144	1
NMTAP	18	240	1
NMTAP	18	336	1
NMTAP	19	0	2
NMHLD	19	48	2	336
NMTAP	19	144	1
NMTAP	19	240	1
NMTAP	19	336	1
NMHLD	20	0	0	96
NMTAP	20	96	1
NMTAP	20	120	0
NMTAP	20	144	1
NMTAP	20	168	0
NMTAP	20	192	2
NMTAP	20	216	7
NMTAP	20	240	2
NMTAP	20	264	7
NMTAP	20	288	3
NMTAP	20	312	6
NMTAP	20	336	3
NMTAP	20	360	6
NMTAP	21	0	4
NMSTR	21	0	5
NMSI_	21	0	5	96	48	0
NMTAP	21	48	4
NMHLD	21	48	5	96
NMSTR	21	192	2
NMSI_	21	192	2	96	48	7
NMTAP	21	192	3
NMHLD	21	240	2	96
NMTAP	21	240	3
NMTAP	22	0	4
NMTAP	22	0	6
NMTAP	22	48	4
NMTAP	22	48	6
NMTAP	22	96	5
NMSTR	22	144	4
NMSI_	22	144	4	96	48	0
NMSTR	22	144	6
NMSI_	22	144	6	96	48	2
NMTAP	22	240	4
NMTAP	22	240	6
NMTAP	22	336	1
NMTAP	23	0	0
NMSTR	23	0	1
NMSI_	23	0	1	96	48	4
NMTAP	23	48	0
NMHLD	23	48	1	96
NMSTR	23	192	6
NMSI_	23	192	6	96	48	3
NMTAP	23	192	7
NMHLD	23	240	6	96
NMTAP	23	240	7
NMTAP	24	0	0
NMTAP	24	0	2
NMTAP	24	48	0
NMTAP	24	48	2
NMTAP	24	96	1
NMSTR	24	144	0
NMSI_	24	144	0	96	48	4
NMSTR	24	144	2
NMSI_	24	144	2	96	48	6
NMTAP	24	240	0
NMTAP	24	240	2
NMTAP	24	336	5
NMTAP	25	0	4
NMSTR	25	0	5
NMSI_	25	0	5	96	48	2
NMSTR	25	96	5
NMSUR	25	96	5	96	96	3
NMTAP	25	96	6
NMHLD	25	192	5	96
NMSTR	26	0	2
NMSI_	26	0	2	96	48	5
NMTAP	26	0	3
NMTAP	26	96	1
NMSTR	26	96	2
NMSUL	26	96	2	96	96	4
NMHLD	26	192	2	96
NMSTR	27	0	5
NMSCL	27	0	5	96	96	2
NMSTR	27	96	2
NMSCL	27	96	2	96	96	7
NMSTR	27	192	7
NMSCL	27	192	7	96	96	4
NMSTR	27	288	4
NMSCL	27	288	4	96	96	1
EXHLD	28	0	0	144
CNSCR	28	96	1	0	192	0
EXTAP	29	0	1
EXTAP	29	0	2
EXTAP	29	72	1
EXTAP	29	72	2
EXTAP	29	144	1
EXTAP	29	144	2
BRSTR	29	192	0
NMSI_	29	192	0	96	48	2
NMSI_	29	192	0	96	48	5
NMTAP	30	0	3
NMTAP	30	24	4
NMTAP	30	48	3
NMTAP	30	96	3
NMTAP	30	120	5
NMTAP	30	144	3
NMTAP	30	192	3
NMTAP	30	216	4
NMTAP	30	240	3
NMTAP	30	288	3
NMTAP	30	312	6
NMTAP	30	336	3
NMTAP	31	0	4
NMTAP	31	24	5
NMTAP	31	48	4
NMTAP	31	96	4
NMTAP	31	120	7
NMTAP	31	144	4
NMTAP	31	192	4
NMTAP	31	216	5
NMTAP	31	240	4
NMTAP	31	288	4
NMTAP	31	312	0
NMTAP	31	336	4
NMTAP	32	0	5
NMTAP	32	24	6
NMTAP	32	48	5
NMTAP	32	96	5
NMTAP	32	120	1
NMTAP	32	144	5
NMTAP	32	192	5
NMTAP	32	216	6
NMTAP	32	240	5
NMTAP	32	288	4
NMTAP	32	288	7
NMTAP	33	0	6
NMTAP	33	24	7
NMTAP	33	48	6
NMTAP	33	96	6
NMTAP	33	120	1
NMTAP	33	144	6
NMTAP	33	192	6
NMTAP	33	216	7
NMTAP	33	240	6
NMTAP	33	288	6
NMTAP	33	312	2
NMTAP	33	336	6
NMTAP	34	0	7
NMTAP	34	24	0
NMTAP	34	48	7
NMTAP	34	96	7
NMTAP	34	120	3
NMTAP	34	144	7
NMTAP	34	192	7
NMTAP	34	216	0
NMTAP	34	240	7
NMTAP	34	288	7
NMTAP	34	312	4
NMTAP	34	336	7
NMTAP	35	0	0
NMTAP	35	24	1
NMTAP	35	48	0
NMTAP	35	96	0
NMTAP	35	120	5
NMTAP	35	144	0
NMTAP	35	192	0
NMTAP	35	216	1
NMTAP	35	240	0
NMTAP	35	288	0
NMTAP	35	312	6
NMTAP	35	336	0
NMTAP	36	0	2
NMTAP	36	0	7
NMTAP	36	48	2
NMTAP	36	48	7
NMTAP	36	96	0
NMTAP	36	96	6
NMTAP	36	144	0
NMTAP	36	144	6
NMTAP	36	192	2
NMTAP	36	216	5
NMTAP	36	240	2
NMTAP	36	264	5
NMTAP	36	288	3
NMTAP	36	312	4
NMTAP	36	336	3
NMTAP	36	360	4
EXTAP	37	0	5
EXTAP	37	0	6
EXTAP	37	72	5
EXTAP	37	72	6
EXTAP	37	144	5
EXTAP	37	144	6
BRSTR	37	192	7
NMSI_	37	192	7	96	48	2
NMSI_	37	192	7	96	48	5
NMTAP	38	0	4
NMTAP	38	24	3
NMTAP	38	48	4
NMTAP	38	96	4
NMTAP	38	120	2
NMTAP	38	144	4
NMTAP	38	192	4
NMTAP	38	216	3
NMTAP	38	240	4
NMTAP	38	288	4
NMTAP	38	312	1
NMTAP	38	336	4
NMTAP	39	0	3
NMTAP	39	24	2
NMTAP	39	48	3
NMTAP	39	96	3
NMTAP	39	120	0
NMTAP	39	144	3
NMTAP	39	192	3
NMTAP	39	216	2
NMTAP	39	240	3
NMTAP	39	288	3
NMTAP	39	312	7
NMTAP	39	336	3
NMTAP	40	0	2
NMTAP	40	24	1
NMTAP	40	48	2
NMTAP	40	96	2
NMTAP	40	120	6
NMTAP	40	144	2
EXTAP	40	192	0
EXTAP	40	192	3
EXTAP	40	216	0
EXTAP	40	216	3
NMTAP	40	288	2
NMTAP	40	336	2
NMTAP	41	0	3
NMTAP	41	0	4
NMTAP	41	48	5
NMTAP	41	96	2
NMTAP	41	96	4
NMTAP	41	144	6
NMTAP	41	192	3
NMTAP	41	192	5
NMTAP	41	240	7
NMTAP	41	288	4
NMTAP	41	288	6
NMTAP	41	336	0
NMTAP	42	0	3
NMTAP	42	0	7
NMTAP	42	48	1
NMTAP	42	96	0
NMTAP	42	96	3
NMTAP	42	144	2
NMTAP	42	192	1
NMTAP	42	192	3
NMTAP	42	240	4
NMTAP	42	288	2
NMTAP	42	288	3
NMTAP	42	336	5
NMSTR	43	0	4
NMSI_	43	0	4	96	48	2
NMTAP	43	0	6
NMTAP	43	48	5
NMTAP	43	96	4
NMTAP	43	96	6
NMTAP	43	192	1
NMSTR	43	192	3
NMSI_	43	192	3	96	48	5
NMTAP	43	240	2
NMTAP	43	288	1
NMTAP	43	288	3
NMTAP	44	0	0
NMTAP	44	0	6
NMTAP	44	48	2
NMTAP	44	96	1
NMTAP	44	96	7
NMTAP	44	144	5
NMTAP	44	192	6
NMTAP	44	192	7
NMTAP	44	240	0
NMTAP	44	256	1
NMTAP	44	272	2
NMSTR	44	288	3
NMSSR	44	288	3	96	576	7
NMTAP	44	288	4
NMTHO	46	192	0	288	C	0	M1
CNSSR	46	192	7	0	576	3
NMSTR	48	0	5
NMSSR	48	0	5	96	480	1
NMTHO	49	192	0	288	C	0	M1
CNSSR	49	192	1	0	576	5
NMSTR	51	0	2
NMSSL	51	0	2	96	480	6
NMTHO	52	192	0	288	C	0	M1
CNSSL	52	192	6	0	576	2
NMSTR	54	0	6
NMSI_	54	0	6	96	192	3
NMSTR	54	288	1
NMSI_	54	288	1	96	192	4
NMSTR	55	192	5
NMSI_	55	192	5	96	192	3
NMSTR	56	96	2
NMSCR	56	96	2	96	480	5
NMHLD	58	0	6	384
NMTAP	58	96	7
NMTAP	58	144	7
NMTAP	58	240	5
NMTAP	58	288	5
NMHLD	59	0	4	384
NMTAP	59	96	5
NMTAP	59	144	5
NMTAP	59	240	3
NMTAP	59	288	3
NMHLD	60	0	2	384
NMTAP	60	96	3
NMTAP	60	144	3
NMTAP	60	240	1
NMTAP	60	288	1
NMHLD	61	0	0	192
EXTAP	61	144	1
EXTAP	61	168	2
EXTAP	61	192	3
NMHLD	62	0	5	384
NMTAP	62	96	4
NMTAP	62	144	4
NMTAP	62	240	6
NMTAP	62	288	6
NMHLD	63	0	7	384
NMTAP	63	96	6
NMTAP	63	144	6
NMTAP	63	240	0
NMTAP	63	288	0
NMHLD	64	0	1	288
NMTAP	64	96	0
NMTAP	64	144	0
NMTAP	64	240	2
NMTAP	64	288	2
NMTAP	65	0	3
NMTAP	65	48	3
NMTAP	65	96	4
NMTAP	65	144	4
NMSTR	65	192	2
NMSI_	65	192	2	96	48	7
NMSTR	65	192	5
NMSI_	65	192	5	96	48	0
NMSTR	66	0	6
NMSI_	66	0	6	96	48	3
NMTAP	66	24	7
NMTAP	66	48	6
NMSTR	66	144	0
NMSI_	66	144	0	96	48	4
NMTAP	66	168	7
NMTAP	66	192	0
NMSTR	66	288	6
NMSI_	66	288	6	96	48	3
NMTAP	66	312	7
NMTAP	66	336	6
NMSTR	67	48	0
NMSI_	67	48	0	96	48	4
NMTAP	67	72	7
NMTAP	67	96	0
BRSTR	67	192	7
NMSF_	67	192	7	96	48	3
BRTAP	67	288	7
NMSTR	68	0	1
NMSI_	68	0	1	96	48	4
NMTAP	68	24	0
NMTAP	68	48	1
NMSTR	68	144	7
NMSI_	68	144	7	96	48	3
NMTAP	68	168	0
NMTAP	68	192	7
NMSTR	68	288	1
NMSI_	68	288	1	96	48	4
NMTAP	68	312	0
NMTAP	68	336	1
NMSTR	69	48	7
NMSI_	69	48	7	96	48	3
NMTAP	69	72	0
NMTAP	69	96	7
BXHLD	69	192	2	72
BXHLD	69	264	4	72
BXTAP	69	336	3
NMSTR	70	0	5
NMSI_	70	0	5	96	48	0
NMTAP	70	24	4
NMTAP	70	48	5
NMSTR	70	144	3
NMSI_	70	144	3	96	48	7
NMTAP	70	168	4
NMTAP	70	192	3
NMSTR	70	288	5
NMSI_	70	288	5	96	48	0
NMTAP	70	312	4
NMTAP	70	336	5
NMSTR	71	48	3
NMSI_	71	48	3	96	48	7
NMTAP	71	72	4
NMTAP	71	96	3
BRSTR	71	192	5
NMSF_	71	192	5	96	48	1
BRTAP	71	288	5
NMTAP	72	0	3
NMSTR	72	0	7
NMSI_	72	0	7	96	48	3
NMTAP	72	96	2
NMTAP	72	144	1
NMSTR	72	192	0
NMSI_	72	192	0	96	48	4
NMTAP	72	192	4
NMTAP	72	288	5
NMTAP	72	336	6
NMTAP	73	0	3
NMTAP	73	0	7
NMTAP	73	48	3
NMTAP	73	48	7
NMTAP	73	96	1
NMTAP	73	96	5
NMTAP	73	144	1
NMTAP	73	144	5
NMTAP	73	192	0
NMTAP	73	216	7
NMTAP	73	240	0
NMTAP	73	264	7
NMTAP	73	288	1
NMTAP	73	312	6
NMTAP	73	336	1
NMTAP	73	360	6
NMTAP	74	0	3
NMTAP	74	24	4
NMTAP	74	48	2
NMTAP	74	72	5
NMSTR	74	96	3
NMSF_	74	96	3	96	48	7
NMTAP	74	144	3
BRTAP	74	288	1
BRTAP	74	288	5
NMTAP	75	0	3
NMTAP	75	0	7
NMTAP	75	24	6
NMTAP	75	48	5
NMTAP	75	72	4
NMSTR	75	96	3
NMSI_	75	96	3	96	48	7
NMTAP	75	96	7
NMTAP	75	144	0
NMTAP	75	192	1
NMTAP	75	192	3
NMTAP	75	240	2
NMTAP	75	288	3
NMTAP	75	288	6
NMTAP	75	336	5
NMTAP	76	0	0
NMTAP	76	0	4
NMTAP	76	24	1
NMTAP	76	48	2
NMTAP	76	72	3
NMTAP	76	96	0
NMSTR	76	96	4
NMSI_	76	96	4	96	48	0
NMTAP	76	144	7
NMTAP	76	192	4
NMSTR	76	192	6
NMSI_	76	192	6	96	48	1
NMSI_	76	192	6	96	48	3
NMTAP	76	288	6
NMTAP	77	0	2
NMTAP	77	0	4
NMTAP	77	48	5
NMSTR	77	96	6
NMSI_	77	96	6	96	48	2
NMTAP	77	96	7
NMTAP	77	144	0
NMSTR	77	192	1
NMSI_	77	192	1	96	48	4
NMTAP	77	192	6
NMTAP	77	288	1
NMTAP	77	288	5
NMTAP	78	0	2
NMSTR	78	0	7
NMSI_	78	0	7	96	48	3
NMSTR	78	96	1
NMSCR	78	96	1	96	96	6
NMTAP	78	96	7
NMTAP	78	144	0
NMTAP	78	192	1
NMTAP	78	192	5
NMTAP	78	288	7
NMTAP	78	336	7
NMTAP	79	0	0
NMTAP	79	0	5
NMTAP	79	24	1
NMTAP	79	48	2
NMTAP	79	72	3
NMTAP	79	96	0
NMSTR	79	96	4
NMSI_	79	96	4	96	48	0
NMTAP	79	144	7
NMTAP	79	192	4
NMTAP	79	192	6
NMTAP	79	240	5
NMTAP	79	288	1
NMTAP	79	288	4
NMTAP	79	336	2
NMTAP	80	0	3
NMTAP	80	0	7
NMTAP	80	24	6
NMTAP	80	48	5
NMTAP	80	72	4
NMSTR	80	96	3
NMSI_	80	96	3	96	48	7
NMTAP	80	96	7
NMTAP	80	144	0
NMSTR	80	192	1
NMSI_	80	192	1	96	48	4
NMSI_	80	192	1	96	48	6
NMTAP	80	192	3
NMTAP	80	288	1
NMTAP	81	0	3
NMTAP	81	0	5
NMTAP	81	48	2
NMTAP	81	96	0
NMSTR	81	96	1
NMSI_	81	96	1	96	48	4
NMTAP	81	144	7
NMTAP	81	192	1
NMSTR	81	192	6
NMSI_	81	192	6	96	48	2
NMTAP	81	240	5
NMTAP	81	288	2
NMTAP	81	288	6
NMTAP	81	336	3
BRSTR	82	0	1
NMSI_	82	0	1	96	48	4
BRSTR	82	0	5
NMSI_	82	0	5	96	48	0
BRSTR	82	96	1
NMSI_	82	96	1	96	48	6
BRSTR	82	96	5
NMSI_	82	96	5	96	48	2
BRTAP	82	192	1
BRTAP	82	192	5
BRTAP	82	288	0
BRTAP	82	288	4
EXTAP	83	0	3
EXSTR	83	0	7
NMSI_	83	0	7	96	48	3
NMTAP	83	24	6
NMTAP	83	48	5
NMTAP	83	72	4
NMTAP	83	96	3
EXTAP	83	192	2
EXSTR	83	192	6
NMSI_	83	192	6	96	48	2
NMTAP	83	216	5
NMTAP	83	240	4
NMTAP	83	264	3
NMTAP	83	288	2
EXTAP	84	0	1
EXSTR	84	0	5
NMSI_	84	0	5	96	48	1
NMTAP	84	24	4
NMTAP	84	48	3
NMTAP	84	72	2
NMTAP	84	96	1
BXSTR	84	192	2
BRSI_	84	192	2	96	48	7
BXSTR	84	192	6
BRSI_	84	192	6	96	48	3
NMTAP	84	288	2
NMTAP	84	288	6
EXSTR	85	0	0
NMSI_	85	0	0	96	48	4
EXTAP	85	0	4
NMTAP	85	24	1
NMTAP	85	48	2
NMTAP	85	72	3
NMTAP	85	96	4
EXSTR	85	192	1
NMSI_	85	192	1	96	48	5
EXTAP	85	192	5
NMTAP	85	216	2
NMTAP	85	240	3
NMTAP	85	264	4
NMTAP	85	288	5
EXSTR	86	0	2
NMSI_	86	0	2	96	48	6
EXTAP	86	0	6
NMTAP	86	24	3
NMTAP	86	48	4
NMTAP	86	72	5
NMTAP	86	96	6
BXSTR	86	192	1
BRSI_	86	192	1	96	48	5
BXSTR	86	192	7
BRSI_	86	192	7	96	48	3
NMTAP	86	240	0
NMTAP	86	288	1
NMTAP	86	288	7
NMTAP	87	0	4
NMTAP	87	0	6
NMHLD	87	48	4	48
NMHLD	87	48	6	48
NMSTR	87	144	5
NMSLL	87	144	5	96	96	0
NMTAP	87	168	5
NMHLD	87	192	5	96
NMTAP	88	0	1
NMTAP	88	0	7
NMHLD	88	48	1	48
NMHLD	88	48	7	48
NMSTR	88	144	0
NMSLL	88	144	0	96	96	3
NMTAP	88	168	0
NMHLD	88	192	0	96
NMTAP	89	0	2
NMTAP	89	0	4
NMHLD	89	48	2	48
NMHLD	89	48	4	48
NMSTR	89	144	3
NMSLL	89	144	3	96	96	6
NMTAP	89	168	3
NMHLD	89	192	3	96
NMTAP	90	0	5
NMTAP	90	0	7
NMHLD	90	48	5	48
NMHLD	90	48	7	48
NMSTR	90	144	6
NMSLL	90	144	6	96	96	1
NMTAP	90	168	6
NMHLD	90	192	6	96
NMSTR	91	0	0
NMSSL	91	0	0	96	576	4
NMSTR	92	0	5
NMSI_	92	0	5	96	192	0
BRHLD	93	0	2	96
BRHLD	93	0	5	96
NMTAP	93	128	3
NMTAP	93	128	4
NMTAP	93	160	3
NMTAP	93	160	4
NMSTR	93	192	3
NMSI_	93	192	3	96	48	7
NMTAP	93	192	4
NMTAP	93	256	2
NMTAP	93	288	3
NMTAP	93	320	2
NMTAP	94	0	0
NMSTR	94	0	7
NMSI_	94	0	7	96	64	4
NMTAP	94	64	6
NMTAP	94	96	7
NMTAP	94	128	6
NMSTR	94	192	4
NMSI_	94	192	4	96	64	0
NMTAP	94	192	5
NMTAP	94	256	3
NMTAP	94	288	4
NMTAP	94	320	3
BRHLD	95	0	1	96
BRHLD	95	0	7	96
NMTAP	95	128	3
NMTAP	95	128	4
NMTAP	95	160	3
NMTAP	95	160	4
NMTAP	95	192	3
NMSTR	95	192	4
NMSI_	95	192	4	96	64	7
NMTAP	95	256	5
NMTAP	95	288	4
NMTAP	95	320	5
NMTAP	96	0	0
NMSTR	96	0	7
NMSI_	96	0	7	96	64	3
NMTAP	96	64	6
NMTAP	96	96	7
NMTAP	96	128	6
NMHLD	96	192	1	32
NMHLD	96	192	5	32
NMHLD	96	256	3	32
NMHLD	96	256	7	32
NMTAP	96	320	2
NMTAP	96	320	6
NMTAP	96	336	1
NMTAP	96	336	5
NMTAP	96	352	0
NMTAP	96	352	4
NMTAP	96	368	3
NMTAP	96	368	7
NMTAP	97	0	2
NMSTR	97	0	6
NMSCR	97	0	6	96	864	5
NMTHO	97	160	0	800	C	0	M1
CNSCL	99	192	5	0	368	2

T_REC_TAP	521
T_REC_BRK	8
T_REC_XTP	28
T_REC_BXX	1
T_REC_HLD	38
T_REC_XHO	1
T_REC_BHO	4
T_REC_BXH	2
T_REC_STR	80
T_REC_BST	9
T_REC_XST	9
T_REC_XBS	4
T_REC_TTP	0
T_REC_THO	4
T_REC_SLD	104
T_REC_BSL	4
T_REC_ALL	817
T_NUM_TAP	638
T_NUM_BRK	32
T_NUM_HLD	43
T_NUM_SLD	104
T_NUM_ALL	817
T_JUDGE_TAP	660
T_JUDGE_HLD	188
T_JUDGE_SLD	108
T_JUDGE_ALL	956
TTM_EACHPAIRS	143
TTM_SCR_TAP	319000
TTM_SCR_BRK	83200
TTM_SCR_HLD	43000
TTM_SCR_SLD	156000
TTM_SCR_ALL	601200
TTM_SCR_S	580100
TTM_SCR_SS	598000
TTM_RAT_ACV	10053

