VERSION	0.00.00	1.04.00
FES_MODE	0
BPM_DEF	164.000	164.000	212.000	162.000
MET_DEF	4	4
RESOLUTION	384
CLK_DEF	384
COMPATIBLE_CODE	MA2

BPM	0	0	164.000
BPM	45	0	212.000
BPM	58	0	162.000
MET	0	0	4	4
MET	45	0	4	3
MET	57	0	4	4

NMTAP	2	0	3
NMTAP	2	0	5
NMTAP	2	48	3
NMTAP	2	48	5
NMTAP	2	144	2
NMTAP	2	144	4
NMTAP	2	192	2
NMTAP	2	192	4
NMHLD	2	288	1	96
NMTAP	3	0	3
NMHLD	3	96	4	96
NMTAP	3	192	2
NMTAP	3	288	2
NMTAP	3	288	4
NMTAP	4	0	2
NMTAP	4	48	2
NMTAP	4	48	3
NMTAP	4	144	4
NMTAP	4	192	3
NMTAP	4	192	4
NMTAP	4	288	5
NMTAP	5	0	4
NMTAP	5	0	6
NMTAP	5	96	7
NMTAP	5	192	0
NMTAP	5	192	7
NMTAP	5	288	1
NMSTR	5	288	6
NMSCR	5	288	6	96	192	3
NMSTR	6	288	1
NMSCL	6	288	1	96	192	4
NMTAP	6	288	4
NMTAP	7	288	2
NMSTR	7	288	5
NMSCL	7	288	5	96	192	0
NMSTR	8	288	2
NMSCR	8	288	2	96	192	7
NMTAP	8	288	7
NMTAP	9	288	0
NMTAP	10	0	6
NMTAP	10	48	6
NMTAP	10	96	2
NMTAP	10	144	2
NMTAP	10	192	5
NMTAP	10	240	5
NMSTR	10	288	3
NMSV_	10	288	3	96	192	0
NMSTR	10	288	4
NMSV_	10	288	4	96	192	7
BXTAP	11	288	1
BXTAP	11	288	6
NMHLD	12	0	2	384
NMTAP	12	192	4
NMTAP	12	288	3
NMHLD	13	0	3	384
NMTAP	13	192	5
NMTAP	13	288	4
NMHLD	14	0	4	384
NMTAP	14	192	6
NMTAP	14	288	5
NMHLD	15	0	5	192
NMTAP	15	192	4
NMHLD	16	0	5	384
NMTAP	16	192	3
NMTAP	16	288	4
NMHLD	17	0	4	384
NMTAP	17	192	2
NMTAP	17	288	3
NMHLD	18	0	3	384
NMTAP	18	192	1
NMTAP	18	288	2
NMSTR	19	0	2
NMSCR	19	0	2	96	288	5
NMTHO	20	0	0	192	C	0	M1
EXTAP	21	0	0
EXTAP	21	0	7
EXTAP	21	48	0
EXTAP	21	48	7
NMTAP	21	192	1
NMTAP	21	192	3
NMTAP	21	240	1
NMTAP	21	240	3
NMTAP	22	0	4
NMTAP	22	0	6
NMSTR	22	48	4
NMSI_	22	48	4	96	48	2
NMSTR	22	48	6
NMSI_	22	48	6	96	48	2
EXTAP	22	288	0
NMTAP	23	0	1
NMTAP	23	0	3
NMTAP	23	48	1
NMTAP	23	48	3
NMTAP	23	192	4
NMTAP	23	192	6
NMTAP	23	240	4
NMTAP	23	240	6
NMTAP	24	0	1
NMTAP	24	0	3
NMSTR	24	48	1
NMSI_	24	48	1	96	48	5
NMSTR	24	48	3
NMSI_	24	48	3	96	48	5
EXTAP	24	288	7
NMHLD	25	0	2	288
NMTAP	25	96	0
NMTAP	25	192	1
NMTAP	25	288	3
NMHLD	26	0	5	288
NMTAP	26	96	4
NMTAP	26	192	6
NMTAP	26	288	7
NMHLD	27	0	0	96
NMHLD	27	0	4	96
NMTAP	27	192	0
NMTAP	27	192	4
NMSTR	27	288	1
NMSCR	27	288	1	96	192	6
NMTAP	27	288	5
EXTAP	28	288	0
EXTAP	28	288	7
EXTAP	29	0	3
EXTAP	29	0	5
EXTAP	29	72	2
EXTAP	29	72	4
EXTAP	29	144	1
EXTAP	29	144	5
BXHLD	29	192	1	96
BXHLD	29	192	5	96
NMTAP	30	0	2
NMTAP	30	48	2
NMTAP	30	96	3
NMTAP	30	144	1
NMTAP	30	192	5
NMTAP	30	240	5
NMTAP	30	288	4
NMTAP	30	336	6
NMTAP	31	0	1
NMTAP	31	48	1
NMTAP	31	96	0
NMTAP	31	144	2
NMTAP	31	192	6
NMTAP	31	240	6
NMTAP	31	288	7
NMTAP	31	336	5
NMTAP	32	0	3
NMTAP	32	48	2
NMTAP	32	96	4
NMTAP	32	144	5
NMTAP	32	192	2
NMTAP	32	240	2
NMTAP	32	288	4
NMTAP	32	336	4
NMTAP	33	0	0
NMTAP	33	48	1
NMTAP	33	96	7
NMTAP	33	144	6
NMTAP	33	192	3
NMTAP	33	240	3
NMTAP	33	288	5
NMTAP	33	336	5
NMTAP	34	0	3
NMTAP	34	48	2
NMTAP	34	96	4
NMTAP	34	144	5
NMTAP	34	192	1
NMTAP	34	240	1
NMTAP	34	288	3
NMTAP	34	336	3
NMTAP	35	0	0
NMTAP	35	48	0
NMTAP	35	96	7
NMTAP	35	144	7
NMTAP	35	192	4
NMTAP	35	240	4
NMTAP	35	288	5
NMTAP	35	336	5
NMTAP	36	0	3
NMTAP	36	0	5
NMTAP	36	96	2
NMTAP	36	96	4
NMTAP	36	192	1
NMTAP	36	192	5
EXTAP	36	288	0
EXTAP	36	288	7
EXTAP	37	0	1
EXTAP	37	0	7
EXTAP	37	72	0
EXTAP	37	72	6
EXTAP	37	144	1
EXTAP	37	144	5
BXHLD	37	192	1	96
BXHLD	37	192	5	96
NMTAP	38	0	2
NMTAP	38	48	2
NMTAP	38	96	3
NMTAP	38	144	1
NMTAP	38	192	5
NMTAP	38	240	5
NMTAP	38	288	4
NMTAP	38	336	6
NMTAP	39	0	1
NMTAP	39	48	1
NMTAP	39	96	0
NMTAP	39	144	2
NMTAP	39	192	6
NMTAP	39	240	6
NMTAP	39	288	7
NMTAP	39	336	5
NMTAP	40	0	1
NMTAP	40	48	1
NMTAP	40	96	0
NMTAP	40	96	2
BXHLD	40	192	1	96
NMTAP	40	192	3
EXTAP	40	288	0
NMTAP	41	0	2
NMTAP	41	48	2
NMTAP	41	96	3
NMTAP	41	144	1
NMTAP	41	192	4
NMTAP	41	240	5
NMTAP	41	288	3
NMTAP	41	336	2
NMTAP	42	0	5
NMTAP	42	48	5
NMTAP	42	96	4
NMTAP	42	144	6
NMTAP	42	192	3
NMTAP	42	240	2
NMTAP	42	288	4
NMTAP	42	336	5
NMTAP	43	0	2
NMTAP	43	48	2
NMTAP	43	96	3
NMTAP	43	144	1
NMTAP	43	192	7
NMTAP	43	240	7
NMTAP	43	288	4
NMTAP	43	336	4
NMTAP	44	0	5
NMTAP	44	48	5
NMTAP	44	96	4
NMTAP	44	144	6
NMTAP	44	192	0
NMTAP	44	240	0
NMHLD	44	288	7	96
NMTTP	45	0	0	C	1	M1
NMTHO	46	192	0	288	C	0	M1
NMTTP	48	0	0	B	0	M1
NMTTP	48	0	7	B	0	M1
NMTTP	48	288	1	B	0	M1
NMTTP	48	288	6	B	0	M1
NMTHO	49	192	0	288	C	0	M1
NMTTP	49	192	2	B	0	M1
NMTTP	49	192	5	B	0	M1
NMTTP	51	0	6	A	0	M1
NMTTP	51	96	6	E	0	M1
NMTTP	51	192	5	E	0	M1
NMTTP	51	288	4	A	0	M1
NMTTP	52	192	1	A	0	M1
NMTTP	52	288	2	E	0	M1
NMTTP	53	0	3	E	0	M1
NMTTP	53	96	3	A	0	M1
NMTTP	54	0	5	A	0	M1
NMTTP	54	96	5	E	0	M1
NMTTP	54	192	4	B	0	M1
NMTTP	54	288	3	B	0	M1
NMTTP	55	0	3	E	0	M1
NMTTP	55	96	2	A	0	M1
NMTHO	55	192	0	288	C	0	M1
NMTAP	57	0	0
NMHLD	57	0	7	384
EXSTR	58	0	1
NMSCL	58	0	1	96	288	6
NMTAP	58	288	5
NMSTR	59	0	5
NMSCL	59	0	5	96	288	2
NMTAP	59	288	1
NMSTR	60	0	1
NMSCL	60	0	1	96	288	6
NMTAP	60	288	4
NMTAP	61	0	4
NMTAP	61	96	4
NMTAP	61	192	5
NMTAP	61	288	4
NMTAP	61	288	5
NMTAP	62	0	3
NMSTR	62	0	6
NMSCR	62	0	6	96	288	1
NMTAP	62	288	2
NMSTR	63	0	2
NMSCR	63	0	2	96	288	5
NMTAP	63	288	6
NMHLD	64	0	6	192
NMHLD	64	192	7	192
NMTAP	65	0	0
NMTAP	65	96	0
NMTAP	65	192	1
NMTAP	65	192	7
EXTAP	66	0	2
EXTAP	66	24	3
EXTAP	66	48	2
EXTAP	66	144	5
EXTAP	66	168	4
EXTAP	66	192	5
EXTAP	66	288	2
EXTAP	66	312	3
EXTAP	66	336	2
EXTAP	67	48	6
EXTAP	67	72	7
EXHLD	67	96	6	96
BXTAP	67	192	0
BXTAP	67	288	1
BXTAP	67	288	5
NMTAP	68	0	5
NMTAP	68	24	4
NMTAP	68	48	5
NMTAP	68	144	2
NMTAP	68	168	3
NMTAP	68	192	2
NMTAP	68	288	5
NMTAP	68	312	4
NMTAP	68	336	5
NMTAP	69	48	1
NMTAP	69	72	0
NMHLD	69	96	1	96
NMTTP	69	192	0	C	1	M1
NMTAP	70	0	1
NMTAP	70	24	0
NMTAP	70	48	1
NMTAP	70	144	6
NMTAP	70	168	7
NMTAP	70	192	6
NMTAP	70	288	1
NMTAP	70	312	0
NMTAP	70	336	1
NMTAP	71	48	5
NMTAP	71	72	4
NMHLD	71	96	5	96
BRTAP	71	192	3
BRTAP	71	288	2
BRTAP	71	288	4
NMHLD	72	0	1	96
NMHLD	72	0	5	96
NMHLD	72	192	2	96
NMHLD	72	192	6	96
NMTAP	73	0	6
NMTAP	73	48	6
NMTAP	73	96	1
NMTAP	73	144	1
NMTAP	73	192	7
NMTAP	73	216	0
NMTAP	73	240	7
NMTAP	73	264	0
NMTAP	73	288	7
NMTAP	73	312	0
NMTAP	73	336	7
NMTAP	73	360	0
NMSTR	74	0	6
NMSI_	74	0	6	96	96	2
BRTAP	74	288	0
NMSTR	75	0	1
NMSI_	75	0	1	96	48	4
NMTAP	75	48	1
NMSTR	75	96	5
NMSI_	75	96	5	96	48	0
NMTAP	75	144	5
NMTAP	75	192	2
NMTAP	75	288	3
NMTAP	75	288	7
NMSTR	76	0	6
NMSI_	76	0	6	96	48	3
NMTAP	76	48	6
NMSTR	76	96	2
NMSI_	76	96	2	96	48	7
NMTAP	76	144	2
NMTAP	76	192	5
NMTAP	76	288	0
NMTAP	76	288	4
NMTAP	77	0	1
NMTAP	77	0	3
NMTAP	77	48	2
NMTAP	77	96	3
NMTAP	77	96	5
NMTAP	77	192	4
NMTAP	77	192	6
NMTAP	77	240	5
NMTAP	77	288	2
NMTAP	77	288	4
NMTAP	78	0	1
NMTAP	78	24	0
NMTAP	78	48	1
NMTAP	78	96	6
NMTAP	78	120	7
NMTAP	78	144	6
NMTAP	78	192	0
NMTAP	78	192	5
BRTAP	78	288	1
BRTAP	78	288	4
NMSTR	79	0	5
NMSI_	79	0	5	96	48	7
NMTAP	79	96	3
NMSTR	79	192	1
NMSI_	79	192	1	96	48	5
NMTAP	79	288	7
NMSTR	80	0	6
NMSI_	80	0	6	96	48	2
NMSTR	80	96	0
NMSCR	80	96	0	96	144	5
EXTAP	80	192	7
NMTAP	81	0	6
NMTAP	81	48	6
NMHLD	81	96	6	96
NMTAP	81	192	7
NMTAP	81	288	0
NMTAP	81	288	1
BRTAP	82	0	2
BRTAP	82	0	7
BRTAP	82	96	0
BRTAP	82	96	5
BRTAP	82	192	3
BRTAP	82	192	6
BRTAP	82	288	2
BRTAP	82	288	5
NMSTR	83	0	1
NMSI_	83	0	1	96	48	4
NMSTR	83	96	0
NMSI_	83	96	0	96	48	5
NMSTR	83	192	2
NMSI_	83	192	2	96	48	7
NMSTR	83	288	3
NMSI_	83	288	3	96	48	6
NMTAP	84	0	0
NMTAP	84	96	0
NMTAP	84	96	1
NMTAP	84	144	2
NMTAP	84	144	7
NMTAP	84	192	3
NMTAP	84	192	6
NMTAP	84	288	1
NMTAP	84	288	4
NMSTR	85	0	6
NMSI_	85	0	6	96	48	3
NMSTR	85	96	7
NMSI_	85	96	7	96	48	2
NMSTR	85	192	5
NMSI_	85	192	5	96	48	0
NMSTR	85	288	4
NMSI_	85	288	4	96	48	1
NMTAP	86	0	7
NMTAP	86	96	6
NMTAP	86	96	7
NMTAP	86	144	0
NMTAP	86	144	5
NMTAP	86	192	1
NMTAP	86	192	4
NMTAP	86	288	3
NMTAP	86	288	6
EXTAP	87	0	2
EXTAP	87	0	3
EXTAP	87	48	2
EXTAP	87	48	3
NMTAP	87	144	1
NMTAP	87	168	0
NMTAP	87	192	1
NMTAP	87	288	2
NMTAP	87	288	7
EXTAP	88	0	4
EXTAP	88	0	5
EXTAP	88	48	4
EXTAP	88	48	5
NMTAP	88	144	6
NMTAP	88	168	7
NMTAP	88	192	6
NMTAP	88	288	0
NMTAP	88	288	5
NMSTR	89	0	1
NMSI_	89	0	1	96	48	4
NMSTR	89	0	4
NMSI_	89	0	4	96	48	7
EXTAP	89	192	0
EXTAP	89	288	7
NMSTR	90	0	3
NMSI_	90	0	3	96	48	0
NMSTR	90	0	6
NMSI_	90	0	6	96	48	3
EXTAP	90	192	7
EXTAP	90	288	0
NMTAP	91	0	0
NMSTR	91	0	7
NMSSR	91	0	7	96	576	3
BRTAP	93	0	2
BRTAP	93	0	4
NMTAP	93	128	2
NMTAP	93	160	3
NMHLD	93	192	1	64
NMHLD	93	256	3	64
NMHLD	93	320	5	64
NMHLD	94	0	7	64
NMHLD	94	64	1	64
NMHLD	94	128	3	64
NMHLD	94	192	5	64
NMTAP	94	256	7
NMTAP	94	320	7
BRTAP	95	0	0
BRTAP	95	0	6
NMTAP	95	128	5
NMTAP	95	160	4
NMHLD	95	192	6	64
NMHLD	95	256	4	64
NMHLD	95	320	2	64
NMHLD	96	0	0	64
NMHLD	96	64	6	64
NMHLD	96	128	4	64
NMHLD	96	192	2	64
NMHLD	96	256	0	64
NMTHO	96	320	0	224	C	0	M1
NMSTR	97	160	0
NMSCL	97	160	0	96	512	4
CNSUL	99	0	4	0	384	1

T_REC_TAP	298
T_REC_BRK	18
T_REC_XTP	47
T_REC_BXX	5
T_REC_HLD	39
T_REC_XHO	1
T_REC_BHO	0
T_REC_BXH	5
T_REC_STR	39
T_REC_BST	0
T_REC_XST	1
T_REC_XBS	0
T_REC_TTP	22
T_REC_THO	5
T_REC_SLD	40
T_REC_BSL	0
T_REC_ALL	520
T_NUM_TAP	407
T_NUM_BRK	28
T_NUM_HLD	45
T_NUM_SLD	40
T_NUM_ALL	520
T_JUDGE_TAP	430
T_JUDGE_HLD	173
T_JUDGE_SLD	40
T_JUDGE_ALL	643
TTM_EACHPAIRS	85
TTM_SCR_TAP	203500
TTM_SCR_BRK	72800
TTM_SCR_HLD	45000
TTM_SCR_SLD	60000
TTM_SCR_ALL	381300
TTM_SCR_S	367150
TTM_SCR_SS	378500
TTM_RAT_ACV	10073

