VERSION	0.00.00	1.04.00
FES_MODE	0
BPM_DEF	145.000	148.000	149.000	140.000
MET_DEF	4	4
RESOLUTION	384
CLK_DEF	384
COMPATIBLE_CODE	MA2

BPM	0	0	145.000
BPM	17	0	147.000
BPM	29	0	148.000
BPM	30	0	149.000
BPM	36	0	148.000
BPM	76	192	140.000
MET	0	0	4	4
MET	54	0	4	2
MET	54	192	4	4
MET	76	192	4	2
MET	78	192	4	1
MET	78	288	4	2

NMSTR	1	0	1
NMSI_	1	0	1	96	48	4
NMTAP	1	0	3
NMTAP	1	72	5
NMHLD	1	144	6	96
NMTAP	1	240	4
NMTAP	1	288	3
NMTAP	1	312	5
NMTAP	1	336	3
NMTAP	1	360	5
NMTAP	2	0	2
NMTAP	2	24	4
NMTAP	2	48	2
NMTAP	2	72	4
NMTAP	2	96	2
NMTAP	2	120	4
NMTAP	2	144	3
NMTAP	2	168	5
NMHLD	2	192	3	144
NMTAP	2	336	4
NMTAP	3	0	5
NMHLD	3	72	4	216
NMHLD	3	72	6	216
NMTAP	3	336	3
NMHLD	4	0	2	384
NMSTR	4	0	4
NMSXL	4	0	4	96	192	3
NMTAP	5	0	4
NMTAP	5	72	3
NMTAP	5	72	4
NMTAP	5	144	3
NMTAP	5	144	5
NMTAP	5	288	5
NMTAP	5	312	3
NMSTR	5	336	5
NMSI_	5	336	5	96	48	0
NMTAP	5	360	3
NMHLD	6	0	5	144
NMSTR	6	144	3
NMSI_	6	144	3	96	48	7
NMHLD	6	192	3	144
NMSTR	6	336	6
NMSI_	6	336	6	96	48	3
NMHLD	7	0	6	144
NMSTR	7	144	2
NMSI_	7	144	2	96	48	7
NMHLD	7	192	2	144
NMSTR	7	336	5
NMSXR	7	336	5	96	144	0
NMHLD	8	0	5	288
BRTAP	8	288	0
NMTAP	9	0	1
NMTAP	9	0	4
NMTAP	9	72	2
NMTAP	9	72	3
NMTAP	9	144	1
NMTAP	9	144	3
NMHLD	9	192	1	96
NMSTR	9	192	3
NMSI_	9	192	3	96	48	7
NMHLD	10	0	7	72
NMTAP	10	72	3
NMTAP	10	120	6
NMTAP	10	144	4
NMTAP	10	168	5
NMTAP	10	192	3
NMTAP	10	216	3
NMTAP	10	240	2
NMTAP	10	264	2
NMTAP	10	288	1
NMTAP	10	312	1
NMTAP	10	336	0
NMTAP	10	360	0
NMTAP	11	0	7
NMTAP	11	72	3
NMTAP	11	72	5
NMSTR	11	144	2
NMSI_	11	144	2	96	48	5
NMTAP	11	144	6
NMHLD	11	192	2	96
NMTAP	11	192	6
NMTAP	11	336	2
NMSTR	11	336	6
NMSI_	11	336	6	96	48	1
NMTAP	12	0	2
NMHLD	12	0	6	96
NMSTR	12	144	2
NMSCR	12	144	2	96	48	5
NMTAP	12	144	6
NMHLD	12	192	2	96
NMTAP	12	192	6
NMTAP	13	0	3
NMTAP	13	0	6
NMTAP	13	72	4
NMTAP	13	72	5
NMTAP	13	144	4
NMTAP	13	144	6
NMSTR	13	192	4
NMSI_	13	192	4	96	48	0
NMHLD	13	192	6	96
NMHLD	14	0	0	72
NMTAP	14	72	3
NMTAP	14	120	1
NMTAP	14	144	3
NMTAP	14	168	2
NMTAP	14	192	4
NMTAP	14	216	4
NMTAP	14	240	5
NMTAP	14	264	5
NMTAP	14	288	6
NMTAP	14	312	6
NMTAP	14	336	7
NMTAP	14	360	7
NMTAP	15	0	0
NMTAP	15	72	2
NMTAP	15	72	4
NMTAP	15	144	1
NMTAP	15	144	5
NMTAP	15	192	1
NMSTR	15	192	5
NMSCL	15	192	5	96	48	2
NMSTR	15	288	0
NMSI_	15	288	0	96	48	3
NMTAP	15	288	5
NMTAP	16	0	0
NMSTR	16	0	7
NMSI_	16	0	7	96	48	4
NMSTR	16	96	5
NMSI_	16	96	5	96	48	1
NMTAP	16	96	7
NMSTR	16	192	3
NMSI_	16	192	3	96	48	0
NMTAP	16	192	5
NMTAP	16	288	3
BRTAP	16	288	7
NMTAP	17	0	2
NMTAP	17	72	2
NMSTR	17	96	3
NMSCR	17	96	3	96	96	7
NMTAP	17	144	2
NMTAP	17	216	2
NMTAP	17	288	2
NMTAP	18	0	5
NMTAP	18	72	5
NMSTR	18	96	4
NMSCL	18	96	4	96	96	0
NMTAP	18	144	5
NMTAP	18	216	5
NMTAP	18	288	5
NMTAP	19	0	2
NMTAP	19	72	2
NMSTR	19	96	7
NMSCL	19	96	7	96	96	3
NMTAP	19	144	2
NMTAP	19	216	2
NMTAP	19	288	2
NMTAP	20	0	5
NMTAP	20	72	5
NMSTR	20	96	0
NMSCR	20	96	0	96	96	4
NMTAP	20	144	5
NMTAP	20	216	5
NMHLD	20	288	5	96
NMTAP	21	0	3
NMTAP	21	96	1
NMTAP	21	144	1
NMTAP	21	192	2
NMTAP	21	216	3
NMTAP	21	240	2
NMTAP	21	264	3
NMTAP	21	288	2
NMTAP	21	336	1
NMTAP	21	360	3
NMTAP	22	0	1
NMTAP	22	24	3
NMTAP	22	48	1
NMTAP	22	72	3
NMTAP	22	96	1
NMTAP	22	144	0
NMTAP	22	168	3
NMTAP	22	192	0
NMTAP	22	216	3
NMTAP	22	240	0
NMTAP	22	264	3
NMTAP	22	288	0
NMTAP	22	336	7
NMTAP	22	360	3
NMTAP	23	0	7
NMTAP	23	24	3
NMTAP	23	48	7
NMTAP	23	72	3
NMTAP	23	96	7
NMTAP	23	120	3
NMTAP	23	144	7
NMTAP	23	168	3
NMSTR	23	192	0
NMSI_	23	192	0	96	48	4
NMTAP	23	264	7
NMSTR	23	288	0
NMSCR	23	288	0	96	48	3
NMTAP	23	360	7
NMSTR	24	0	0
NMSI_	24	0	0	96	48	5
NMTAP	24	72	4
NMSTR	24	96	0
NMSI_	24	96	0	96	48	3
NMTAP	24	168	4
NMSTR	24	192	0
NMSI_	24	192	0	96	48	4
NMTAP	24	264	7
NMSTR	24	288	0
NMSXR	24	288	0	96	192	3
NMTAP	24	360	7
NMTAP	25	0	0
NMTAP	25	192	4
NMSTR	25	288	7
NMSXR	25	288	7	96	192	4
NMTAP	25	336	7
NMTAP	26	0	4
NMTAP	26	72	3
NMTAP	26	144	2
NMTAP	26	216	1
NMSTR	26	288	0
NMSXL	26	288	0	96	192	3
NMTAP	26	336	0
NMTAP	27	0	3
NMTAP	27	72	4
NMTAP	27	144	5
NMTAP	27	216	6
NMSTR	27	288	7
NMSI_	27	288	7	96	48	3
NMTAP	27	336	7
NMTAP	28	0	2
NMTAP	28	48	2
NMTAP	28	96	1
NMTAP	28	144	1
NMTAP	28	192	0
NMTAP	28	216	3
NMTAP	28	240	0
NMTAP	28	264	3
BRTAP	28	288	1
BRTAP	28	312	4
BRTAP	28	336	3
BRTAP	28	360	6
NMTTP	29	96	5	A	0	M1
NMTTP	29	144	6	E	0	M1
NMTTP	29	192	3	B	0	M1
NMTTP	29	192	4	B	0	M1
NMTTP	29	240	2	E	0	M1
NMTTP	29	288	2	A	0	M1
NMHLD	30	0	0	96
NMHLD	30	0	1	96
NMHLD	30	144	1	96
NMHLD	30	144	2	96
NMTAP	30	288	2
NMTAP	30	288	3
NMHLD	30	336	2	96
NMHLD	30	336	3	96
NMTAP	31	96	3
NMSTR	31	96	4
NMSCR	31	96	4	96	48	7
NMTAP	31	144	3
NMTAP	31	144	4
NMSTR	31	192	3
NMSCL	31	192	3	96	48	0
NMTAP	31	192	4
NMTAP	31	288	3
NMSTR	31	288	7
NMSCL	31	288	7	96	48	4
NMHLD	32	0	0	96
NMTAP	32	0	7
NMTAP	32	96	3
NMHLD	32	144	0	96
NMHLD	32	144	3	96
NMTAP	32	288	1
NMTAP	32	288	4
NMHLD	32	336	1	96
NMHLD	32	336	4	96
NMTTP	33	96	5	D	0	M1
NMTTP	33	144	4	D	0	M1
NMTTP	33	192	3	D	0	M1
NMTTP	33	240	2	E	0	M1
NMTTP	33	288	3	B	0	M1
NMTTP	33	336	4	B	0	M1
NMTTP	34	0	6	E	0	M1
NMTAP	34	96	6
NMTAP	34	96	7
NMHLD	34	144	6	96
NMHLD	34	144	7	96
NMTAP	34	288	5
NMTAP	34	288	6
NMHLD	34	336	4	144
NMHLD	34	336	5	144
NMTAP	35	144	3
NMTAP	35	144	4
NMSTR	35	192	3
NMSCL	35	192	3	96	48	0
NMTAP	35	192	4
NMTAP	35	288	3
NMSTR	35	288	4
NMSCR	35	288	4	96	48	7
NMSTR	36	0	0
NMSCR	36	0	0	96	48	3
NMTAP	36	0	4
NMTAP	36	96	7
NMHLD	36	144	7	96
NMTAP	36	288	4
NMTAP	36	288	6
NMHLD	36	336	4	96
NMHLD	36	336	6	96
NMTTP	37	96	5	E	0	M1
NMTTP	37	144	4	E	0	M1
NMTTP	37	192	3	E	0	M1
BRTAP	37	240	0
BRSTR	37	288	7
NMSI_	37	288	7	96	48	3
NMTAP	38	0	2
NMTAP	38	96	2
NMTAP	38	144	3
NMTAP	38	192	2
NMHLD	38	192	3	96
NMTAP	38	288	2
NMTAP	38	336	4
NMTAP	39	0	0
NMTAP	39	0	4
NMTAP	39	96	0
NMSTR	39	96	5
NMSI_	39	96	5	96	48	3
NMTAP	39	144	6
NMTAP	39	192	0
NMSTR	39	192	5
NMSI_	39	192	5	96	48	7
NMTAP	39	288	0
NMTAP	39	288	5
NMTAP	40	0	3
NMTAP	40	0	7
NMTAP	40	96	3
NMTAP	40	96	5
NMHLD	40	144	5	96
NMTAP	40	192	3
NMTAP	40	288	3
NMTAP	40	288	6
NMHLD	40	336	6	96
NMTAP	41	0	1
NMTAP	41	96	1
NMSTR	41	96	7
NMSI_	41	96	7	96	48	3
NMTAP	41	144	6
NMTAP	41	192	1
NMSTR	41	192	7
NMSI_	41	192	7	96	48	4
NMTAP	41	288	1
NMTAP	41	288	7
NMTAP	42	0	3
NMTAP	42	0	5
NMTAP	42	96	4
NMTAP	42	96	5
NMHLD	42	144	4	96
NMTAP	42	192	5
NMTAP	42	288	3
NMTAP	42	288	5
NMHLD	42	336	2	96
NMTAP	43	0	7
NMTAP	43	96	7
NMTAP	43	144	3
NMSTR	43	192	4
NMSI_	43	192	4	96	48	0
NMTAP	43	192	7
NMTAP	43	240	5
NMTAP	43	288	4
NMTAP	43	288	7
NMTAP	44	0	0
NMTAP	44	0	4
NMTAP	44	96	1
NMTAP	44	96	4
NMHLD	44	144	1	96
NMTAP	44	192	4
NMSTR	44	288	2
NMSI_	44	288	2	96	48	5
NMTAP	44	288	4
NMSTR	45	0	2
NMSI_	45	0	2	96	48	0
NMTAP	45	0	6
NMSTR	45	96	2
NMSI_	45	96	2	96	48	4
NMTAP	45	96	6
NMSTR	45	192	2
NMSI_	45	192	2	96	48	7
NMTAP	45	192	6
NMSTR	45	288	2
NMSXR	45	288	2	96	288	4
NMTAP	45	288	6
BRTAP	46	0	4
NMTAP	47	0	6
NMTAP	47	48	5
NMTAP	47	96	4
NMTAP	47	144	5
NMTAP	47	192	3
NMTAP	48	0	1
NMTAP	48	48	2
NMTAP	48	96	3
NMTAP	48	144	2
NMTAP	48	192	3
NMTAP	48	240	4
NMTAP	48	288	3
NMTAP	48	336	4
NMTAP	49	0	3
NMTAP	49	0	5
NMTAP	49	48	6
NMTAP	49	96	5
NMTAP	49	144	4
NMTAP	49	192	3
NMTAP	49	192	5
NMTAP	49	336	4
NMTAP	50	0	3
NMTAP	50	48	2
NMTAP	50	96	2
NMTAP	50	144	1
NMTAP	50	144	3
NMTAP	50	336	3
NMTAP	51	0	4
NMTAP	51	48	5
NMTAP	51	96	5
NMTAP	51	144	4
NMTAP	51	144	6
NMTAP	51	336	4
NMTAP	52	0	4
NMTAP	52	48	3
NMTAP	52	96	2
NMTAP	52	144	1
NMTAP	52	144	5
NMTAP	52	336	3
NMTAP	53	0	3
NMTAP	53	48	4
NMTAP	53	96	5
NMTAP	53	144	5
NMTAP	53	192	2
NMTAP	53	192	4
NMTAP	53	240	3
NMTAP	53	288	2
NMHLD	53	336	2	144
NMHLD	54	192	3	32
NMHLD	54	256	3	32
NMHLD	54	320	3	32
NMTAP	54	336	4
NMHLD	55	0	3	32
NMHLD	55	64	3	32
NMHLD	55	128	3	32
NMTAP	55	144	4
NMHLD	55	192	4	32
NMHLD	55	256	4	32
NMHLD	55	320	4	32
NMTAP	56	0	3
NMHLD	56	0	4	32
NMHLD	56	64	4	32
NMTAP	56	96	3
NMHLD	56	128	4	32
NMHLD	56	192	3	32
NMTAP	56	192	4
NMTAP	56	240	4
NMHLD	56	256	3	32
NMHLD	56	320	3	32
NMTAP	56	336	4
NMHLD	57	0	3	32
NMHLD	57	64	3	32
NMHLD	57	128	3	32
NMTAP	57	144	4
NMHLD	57	192	4	32
NMHLD	57	256	4	32
NMTAP	57	288	3
NMHLD	57	320	4	32
NMTAP	58	0	3
NMHLD	58	0	4	32
NMHLD	58	64	4	32
NMTAP	58	96	3
NMHLD	58	128	4	32
NMHLD	58	192	2	32
NMHLD	58	256	2	32
NMHLD	58	320	2	32
NMTAP	58	336	3
NMHLD	59	0	2	32
NMHLD	59	64	2	32
NMHLD	59	128	2	32
NMTAP	59	144	3
NMHLD	59	192	5	32
NMHLD	59	256	5	32
NMHLD	59	320	5	32
NMTAP	60	0	4
NMHLD	60	0	5	32
NMHLD	60	64	5	32
NMTAP	60	96	4
NMHLD	60	128	5	32
NMHLD	60	192	3	32
NMTAP	60	192	4
NMTAP	60	240	4
NMHLD	60	256	3	32
NMHLD	60	320	3	32
NMTAP	60	336	4
NMHLD	61	0	4	32
NMHLD	61	64	4	32
NMHLD	61	128	4	32
NMTAP	61	144	3
NMTAP	61	192	3
NMTAP	61	192	4
NMTAP	61	288	4
NMTAP	61	336	3
NMTAP	61	336	5
NMTAP	62	0	2
NMTAP	62	0	6
NMTAP	62	48	1
NMTAP	62	48	7
NMSTR	62	96	0
BRSF_	62	96	0	96	48	4
BXTAP	62	192	0
NMTAP	62	288	2
NMTAP	62	288	6
NMTAP	62	336	7
NMSTR	63	0	0
NMSCL	63	0	0	96	48	5
NMTAP	63	96	0
NMSTR	63	96	4
NMSI_	63	96	4	96	48	0
NMTAP	63	144	2
NMSTR	63	192	1
NMSCR	63	192	1	96	48	4
NMTAP	63	192	4
NMTAP	63	288	1
NMTAP	63	288	5
NMTAP	63	336	6
NMTAP	64	0	3
NMTAP	64	0	7
NMTAP	64	48	6
NMTAP	64	72	4
NMSTR	64	96	2
NMSI_	64	96	2	96	48	5
NMTAP	64	144	1
NMTAP	64	192	2
NMTAP	64	192	6
NMTAP	64	288	6
NMSTR	64	336	7
NMSCR	64	336	7	96	48	2
NMSTR	65	48	4
NMSF_	65	48	4	96	48	0
NMTAP	65	48	7
NMTAP	65	96	5
NMTAP	65	144	4
NMTAP	65	240	2
NMTAP	65	240	6
NMTAP	65	288	2
NMTAP	65	288	6
NMTAP	65	336	5
NMTAP	66	0	1
NMTAP	66	48	1
NMTAP	66	72	7
NMSTR	66	96	5
NMSI_	66	96	5	96	48	1
NMTAP	66	144	6
NMSTR	66	192	4
NMSCR	66	192	4	96	48	7
NMTAP	66	288	1
NMTAP	66	288	4
NMSTR	66	336	0
NMSI_	66	336	0	96	48	4
NMTAP	67	48	0
NMSTR	67	48	3
NMSCL	67	48	3	96	48	0
NMTAP	67	96	2
NMTAP	67	144	3
NMTAP	67	144	6
NMTAP	67	240	6
NMSTR	67	288	7
NMSI_	67	288	7	96	48	3
NMTAP	67	336	0
NMTAP	67	336	1
NMSTR	68	0	2
NMSCL	68	0	2	96	48	7
NMTAP	68	0	7
NMTAP	68	48	1
NMTAP	68	96	2
NMSTR	68	96	5
NMSI_	68	96	5	96	48	1
NMTAP	68	144	4
NMSTR	68	192	0
NMSLR	68	192	0	96	48	4
NMTAP	68	192	5
NMTAP	68	288	0
NMTAP	68	288	5
NMHLD	68	336	6	96
NMTAP	69	48	4
NMTAP	69	96	3
NMTAP	69	144	2
NMTAP	69	192	1
BRTAP	69	192	6
NMTAP	69	224	7
NMTAP	69	256	0
NMTAP	69	288	1
BRTAP	69	288	6
NMTAP	69	320	7
NMTAP	69	352	0
NMTAP	70	0	1
BRSTR	70	0	6
NMSUL	70	0	6	96	48	2
NMTAP	70	32	7
NMTAP	70	64	0
BRTAP	70	192	0
NMTAP	70	288	1
NMTAP	70	288	5
NMTAP	70	336	0
NMSTR	71	0	7
NMSCR	71	0	7	96	48	2
NMSTR	71	96	3
NMSI_	71	96	3	96	48	7
NMTAP	71	96	7
NMTAP	71	144	5
NMTAP	71	192	3
NMSTR	71	192	6
NMSCL	71	192	6	96	48	3
NMTAP	71	288	2
NMTAP	71	288	6
NMTAP	71	336	1
NMTAP	72	0	0
NMTAP	72	0	4
NMTAP	72	48	1
NMTAP	72	72	3
NMSTR	72	96	5
NMSI_	72	96	5	96	48	2
NMTAP	72	144	6
NMTAP	72	192	1
NMTAP	72	192	5
NMTAP	72	288	1
NMSTR	72	336	0
NMSCL	72	336	0	96	48	5
NMTAP	73	48	0
NMSTR	73	48	3
NMSI_	73	48	3	96	48	6
NMSCL	73	48	3	96	48	0
NMTAP	73	96	2
NMSTR	73	144	3
NMSXR	73	144	3	96	144	0
NMTAP	73	240	3
NMTAP	73	288	7
NMTAP	73	336	7
NMTAP	74	0	7
NMTAP	74	48	6
NMTAP	74	72	0
NMSTR	74	96	2
BRSI_	74	96	2	96	48	6
NMTAP	74	144	1
NMTAP	74	192	2
NMSTR	74	192	3
NMSCL	74	192	3	96	48	0
NMTAP	74	288	3
NMTAP	74	288	6
NMSTR	74	336	7
NMSI_	74	336	7	96	48	3
NMSTR	75	48	4
BRSI_	75	48	4	96	48	1
BRSCR	75	48	4	96	48	7
NMTAP	75	48	7
NMTAP	75	96	5
NMTAP	75	144	4
NMTAP	75	240	0
NMSTR	75	288	0
NMSI_	75	288	0	96	48	4
NMTAP	75	336	6
NMTAP	75	336	7
NMTAP	76	0	0
NMSTR	76	0	5
NMSCR	76	0	5	96	48	0
NMTAP	76	48	6
NMTAP	76	96	2
NMTAP	76	96	5
NMTTP	76	192	2	B	0	M1
NMTTP	76	192	2	E	0	M1
NMTTP	76	192	2	D	0	M1
NMTTP	76	192	3	B	0	M1
NMTTP	76	192	3	E	1	M1
NMTTP	76	192	4	E	0	M1
NMTTP	76	192	4	D	0	M1
NMTAP	76	224	0
NMTAP	76	256	0
NMTAP	76	288	6
NMTAP	76	320	6
NMTAP	76	352	6
NMTTP	77	0	4	B	0	M1
NMTTP	77	0	4	E	0	M1
NMTTP	77	0	4	D	0	M1
NMTTP	77	0	5	B	0	M1
NMTTP	77	0	5	E	1	M1
NMTTP	77	0	6	E	0	M1
NMTTP	77	0	6	D	0	M1
NMTAP	77	32	7
NMTAP	77	64	7
NMTAP	77	96	1
NMTAP	77	128	1
NMTAP	77	160	1
NMTTP	77	192	2	B	0	M1
NMTTP	77	192	2	E	0	M1
NMTTP	77	192	2	D	0	M1
NMTTP	77	192	3	B	0	M1
NMTTP	77	192	3	E	1	M1
NMTTP	77	192	4	E	0	M1
NMTTP	77	192	4	D	0	M1
NMTAP	77	224	0
NMTAP	77	256	0
NMTAP	77	288	6
NMTAP	77	320	6
NMTAP	77	352	6
NMTTP	78	0	4	B	0	M1
NMTTP	78	0	4	E	0	M1
NMTTP	78	0	4	D	0	M1
NMTTP	78	0	5	B	0	M1
NMTTP	78	0	5	E	1	M1
NMTTP	78	0	6	E	0	M1
NMTTP	78	0	6	D	0	M1
NMTAP	78	32	7
NMTAP	78	64	7
NMTAP	78	96	1
NMHLD	78	128	1	160
NMTTP	78	288	3	E	0	M1
NMTTP	78	304	4	E	0	M1
NMTTP	78	320	5	E	0	M1
NMTAP	79	96	7
NMTAP	79	120	0
NMTAP	79	144	1
NMTAP	79	168	2
NMTAP	79	192	3
NMTAP	79	216	4
NMTAP	79	240	5
NMTAP	79	264	6
NMTAP	79	288	0
NMTAP	79	304	7
NMTAP	79	320	0
NMTAP	79	336	7
NMTAP	79	352	0
NMTAP	79	368	7
NMTAP	80	0	0
NMTAP	80	16	7
NMTAP	80	32	0
NMTAP	80	48	7
NMTAP	80	64	0
NMTAP	80	80	7
NMTAP	80	96	0
NMTAP	80	112	6
NMTAP	80	128	0
NMTAP	80	144	6
NMTAP	80	160	0
NMTAP	80	176	6
NMTAP	80	192	0
NMTAP	80	208	6
NMTAP	80	224	0
NMTAP	80	240	6
NMTAP	80	256	0
NMTAP	80	272	6
NMTAP	80	288	0
NMTAP	80	304	5
NMTAP	80	320	0
NMTAP	80	336	6
NMTAP	80	352	0
NMTAP	80	368	7
NMSTR	81	0	0
NMSF_	81	0	0	96	48	4
BRTAP	81	96	0

T_REC_TAP	460
T_REC_BRK	12
T_REC_XTP	0
T_REC_BXX	1
T_REC_HLD	87
T_REC_XHO	0
T_REC_BHO	0
T_REC_BXH	0
T_REC_STR	75
T_REC_BST	2
T_REC_XST	0
T_REC_XBS	0
T_REC_TTP	47
T_REC_THO	0
T_REC_SLD	75
T_REC_BSL	4
T_REC_ALL	763
T_NUM_TAP	582
T_NUM_BRK	19
T_NUM_HLD	87
T_NUM_SLD	75
T_NUM_ALL	763
T_JUDGE_TAP	597
T_JUDGE_HLD	158
T_JUDGE_SLD	79
T_JUDGE_ALL	834
TTM_EACHPAIRS	121
TTM_SCR_TAP	291000
TTM_SCR_BRK	49400
TTM_SCR_HLD	87000
TTM_SCR_SLD	112500
TTM_SCR_ALL	539900
TTM_SCR_S	521900
TTM_SCR_SS	538000
TTM_RAT_ACV	10035

