VERSION	0.00.00	1.04.00
FES_MODE	0
BPM_DEF	145.000	148.000	149.000	140.000
MET_DEF	4	4
RESOLUTION	384
CLK_DEF	384
COMPATIBLE_CODE	MA2

BPM	0	0	145.000
BPM	17	0	147.000
BPM	29	0	148.000
BPM	30	0	149.000
BPM	36	0	148.000
BPM	76	192	140.000
MET	0	0	4	4
MET	54	0	4	2
MET	54	192	4	4
MET	76	192	4	2
MET	78	192	4	1
MET	78	288	4	2

EXTAP	1	0	2
EXTAP	1	72	2
EXHLD	1	144	1	144
EXTAP	1	144	3
NMSTR	1	288	2
NMSCL	1	288	2	96	192	5
NMTAP	3	0	5
NMTAP	3	72	5
NMTAP	3	144	4
NMHLD	3	144	6	144
NMSTR	3	288	5
NMSCR	3	288	5	96	192	2
EXTAP	5	0	3
EXTAP	5	0	5
EXTAP	5	72	3
EXTAP	5	72	5
EXHLD	5	144	2	96
EXHLD	5	144	6	96
NMSTR	5	288	2
NMSCR	5	288	2	96	96	5
NMSTR	5	288	6
NMSCR	5	288	6	96	96	1
NMHLD	6	192	0	96
NMHLD	6	192	4	96
NMHLD	7	0	3	96
NMHLD	7	0	7	96
NMHLD	7	192	4	96
NMHLD	7	192	6	96
NMHLD	8	0	3	96
NMHLD	8	96	4	96
NMTAP	8	192	3
NMTAP	8	240	4
BXTAP	8	288	2
BXTAP	8	288	5
NMTAP	9	0	1
NMTAP	9	72	1
NMTAP	9	144	2
NMTAP	9	144	4
NMSTR	9	192	2
NMSI_	9	192	2	96	48	4
NMHLD	9	192	4	96
NMTAP	10	0	6
NMTAP	10	48	5
NMTAP	10	96	4
NMTAP	10	144	3
NMTAP	10	192	5
NMTAP	10	240	4
NMTAP	10	288	3
NMTAP	10	336	2
NMSTR	11	0	1
NMSCR	11	0	1	96	96	4
NMSTR	11	0	4
NMSCR	11	0	4	96	96	7
NMTAP	11	288	4
NMTAP	11	288	7
NMSTR	12	0	3
NMSCL	12	0	3	96	96	0
NMSTR	12	0	6
NMSCL	12	0	6	96	96	3
NMTAP	12	288	0
NMTAP	12	288	3
NMTAP	13	0	1
NMTAP	13	72	1
NMTAP	13	144	1
NMHLD	13	192	2	96
NMSTR	13	192	5
NMSI_	13	192	5	96	48	3
NMTAP	14	0	1
NMTAP	14	48	2
NMTAP	14	96	3
NMTAP	14	144	4
NMTAP	14	192	2
NMTAP	14	240	3
NMTAP	14	288	4
NMTAP	14	336	5
NMSTR	15	0	3
NMSCL	15	0	3	96	96	0
NMSTR	15	0	6
NMSCL	15	0	6	96	96	3
NMTAP	15	288	0
NMTAP	15	288	3
NMTAP	16	0	7
NMTAP	16	96	7
NMTAP	16	192	0
NMTAP	16	192	6
NMTAP	16	288	1
NMTAP	16	288	5
NMHLD	17	0	2	192
NMTAP	17	0	4
NMTAP	17	144	3
NMHLD	17	192	3	192
NMTAP	17	336	2
NMHLD	18	0	2	192
NMTAP	18	144	4
NMHLD	18	192	4	192
NMTAP	18	336	5
NMHLD	19	0	5	144
NMTAP	19	144	6
NMHLD	19	192	6	192
NMTAP	19	336	7
NMHLD	20	0	7	144
NMTAP	20	144	6
NMHLD	20	192	6	192
NMSTR	21	0	4
NMSI_	21	0	4	96	96	2
NMSTR	21	192	4
NMSI_	21	192	4	96	96	1
NMSTR	22	0	4
NMSI_	22	0	4	96	96	0
NMSTR	22	192	4
NMSI_	22	192	4	96	96	7
BRTAP	23	0	0
NMTAP	23	144	0
NMTAP	23	144	7
NMHLD	23	192	1	64
NMTAP	23	256	3
NMHLD	23	288	3	64
NMTAP	23	352	4
NMHLD	24	0	4	64
NMTAP	24	64	6
NMHLD	24	96	6	64
NMTAP	24	160	1
NMHLD	24	192	1	64
NMTAP	24	256	3
NMTAP	24	288	3
NMTAP	25	0	2
NMTAP	25	0	3
NMTAP	25	72	2
NMTAP	25	72	3
NMTAP	25	144	3
NMHLD	25	144	5	72
NMTAP	25	216	4
NMTTP	25	288	2	B	0	M1
NMTTP	25	288	2	E	0	M1
NMTTP	25	288	6	B	0	M1
NMTTP	25	288	7	E	0	M1
NMTAP	26	0	4
NMTAP	26	0	5
NMTAP	26	72	4
NMTAP	26	72	5
NMHLD	26	144	2	72
NMTAP	26	144	4
NMTAP	26	216	3
NMTTP	26	288	1	B	0	M1
NMTTP	26	288	1	E	0	M1
NMTTP	26	288	5	B	0	M1
NMTTP	26	288	6	E	0	M1
NMTAP	27	0	6
NMTAP	27	0	7
NMTAP	27	72	6
NMTAP	27	72	7
NMHLD	27	144	1	72
NMTAP	27	144	7
NMTAP	27	216	0
NMTAP	27	288	2
NMSTR	27	288	7
NMSCL	27	288	7	96	288	0
NMTTP	29	96	3	E	0	M1
NMTTP	29	144	3	B	0	M1
NMTTP	29	192	4	E	0	M1
NMTTP	29	240	4	B	0	M1
NMTTP	29	288	5	E	0	M1
NMSTR	30	0	1
NMSCL	30	0	1	96	96	6
NMTAP	30	144	4
NMTAP	30	192	4
NMTAP	30	288	5
NMHLD	30	336	5	144
NMTAP	31	96	4
NMTAP	31	144	4
NMHLD	31	192	4	96
NMTAP	31	288	6
NMHLD	32	0	3	96
NMHLD	32	0	5	96
NMHLD	32	144	3	96
NMHLD	32	144	5	96
EXTAP	32	288	2
EXTAP	32	288	4
EXTAP	32	336	2
EXTAP	32	336	4
NMTTP	33	96	3	E	0	M1
NMTTP	33	144	3	B	0	M1
NMTTP	33	192	4	E	0	M1
NMTTP	33	240	4	B	0	M1
NMTTP	33	288	5	E	0	M1
NMHLD	34	0	6	96
NMHLD	34	144	6	96
NMTAP	34	288	4
NMTAP	34	288	5
NMHLD	34	336	4	192
NMHLD	34	336	5	192
EXTAP	35	192	4
EXTAP	35	192	5
NMTAP	35	288	3
NMTAP	35	288	4
NMTAP	36	0	2
NMHLD	36	48	2	96
NMTAP	36	144	3
NMTAP	36	240	1
NMTAP	36	240	2
NMHLD	36	336	0	240
NMTAP	37	96	3
NMTAP	37	144	3
NMTAP	37	192	4
NMTAP	37	240	4
NMTAP	37	288	0
NMTAP	37	288	5
NMTAP	38	0	2
NMTAP	38	0	6
NMTAP	38	96	2
NMTAP	38	96	6
NMTAP	38	192	2
NMTAP	38	192	6
NMTAP	38	288	2
NMTAP	38	288	6
NMTAP	39	0	3
NMTAP	39	0	6
NMTAP	39	96	3
NMTAP	39	96	6
NMTAP	39	192	4
NMTAP	39	192	6
NMTAP	39	288	4
NMTAP	39	288	6
NMTTP	40	0	4	E	0	M1
NMTAP	40	0	6
NMTTP	40	96	3	E	0	M1
NMTAP	40	96	6
NMTTP	40	192	2	E	0	M1
NMTAP	40	192	6
NMTTP	40	288	1	E	0	M1
NMTAP	40	288	6
NMTTP	41	0	0	E	0	M1
NMTAP	41	0	6
NMTTP	41	96	0	C	0	M1
NMTAP	41	96	6
NMTTP	41	192	4	E	0	M1
NMTAP	41	192	6
NMTAP	41	288	6
NMTAP	42	0	1
NMTAP	42	0	5
NMTAP	42	96	1
NMTAP	42	96	5
NMTAP	42	192	1
NMTAP	42	192	5
NMTAP	42	288	1
NMTAP	42	288	5
NMTAP	43	0	1
NMTAP	43	0	4
NMTAP	43	96	1
NMTAP	43	96	4
NMTAP	43	192	1
NMTAP	43	192	3
NMTAP	43	288	1
NMTAP	43	288	3
NMTAP	44	0	1
NMTTP	44	0	4	E	0	M1
NMTAP	44	96	1
NMTTP	44	96	5	E	0	M1
NMTAP	44	192	1
NMTTP	44	192	6	E	0	M1
NMTAP	44	288	1
NMTTP	44	288	7	E	0	M1
NMTTP	45	0	0	E	0	M1
NMTAP	45	0	1
NMTTP	45	96	0	C	0	M1
NMTAP	45	96	1
NMTAP	45	192	1
NMTTP	45	192	4	E	0	M1
NMTAP	45	288	1
BRSTR	46	0	1
NMSCL	46	0	1	96	288	6
NMSTR	47	0	5
NMSCL	47	0	5	96	288	2
NMSTR	48	0	1
NMSCL	48	0	1	96	288	6
NMSTR	49	0	5
NMSCL	49	0	5	96	288	2
NMSTR	50	0	0
NMSCL	50	0	0	96	288	5
NMSTR	51	0	4
NMSCL	51	0	4	96	288	1
NMSTR	52	0	0
NMSCL	52	0	0	96	288	5
NMTHO	53	0	0	288	C	0	M1
NMHLD	54	192	4	64
NMHLD	54	256	5	64
NMHLD	54	320	6	64
NMHLD	55	0	7	64
NMHLD	55	64	0	64
NMHLD	55	128	1	64
NMHLD	55	192	3	64
NMHLD	55	256	2	64
NMHLD	55	320	1	64
NMHLD	56	0	0	64
NMHLD	56	64	7	64
NMHLD	56	128	6	64
NMHLD	56	192	0	64
NMHLD	56	256	1	64
NMHLD	56	320	2	64
NMHLD	57	0	3	64
NMHLD	57	64	4	64
NMHLD	57	128	5	64
NMHLD	57	192	3	64
NMHLD	57	256	2	64
NMHLD	57	320	1	64
NMHLD	58	0	0	64
NMHLD	58	64	7	64
NMHLD	58	128	6	64
NMHLD	58	192	4	64
NMHLD	58	256	5	64
NMHLD	58	320	6	64
NMHLD	59	0	7	64
NMHLD	59	64	0	64
NMHLD	59	128	1	64
NMHLD	59	192	3	64
NMHLD	59	256	2	64
NMHLD	59	320	1	64
NMHLD	60	0	0	64
NMHLD	60	64	7	64
NMHLD	60	128	6	64
NMHLD	60	192	4	64
NMHLD	60	256	5	64
NMHLD	60	320	6	64
NMHLD	61	0	7	64
NMHLD	61	64	0	64
NMTAP	61	128	1
NMTAP	61	192	0
NMTAP	61	192	1
NMTAP	61	288	0
NMTAP	61	336	0
NMSTR	62	0	7
NMSI_	62	0	7	96	48	3
NMTAP	62	48	7
NMTAP	62	96	1
BRTAP	62	192	0
NMSTR	62	288	2
NMSI_	62	288	2	96	48	0
NMSTR	62	288	4
NMSI_	62	288	4	96	48	6
NMTAP	62	336	2
NMTAP	62	336	4
NMSTR	63	96	7
NMSI_	63	96	7	96	48	3
NMTAP	63	144	7
NMTAP	63	288	2
NMTAP	63	288	4
NMTAP	63	336	2
NMTAP	63	336	4
NMTAP	64	0	2
NMTAP	64	0	4
EXSTR	64	96	0
NMSI_	64	96	0	96	48	4
NMTAP	64	144	0
NMTAP	64	192	7
NMSTR	64	288	3
NMSI_	64	288	3	96	48	1
NMSTR	64	288	5
NMSI_	64	288	5	96	48	7
NMTAP	64	336	3
NMTAP	64	336	5
NMSTR	65	96	0
NMSI_	65	96	0	96	48	4
NMTAP	65	144	0
NMTAP	65	192	7
NMTAP	65	288	3
NMTAP	65	288	5
NMTAP	65	336	3
NMTAP	65	336	5
EXTAP	66	0	2
EXTAP	66	0	6
NMTAP	66	48	2
NMTAP	66	48	6
EXTAP	66	96	2
EXSTR	66	96	6
NMSI_	66	96	6	96	48	2
NMSTR	66	288	1
NMSI_	66	288	1	96	48	7
NMSTR	66	288	3
NMSI_	66	288	3	96	48	5
NMTAP	66	336	1
NMTAP	66	336	3
NMSTR	67	96	6
NMSI_	67	96	6	96	48	2
NMTAP	67	144	6
NMTAP	67	288	1
NMTAP	67	288	3
NMTAP	67	336	1
NMTAP	67	336	3
NMTAP	68	0	1
NMTAP	68	0	3
NMSTR	68	96	0
NMSI_	68	96	0	96	48	4
NMTAP	68	96	4
NMSTR	68	288	4
NMSCL	68	288	4	96	48	1
NMTAP	68	288	6
NMHLD	69	96	7	96
NMTAP	69	192	0
NMTAP	69	224	0
NMTAP	69	256	0
NMTAP	69	288	7
NMTAP	69	320	7
NMTAP	69	352	7
NMTAP	70	0	1
NMSTR	70	96	2
NMSI_	70	96	2	96	48	6
NMTAP	70	96	5
NMSTR	70	288	5
NMSCL	70	288	5	96	48	3
NMSTR	70	288	7
NMSCR	70	288	7	96	48	1
NMTAP	70	336	5
NMTAP	70	336	7
NMSTR	71	96	2
NMSI_	71	96	2	96	48	6
NMTAP	71	144	2
EXTAP	71	288	5
EXTAP	71	288	7
NMTAP	71	336	5
NMTAP	71	336	7
NMTAP	72	0	5
NMTAP	72	0	7
NMTAP	72	96	3
EXSTR	72	96	5
NMSI_	72	96	5	96	48	1
NMSTR	72	288	0
NMSCL	72	288	0	96	48	6
NMSTR	72	288	2
NMSCR	72	288	2	96	48	4
NMTAP	72	336	0
NMTAP	72	336	2
NMSTR	73	96	5
NMSI_	73	96	5	96	48	1
NMTAP	73	144	5
NMTAP	73	288	0
NMTAP	73	288	2
NMTAP	73	336	0
NMTAP	73	336	2
NMTAP	74	0	0
NMTAP	74	0	2
NMSTR	74	96	2
NMSCR	74	96	2	96	48	4
NMSTR	74	96	4
NMSI_	74	96	4	96	48	7
NMSTR	74	288	0
NMSI_	74	288	0	96	48	3
NMSTR	74	288	6
NMSCR	74	288	6	96	48	0
NMSTR	75	96	2
NMSCR	75	96	2	96	48	4
NMSTR	75	96	4
NMSI_	75	96	4	96	48	7
EXTAP	75	288	0
NMTAP	76	0	0
NMTAP	76	96	7
NMHLD	76	192	1	64
NMTAP	76	192	5
NMHLD	76	256	3	64
NMHLD	76	320	5	64
NMHLD	77	0	7	64
NMHLD	77	64	1	64
NMHLD	77	128	3	64
NMHLD	77	192	2	64
NMHLD	77	256	0	64
NMHLD	77	320	6	64
NMHLD	78	0	4	64
NMHLD	78	64	2	64
BRHLD	78	128	7	352
NMTTP	78	288	3	B	0	M1
NMTTP	78	304	4	B	0	M1
NMTAP	79	96	0
NMTAP	79	120	7
NMTAP	79	144	0
NMTAP	79	168	7
NMTAP	79	192	0
NMTAP	79	216	7
NMTAP	79	240	0
NMTAP	79	264	7
NMTAP	79	288	1
NMTAP	79	312	6
NMTAP	79	336	1
NMTAP	79	360	6
NMTAP	80	0	1
NMTAP	80	24	6
NMTAP	80	48	1
NMTAP	80	72	6
NMTAP	80	96	2
NMTAP	80	120	5
NMTAP	80	144	2
NMTAP	80	168	5
NMTAP	80	192	2
NMTAP	80	216	5
NMTAP	80	240	2
NMTAP	80	264	5
NMTAP	80	288	3
NMTAP	80	312	4
NMTAP	80	336	3
NMTAP	80	360	4
NMHLD	81	0	3	96
NMTTP	81	96	0	C	1	M1

T_REC_TAP	238
T_REC_BRK	2
T_REC_XTP	19
T_REC_BXX	2
T_REC_HLD	93
T_REC_XHO	3
T_REC_BHO	1
T_REC_BXH	0
T_REC_STR	49
T_REC_BST	1
T_REC_XST	3
T_REC_XBS	0
T_REC_TTP	35
T_REC_THO	1
T_REC_SLD	53
T_REC_BSL	0
T_REC_ALL	500
T_NUM_TAP	344
T_NUM_BRK	6
T_NUM_HLD	97
T_NUM_SLD	53
T_NUM_ALL	500
T_JUDGE_TAP	349
T_JUDGE_HLD	230
T_JUDGE_SLD	53
T_JUDGE_ALL	632
TTM_EACHPAIRS	95
TTM_SCR_TAP	172000
TTM_SCR_BRK	15600
TTM_SCR_HLD	97000
TTM_SCR_SLD	79500
TTM_SCR_ALL	364100
TTM_SCR_S	352600
TTM_SCR_SS	363500
TTM_RAT_ACV	10016

