VERSION	0.00.00	1.04.00
FES_MODE	0
BPM_DEF	206.000	206.000	206.000	206.000
MET_DEF	4	4
RESOLUTION	384
CLK_DEF	384
COMPATIBLE_CODE	MA2

BPM	0	0	206.000
MET	0	0	4	4

NMTAP	2	0	4
NMSTR	2	0	5
NMSSR	2	0	5	96	480	1
NMTAP	2	96	4
NMTAP	2	192	4
NMTAP	2	288	4
NMTAP	3	0	4
NMTAP	3	96	4
NMTAP	3	192	4
NMTAP	3	288	4
NMSTR	4	0	2
NMSSL	4	0	2	96	480	6
NMTAP	4	0	4
NMTAP	4	96	4
NMTAP	4	192	4
NMTAP	4	288	4
NMTAP	5	0	4
NMSTR	5	96	4
NMSI_	5	96	4	96	48	0
NMHLD	6	0	1	96
NMHLD	6	0	3	96
NMHLD	6	192	4	96
NMHLD	6	192	6	96
EXTAP	6	336	5
EXTAP	6	336	6
EXTAP	7	48	1
EXTAP	7	48	2
EXSTR	7	144	0
NMSI_	7	144	0	96	48	4
EXSTR	7	144	7
NMSI_	7	144	7	96	48	3
NMHLD	8	0	1	96
NMHLD	8	96	3	96
NMTAP	8	192	4
NMTAP	8	240	4
NMTAP	8	336	3
NMTAP	8	336	6
NMTAP	9	48	5
NMTAP	9	72	4
NMTAP	9	96	5
NMTAP	9	144	3
NMTAP	9	168	4
NMTAP	9	192	3
NMTAP	9	240	5
NMTAP	9	288	5
NMHLD	10	0	6	96
NMHLD	10	96	4	96
NMTAP	10	192	3
NMTAP	10	240	3
NMTAP	10	336	2
NMTAP	10	336	7
NMTAP	11	48	1
NMTAP	11	72	0
NMTAP	11	96	1
NMTAP	11	144	7
NMTAP	11	168	0
NMTAP	11	192	7
NMTAP	11	240	1
NMTAP	11	288	1
NMHLD	12	0	2	96
NMHLD	12	96	4	96
NMTAP	12	192	5
NMTAP	12	240	5
NMTAP	12	336	3
NMTAP	12	336	6
NMTAP	13	48	5
NMTAP	13	72	4
NMTAP	13	96	5
NMTAP	13	144	3
NMTAP	13	168	4
NMTAP	13	192	3
NMTAP	13	240	6
NMSTR	13	288	6
NMSI_	13	288	6	96	48	3
NMSTR	14	0	4
NMSI_	14	0	4	96	48	1
NMTAP	14	192	2
NMTAP	14	240	3
NMSTR	14	336	0
NMSI_	14	336	0	96	48	4
NMTAP	14	336	4
NMTAP	15	48	5
NMHLD	15	96	5	96
NMTAP	15	192	3
NMTAP	15	288	0
NMTAP	15	288	7
NMHLD	16	0	1	96
NMHLD	16	96	3	96
NMTAP	16	192	4
NMTAP	16	240	4
NMTAP	16	336	3
NMTAP	16	336	6
NMTAP	17	48	5
NMTAP	17	72	4
NMTAP	17	96	5
NMTAP	17	144	3
NMTAP	17	168	4
NMTAP	17	192	3
NMTAP	17	240	6
NMSTR	17	288	6
NMSI_	17	288	6	96	48	3
NMSTR	18	0	0
NMSI_	18	0	0	96	48	4
NMSTR	18	96	5
NMSI_	18	96	5	96	48	0
NMTAP	18	192	1
NMSTR	18	240	1
NMSI_	18	240	1	96	48	3
NMSI_	18	240	1	96	48	5
EXTAP	18	336	1
NMTAP	19	96	2
NMTAP	19	96	7
NMTAP	19	192	4
NMTAP	19	192	5
NMTAP	19	288	2
NMTAP	19	312	3
NMTAP	19	336	2
NMTAP	20	0	1
NMTAP	20	0	4
NMTAP	20	96	1
NMSTR	20	96	3
NMSCR	20	96	3	96	96	7
NMTAP	20	144	1
NMTAP	20	192	1
NMTAP	20	240	1
NMTAP	20	288	1
NMTAP	21	0	3
NMTAP	21	0	6
NMSTR	21	96	4
NMSCL	21	96	4	96	96	0
NMTAP	21	96	6
NMTAP	21	144	6
NMTAP	21	192	6
NMTAP	21	240	6
NMTAP	21	288	6
NMHLD	22	0	1	96
NMHLD	22	0	4	96
NMTAP	22	192	3
NMHLD	22	192	6	144
NMTAP	22	288	4
NMTAP	22	336	4
NMTAP	23	48	5
NMTAP	23	48	7
NMTAP	23	96	4
NMTAP	23	96	6
NMTAP	23	144	3
NMTAP	23	144	5
NMTAP	23	192	2
NMTAP	23	192	4
NMHLD	23	240	1	96
NMHLD	23	240	5	96
BRSTR	24	0	7
NMSI_	24	0	7	96	480	3
NMTTP	24	144	0	D	0	M1
NMTTP	24	288	0	B	0	M1
NMTTP	25	48	2	B	0	M1
NMTTP	25	192	3	D	0	M1
NMTAP	25	288	4
NMSTR	26	0	4
NMSI_	26	0	4	96	480	0
NMTAP	26	0	5
NMTTP	26	144	5	D	0	M1
NMTTP	26	288	5	B	0	M1
NMTTP	27	48	7	B	0	M1
NMTTP	27	192	0	D	0	M1
NMTAP	27	288	0
NMTAP	28	0	0
NMTAP	28	0	1
NMTAP	28	96	2
NMTAP	28	192	3
NMSTR	28	192	7
NMSSR	28	192	7	96	288	3
NMTAP	29	288	4
NMSTR	30	0	4
NMSCR	30	0	4	96	96	0
NMHLD	30	0	5	192
NMTAP	30	288	2
NMTAP	30	288	6
NMHLD	30	336	2	240
NMHLD	30	336	6	240
NMTAP	31	288	3
NMTAP	31	288	4
NMSTR	32	0	0
NMSI_	32	0	0	96	48	4
NMSTR	32	0	6
NMSI_	32	0	6	96	48	4
NMTAP	32	192	5
NMTAP	32	240	3
NMTAP	32	288	4
NMTAP	32	336	2
NMSTR	33	0	3
NMSXL	33	0	3	96	192	6
NMHLD	33	96	1	96
NMTAP	33	288	2
NMTAP	34	0	3
NMTAP	34	0	7
NMTAP	34	96	6
NMTAP	34	144	6
NMTAP	34	192	4
NMTAP	34	240	5
NMTAP	34	288	4
NMHLD	34	336	6	240
NMTAP	35	48	5
NMSTR	35	96	5
NMSUL	35	96	5	96	96	1
NMTAP	35	288	4
NMTAP	36	0	1
NMTAP	36	0	3
NMTAP	36	96	2
NMTAP	36	144	2
NMTAP	36	192	3
NMTAP	36	240	3
NMTAP	36	288	2
NMSTR	36	336	3
NMSXL	36	336	3	96	192	2
NMTAP	37	48	1
NMTAP	37	144	0
NMTAP	37	240	1
NMTAP	37	288	1
NMHLD	38	0	1	96
NMHLD	38	0	4	96
NMTAP	38	144	3
NMTAP	38	168	2
NMTAP	38	192	3
NMSTR	38	240	0
NMSI_	38	240	0	96	48	3
EXTAP	38	336	0
EXSTR	38	336	3
NMSI_	38	336	3	96	48	6
EXTAP	39	48	3
EXSTR	39	48	6
NMSI_	39	48	6	96	48	1
EXTAP	39	144	1
EXTAP	39	144	6
BRTAP	39	240	0
BRTAP	39	288	0
NMSTR	40	0	1
NMSI_	40	0	1	96	48	3
NMTAP	40	96	4
NMTAP	40	144	4
NMSTR	40	192	5
NMSI_	40	192	5	96	48	7
NMTAP	40	288	4
NMSTR	41	0	1
NMSI_	41	0	1	96	48	3
NMTAP	41	96	4
NMTAP	41	144	4
NMSTR	41	192	5
NMSI_	41	192	5	96	48	7
NMTAP	41	288	4
NMSTR	42	0	0
NMSI_	42	0	0	96	48	2
NMTAP	42	96	3
NMTAP	42	144	3
NMSTR	42	192	4
NMSI_	42	192	4	96	48	6
NMTAP	42	288	3
NMSTR	43	0	7
NMSI_	43	0	7	96	48	1
NMSTR	43	96	2
NMSUR	43	96	2	96	96	6
NMTAP	43	144	2
EXTAP	43	288	3
NMSTR	44	0	4
NMSI_	44	0	4	96	48	2
NMTAP	44	0	6
NMTAP	44	96	7
NMTAP	44	144	7
NMSTR	44	192	4
NMSI_	44	192	4	96	48	2
NMTAP	44	192	6
NMTAP	44	288	7
NMSTR	45	0	4
NMSI_	45	0	4	96	48	2
NMTAP	45	0	6
NMTAP	45	96	7
NMTAP	45	144	7
NMSTR	45	192	4
NMSI_	45	192	4	96	48	2
NMTAP	45	192	6
NMTAP	45	288	7
NMHLD	46	0	3	48
NMTAP	46	0	6
NMHLD	46	96	4	48
NMTAP	46	96	6
NMHLD	46	192	5	48
NMTAP	46	192	6
NMTAP	46	288	6
NMHLD	46	288	7	48
NMHLD	47	0	0	48
NMTAP	47	0	6
NMHLD	47	96	1	48
NMTAP	47	96	6
NMTAP	47	192	2
NMSTR	47	192	6
NMSI_	47	192	6	96	48	2
NMTAP	47	240	2
NMHLD	48	0	1	96
NMHLD	48	0	4	288
NMHLD	48	192	3	288
NMHLD	49	0	6	288
NMHLD	49	192	4	768
BRSTR	50	0	7
BRSCL	50	0	7	96	480	3
NMTAP	52	0	2
NMTAP	52	0	3
NMTAP	52	96	3
NMTAP	52	96	4
NMTAP	52	192	1
NMTAP	52	192	3
NMTAP	52	288	3
NMTAP	52	288	5
NMTAP	53	0	1
NMTTP	53	0	3	A	1	M1
NMTTP	53	96	3	E	1	M1
NMTAP	53	96	5
NMTAP	53	192	0
NMTTP	53	192	4	B	1	M1
NMTTP	53	288	0	C	1	M1
NMTAP	53	288	6
NMTAP	54	0	0
NMTAP	54	24	7
NMTAP	54	48	0
NMTAP	54	96	1
NMTAP	54	144	1
NMTAP	54	192	5
NMTAP	54	240	5
NMTAP	54	288	2
NMSTR	54	336	2
NMSCL	54	336	2	96	48	7
NMSTR	54	336	3
NMSCR	54	336	3	96	48	6
NMTAP	55	48	2
NMTAP	55	48	3
BXHLD	55	144	0	144
BXHLD	55	144	5	144
NMHLD	56	0	2	96
NMTAP	56	48	3
NMHLD	56	96	3	96
NMTAP	56	144	4
NMHLD	56	192	4	48
NMSTR	56	240	5
NMSCR	56	240	5	96	48	0
NMSUR	56	240	5	96	48	1
NMTAP	56	288	5
NMTAP	57	96	2
NMTAP	57	96	7
NMTAP	57	144	3
NMTAP	57	144	6
NMSTR	57	192	4
NMSCL	57	192	4	96	48	0
NMTAP	57	192	5
NMSTR	57	288	6
NMSI_	57	288	6	96	48	2
NMTAP	58	0	7
NMTAP	58	96	1
NMTAP	58	144	1
NMTAP	58	192	3
NMSTR	58	240	2
NMSCR	58	240	2	96	144	0
NMTAP	58	288	3
NMTAP	58	336	2
NMTAP	58	336	4
NMHLD	59	192	0	96
NMTAP	59	192	5
NMTAP	59	288	5
NMTAP	59	336	4
NMTAP	60	0	1
NMTAP	60	0	3
NMTAP	60	96	1
NMSTR	60	96	2
NMSI_	60	96	2	96	48	5
NMTAP	60	144	1
NMTAP	60	192	1
NMTAP	60	192	2
NMTAP	60	240	1
NMTAP	60	288	1
NMSTR	60	288	2
NMSI_	60	288	2	96	48	5
NMTAP	60	336	1
NMTAP	61	0	1
NMTAP	61	0	2
NMTAP	61	48	1
NMTAP	61	96	1
NMSTR	61	96	2
NMSUR	61	96	2	96	144	5
NMTAP	61	144	1
NMTAP	61	192	1
NMTAP	61	192	2
NMTAP	61	240	1
NMTAP	61	288	1
NMSTR	62	0	0
NMSCR	62	0	0	96	48	4
NMTAP	62	96	6
NMTAP	62	192	7
NMTAP	62	288	1
NMTAP	62	288	5
BRTAP	62	336	1
BRTAP	62	336	5
NMTAP	63	48	0
NMTAP	63	48	7
NMTAP	63	96	0
NMTAP	63	96	7
NMTAP	63	192	3
NMTAP	63	216	4
NMTAP	63	240	3
NMSTR	63	288	2
NMSI_	63	288	2	96	48	0
NMTAP	63	288	6
NMTAP	64	0	5
CNSI_	64	48	0	0	48	6
NMSTR	64	96	4
NMSCL	64	96	4	96	48	0
CNSI_	64	96	6	0	96	4
NMTAP	64	192	6
NMTAP	64	288	7
NMTAP	64	336	7
NMTAP	65	0	0
NMTAP	65	0	1
NMTAP	65	96	6
NMTAP	65	96	7
NMTAP	65	192	1
NMTAP	65	192	4
NMTAP	65	288	4
NMSTR	65	288	6
NMSCL	65	288	6	96	48	3
NMTAP	66	0	2
NMTAP	66	96	1
NMTAP	66	144	1
NMTAP	66	192	3
NMSTR	66	240	2
BRSCL	66	240	2	96	96	6
NMSUL	66	240	2	96	96	5
NMTAP	66	288	3
NMTAP	66	336	2
NMTAP	67	96	4
NMTAP	67	192	3
NMTAP	67	192	4
NMTAP	67	240	3
NMTAP	67	240	4
NMTAP	67	288	2
NMTAP	67	312	3
NMTAP	67	336	2
NMTAP	67	360	3
NMSTR	68	0	2
NMSCL	68	0	2	96	48	6
NMTAP	68	96	3
NMSTR	68	192	4
NMSUR	68	192	4	96	48	0
NMTAP	68	240	4
NMTAP	68	288	3
NMSTR	69	0	2
NMSCL	69	0	2	96	48	6
NMTAP	69	96	3
NMSTR	69	192	4
NMSUR	69	192	4	96	48	0
NMTAP	69	240	4
NMTAP	69	288	3
NMHLD	70	0	2	48
NMHLD	70	48	3	48
NMHLD	70	96	4	48
NMHLD	70	144	5	48
NMTAP	70	192	3
NMTAP	70	288	1
NMTAP	70	288	7
NMSTR	70	336	1
NMSCR	70	336	1	96	48	4
NMSTR	70	336	7
NMSCL	70	336	7	96	48	4
CNSI_	71	96	4	0	192	0
CNSSL	71	96	4	0	192	0
BRTAP	72	0	1
BRTAP	72	0	7
NMHLD	72	96	2	12
NMHLD	72	96	6	24
NMHLD	72	192	3	24
NMHLD	72	192	5	12
NMTAP	72	288	4
NMTAP	72	336	5
NMTAP	73	0	2
NMTAP	73	48	2
NMTAP	73	96	4
NMTAP	73	120	3
NMTAP	73	144	4
NMHLD	73	192	1	48
NMTAP	73	240	3
NMTAP	73	264	4
NMTAP	73	288	5
NMTAP	73	312	6
NMTAP	73	336	0
NMTAP	73	336	7
NMTAP	74	0	1
NMTAP	74	48	2
NMTAP	74	72	3
NMTAP	74	96	2
NMTAP	74	144	4
NMTAP	74	192	2
NMTAP	74	216	3
NMTAP	74	240	2
NMTAP	74	288	4
NMTAP	74	336	0
NMHLD	74	336	4	96
NMTAP	75	48	1
NMTAP	75	72	2
NMHLD	75	96	3	48
NMTAP	75	144	5
NMTAP	75	168	6
NMHLD	75	192	7	96
NMTAP	75	240	0
NMTAP	75	288	0
NMTAP	76	0	6
NMTAP	76	48	4
NMTAP	76	72	5
NMTAP	76	96	4
NMTAP	76	192	3
NMTAP	76	192	6
NMTAP	76	240	4
NMTAP	76	264	5
NMTAP	76	288	4
NMTAP	76	336	3
NMTAP	76	336	6
NMSTR	77	0	3
NMSI_	77	0	3	96	48	0
NMSTR	77	0	6
NMSI_	77	0	6	96	48	3
NMHLD	77	192	1	144
NMTAP	77	240	3
NMTAP	77	264	4
NMTAP	77	288	5
NMTAP	77	312	6
NMTAP	77	336	7
NMTAP	78	0	2
NMTAP	78	48	2
NMTAP	78	96	6
NMTAP	78	144	6
NMTAP	78	192	3
NMTAP	78	240	5
NMTAP	78	288	4
NMTAP	78	336	3
NMTAP	78	336	6
NMTAP	79	48	4
NMTAP	79	48	5
NMTAP	79	96	3
NMTAP	79	96	6
NMTAP	79	144	2
NMTAP	79	144	7
NMTAP	79	192	1
NMTAP	79	216	0
NMTAP	79	240	1
NMTAP	79	288	2
NMTAP	79	288	6
NMTAP	80	0	1
NMTTP	80	0	6	D	0	M1
NMTTP	80	8	5	A	0	M1
NMTTP	80	16	5	D	0	M1
NMTTP	80	24	4	A	0	M1
NMTTP	80	32	4	D	0	M1
NMTTP	80	40	3	A	0	M1
NMTTP	80	48	3	D	0	M1
BRSTR	80	96	0
NMSI_	80	96	0	96	48	4
NMSTR	80	192	7
NMSI_	80	192	7	96	48	3
NMSTR	80	288	1
NMSI_	80	288	1	96	48	5
NMSTR	81	0	6
NMSUL	81	0	6	96	48	2
NMSTR	81	96	3
NMSV_	81	96	3	96	48	0
NMSTR	81	192	6
NMSV_	81	192	6	96	48	1
NMTAP	81	288	1
EXTAP	82	0	2
EXTAP	82	0	7
NMTAP	82	48	1
NMTAP	82	72	0
NMTAP	82	96	1
NMTAP	82	144	7
NMTAP	82	168	0
NMTAP	82	192	7
NMTAP	82	240	1
NMTAP	82	264	0
NMTAP	82	288	1
NMTAP	82	336	2
NMTAP	82	336	7
NMTAP	83	48	5
NMTAP	83	96	5
NMTAP	83	144	7
NMTAP	83	168	6
NMTAP	83	192	7
NMTAP	83	216	6
NMTAP	83	240	7
BRTAP	83	288	0
NMTAP	84	0	2
NMTAP	84	0	5
NMTAP	84	96	3
NMTAP	84	96	4
NMTAP	84	144	3
NMTAP	84	144	4
NMTAP	84	192	3
NMTAP	84	192	4
NMTAP	84	240	3
NMTAP	84	240	4
NMTAP	84	288	3
NMTAP	84	288	4
NMTAP	84	336	3
NMTAP	84	336	4
NMTAP	85	0	3
NMTAP	85	0	5
NMTAP	85	48	3
NMTAP	85	48	5
NMTAP	85	96	2
NMTAP	85	96	6
NMTAP	85	144	2
NMHLD	85	144	6	144
NMTAP	85	240	1
NMTAP	85	264	0
NMSTR	85	288	7
NMSCL	85	288	7	96	384	3
NMSCR	85	288	7	96	384	3
EXTAP	86	0	7
NMTAP	87	192	2
NMTAP	87	192	5
NMTAP	87	264	3
NMTAP	87	288	4
NMTAP	87	336	3
EXTAP	88	0	5
EXTAP	88	0	6
EXTAP	88	96	1
EXTAP	88	96	2
EXSTR	88	192	4
NMSI_	88	192	4	96	48	1
NMSI_	88	192	4	96	48	7
EXTAP	88	192	5
BRSTR	88	288	4
BRSF_	88	288	4	96	192	0
NMSTR	89	288	3
NMSXL	89	288	3	96	144	0
NMTAP	89	288	4
EXTAP	90	0	3
EXTAP	90	0	7
EXTAP	90	96	6
CNSCR	90	144	0	0	96	2
NMSTR	90	192	5
NMSLL	90	192	5	96	96	7
NMTAP	90	240	5
NMTAP	91	96	3
NMTAP	91	144	3
NMSTR	91	192	4
NMSCL	91	192	4	96	48	0
NMTAP	91	192	5
NMSTR	91	288	6
NMSI_	91	288	6	96	48	2
NMTAP	92	0	7
NMTAP	92	96	1
NMTAP	92	144	1
NMTAP	92	192	3
NMSTR	92	240	2
NMSXL	92	240	2	96	144	7
NMTAP	92	288	3
NMTAP	92	336	2
NMTAP	92	336	4
NMHLD	93	192	0	96
NMTAP	93	192	5
NMTAP	93	288	5
NMTAP	93	336	4
NMTAP	94	0	1
NMTAP	94	0	3
NMTAP	94	96	1
NMSTR	94	96	2
NMSI_	94	96	2	96	48	5
NMTAP	94	144	1
NMTAP	94	192	1
NMTAP	94	192	2
NMTAP	94	240	1
NMTAP	94	288	1
NMSTR	94	288	2
NMSUR	94	288	2	96	48	6
NMTAP	94	336	1
NMTAP	95	0	1
NMTAP	95	0	2
NMTAP	95	48	1
NMTAP	95	96	1
NMSTR	95	96	2
NMSUR	95	96	2	96	96	4
NMTAP	95	144	1
NMTAP	95	192	1
NMTAP	95	192	2
NMTAP	95	240	1
NMTAP	95	288	1
CNSCR	95	288	4	0	96	7
NMSTR	96	0	0
NMSCR	96	0	0	96	48	4
NMTAP	96	96	7
NMTAP	96	192	6
NMTAP	96	288	2
NMTAP	96	288	5
NMTAP	96	336	2
NMTAP	96	336	5
NMTAP	97	48	0
NMTAP	97	48	7
BRTAP	97	96	0
BRTAP	97	96	7
NMTAP	97	192	4
NMTAP	97	216	3
NMTAP	97	240	4
NMTAP	97	264	3
NMTAP	97	288	5
NMTAP	97	312	2
NMTAP	97	336	5
NMTAP	97	360	2
BRSTR	98	0	1
NMSI_	98	0	1	96	48	4
BRTAP	98	0	6
NMSTR	98	96	7
NMSI_	98	96	7	96	48	3
NMTAP	98	144	7
NMSTR	98	192	0
NMSI_	98	192	0	96	48	4
NMTAP	98	240	0
NMSTR	98	288	5
NMSI_	98	288	5	96	48	1
NMTAP	98	336	5
NMSTR	99	0	2
NMSI_	99	0	2	96	48	4
NMTAP	99	48	2
NMSTR	99	96	6
NMSI_	99	96	6	96	48	3
NMTAP	99	144	6
NMSTR	99	192	1
NMSI_	99	192	1	96	48	5
NMTAP	99	240	1
NMSTR	99	288	7
NMSI_	99	288	7	96	48	2
NMSI_	99	288	7	96	48	4
EXTAP	100	96	1
EXTAP	100	96	5
NMTAP	100	192	2
NMSTR	100	240	2
NMSCL	100	240	2	96	96	5
BRSUL	100	240	2	96	96	5
NMTAP	100	288	4
NMTTP	100	348	2	D	0	M1
NMTTP	100	360	1	A	0	M1
NMTTP	100	372	1	D	0	M1
NMTTP	101	0	0	A	0	M1
NMTTP	101	12	0	D	0	M1
NMTTP	101	24	7	A	0	M1
NMTTP	101	36	7	D	0	M1
NMTTP	101	48	6	A	0	M1
NMTAP	101	192	3
NMTAP	101	216	4
NMTAP	101	240	3
NMTAP	101	264	4
NMSTR	101	288	3
NMSCL	101	288	3	96	48	0
NMTAP	101	312	4
NMTAP	101	336	3
EXTAP	102	0	3
NMHLD	102	0	5	240
NMTAP	102	192	4
NMTAP	102	240	4
NMTAP	102	336	2
NMTAP	102	336	7
NMTAP	103	48	3
NMTAP	103	48	5
NMTAP	103	96	3
NMTAP	103	96	5
NMTAP	103	144	3
NMTAP	103	144	5
NMSTR	103	192	4
NMSI_	103	192	4	96	48	0
EXTAP	103	288	4
NMTTP	103	288	4	D	0	M1
NMTTP	103	288	5	D	0	M1
NMTTP	103	304	3	B	0	M1
NMTTP	103	304	5	B	0	M1
NMTTP	103	320	1	B	0	M1
NMTTP	103	320	7	B	0	M1
NMTTP	103	336	0	D	0	M1
NMTTP	103	336	1	D	0	M1
BRHLD	104	0	2	192
BRHLD	104	0	6	192
NMTHO	104	336	0	336	C	1	M1
NMTAP	104	336	5
NMSTR	105	288	5
NMSI_	105	288	5	96	48	1
EXTAP	106	0	5
NMTAP	106	192	0
NMTAP	106	192	1
NMTAP	106	240	0
NMTAP	106	240	1
NMTAP	106	336	3
NMTAP	106	336	6
NMTAP	107	48	5
NMTAP	107	72	4
NMTAP	107	96	5
NMTAP	107	144	3
NMTAP	107	168	4
NMTAP	107	192	3
NMTAP	107	240	6
NMTAP	107	288	6
NMTAP	108	0	2
NMTAP	108	0	7
NMHLD	108	96	4	96
NMTAP	108	96	5
NMTAP	108	192	3
NMTAP	108	240	3
NMTAP	108	336	0
NMTAP	108	336	4
NMTAP	109	48	2
NMTAP	109	72	3
NMTAP	109	96	2
NMTAP	109	144	4
NMTAP	109	168	3
NMTAP	109	192	4
NMTAP	109	240	2
NMSTR	109	288	2
NMSI_	109	288	2	96	48	7
NMTAP	109	288	4
NMTAP	110	0	2
NMTAP	110	0	3
NMSTR	110	96	2
NMSI_	110	96	2	96	48	7
NMTAP	110	96	4
NMTAP	110	192	2
NMTAP	110	192	3
NMSTR	110	288	2
NMSI_	110	288	2	96	48	7
NMTAP	110	288	5
NMTAP	111	0	2
NMTAP	111	0	3
NMSTR	111	96	2
NMSI_	111	96	2	96	48	7
NMTAP	111	96	5
NMTAP	111	192	2
NMTAP	111	192	3
NMSTR	111	288	2
NMSCL	111	288	2	96	144	3
NMTAP	111	288	6
NMTTP	112	0	0	C	1	M1
BRTAP	112	0	2
NMTAP	112	288	2
NMTAP	112	288	7
NMTAP	112	336	2
NMTAP	112	336	7
NMTAP	113	48	3
NMTAP	113	48	4
NMSTR	113	96	3
NMSLL	113	96	3	96	96	7
NMSTR	113	96	4
NMSLL	113	96	4	96	96	6
EXTAP	113	192	3
EXTAP	113	192	4
NMTAP	114	0	4
NMTAP	114	0	5
NMTAP	114	96	4
NMTAP	114	96	5
NMTAP	114	144	4
NMTAP	114	192	4
NMTAP	114	192	5
NMTAP	114	240	4
NMTAP	114	288	4
NMTAP	114	288	5
NMTAP	114	336	4
NMTAP	115	0	4
NMTAP	115	0	5
NMTAP	115	48	4
NMSTR	115	96	4
NMSCL	115	96	4	96	48	2
NMTAP	115	96	5
NMTAP	115	144	4
NMTAP	115	192	4
NMTAP	115	192	5
NMTAP	115	288	5
NMTAP	116	0	2
NMTAP	116	0	3
NMTAP	116	96	2
NMTAP	116	96	3
NMTAP	116	144	3
NMTAP	116	192	2
NMTAP	116	192	3
NMTAP	116	240	3
NMTAP	116	288	2
NMTAP	116	288	3
NMTAP	116	336	3
NMTAP	117	0	2
NMTAP	117	0	3
NMTAP	117	48	3
NMTAP	117	96	2
NMSTR	117	96	3
NMSCR	117	96	3	96	48	5
NMTAP	117	144	3
NMTAP	117	192	2
NMTAP	117	192	3
NMTAP	117	288	3
NMTAP	117	312	4
NMTAP	117	336	3
NMTAP	118	0	2
NMSTR	118	0	6
NMSI_	118	0	6	96	48	3
NMTAP	118	96	0
NMSTR	118	192	1
NMSI_	118	192	1	96	48	4
NMTAP	118	192	4
NMTAP	118	240	5
NMTAP	118	288	6
NMTAP	119	0	2
NMSTR	119	0	7
NMSI_	119	0	7	96	48	3
NMTAP	119	96	0
NMSTR	119	192	1
NMSI_	119	192	1	96	48	4
NMTAP	119	192	4
NMTAP	119	240	5
NMTAP	119	288	6
NMTAP	120	0	2
NMTAP	120	0	7
NMTAP	120	48	1
NMTAP	120	72	0
NMTAP	120	96	1
NMTAP	120	144	6
NMTAP	120	168	7
NMTAP	120	192	6
NMTAP	120	240	1
NMTAP	120	264	0
NMTAP	120	288	1
BRTAP	120	336	2
BRTAP	120	336	7
BRTAP	121	48	1
BRTAP	121	48	4
BRSTR	121	144	4
NMSI_	121	144	4	96	48	7
BRTAP	121	144	5
BRTAP	121	240	0
BRTAP	121	240	4
NMTTP	122	0	0	D	1	M1
NMTTP	122	4	0	A	0	M1
NMTTP	122	4	7	A	0	M1
NMTTP	122	8	1	D	0	M1
NMTTP	122	8	7	D	0	M1
NMTTP	122	12	1	A	0	M1
NMTTP	122	12	6	A	0	M1
NMTTP	122	16	2	D	0	M1
NMTTP	122	16	6	D	0	M1
NMTTP	122	20	2	A	0	M1
NMTTP	122	20	5	A	0	M1
NMTTP	122	24	3	D	0	M1
NMTTP	122	24	5	D	0	M1
NMTTP	122	28	3	A	0	M1
NMTTP	122	28	4	A	0	M1
NMTAP	123	192	0
NMTAP	123	240	0
NMTAP	124	0	4
NMSTR	124	0	5
NMSSR	124	0	5	96	480	1
NMTAP	124	96	4
NMTAP	124	192	4
NMTAP	124	288	4
NMTAP	125	0	4
NMTAP	125	96	4
NMTAP	125	192	4
NMTAP	125	288	4
NMSTR	126	0	2
NMSSL	126	0	2	96	480	6
NMTAP	126	0	4
NMTAP	126	96	4
NMTAP	126	192	4
NMTAP	126	288	4
NMTAP	127	0	4
NMSTR	127	96	4
NMSI_	127	96	4	96	48	0
NMHLD	128	0	1	96
NMHLD	128	0	3	96
NMHLD	128	192	4	96
NMHLD	128	192	6	96
EXTAP	128	336	5
EXTAP	128	336	6
EXTAP	129	48	1
EXTAP	129	48	2
NMSTR	129	144	3
NMSI_	129	144	3	96	48	7
NMSTR	129	144	4
NMSI_	129	144	4	96	48	0

T_REC_TAP	582
T_REC_BRK	18
T_REC_XTP	32
T_REC_BXX	0
T_REC_HLD	61
T_REC_XHO	0
T_REC_BHO	2
T_REC_BXH	2
T_REC_STR	100
T_REC_BST	6
T_REC_XST	5
T_REC_XBS	0
T_REC_TTP	51
T_REC_THO	1
T_REC_SLD	114
T_REC_BSL	4
T_REC_ALL	978
T_NUM_TAP	770
T_NUM_BRK	32
T_NUM_HLD	62
T_NUM_SLD	114
T_NUM_ALL	978
T_JUDGE_TAP	794
T_JUDGE_HLD	169
T_JUDGE_SLD	118
T_JUDGE_ALL	1081
TTM_EACHPAIRS	188
TTM_SCR_TAP	385000
TTM_SCR_BRK	83200
TTM_SCR_HLD	62000
TTM_SCR_SLD	171000
TTM_SCR_ALL	701200
TTM_SCR_S	677100
TTM_SCR_SS	698000
TTM_RAT_ACV	10045

