VERSION	0.00.00	1.04.00
FES_MODE	0
BPM_DEF	206.000	206.000	206.000	206.000
MET_DEF	4	4
RESOLUTION	384
CLK_DEF	384
COMPATIBLE_CODE	MA2

BPM	0	0	206.000
MET	0	0	4	4

NMHLD	2	0	3	384
NMHLD	3	0	5	384
NMHLD	4	0	4	384
NMSTR	5	0	3
NMSI_	5	0	3	96	144	7
NMTAP	6	0	0
NMTAP	6	96	0
NMTAP	6	192	0
NMTAP	6	192	7
NMTAP	6	288	1
NMTAP	6	288	6
NMTAP	6	336	1
NMTAP	6	336	6
NMTAP	7	48	2
NMTAP	7	48	5
NMHLD	7	144	3	96
NMHLD	7	144	4	144
EXTAP	8	0	4
EXTAP	8	96	3
EXTAP	8	96	5
NMTAP	8	192	7
NMTAP	8	288	6
NMTAP	9	0	3
NMTAP	9	96	2
NMTAP	9	96	4
NMTAP	9	192	0
NMTAP	9	288	1
NMTAP	10	0	4
NMTAP	10	96	3
NMTAP	10	96	5
NMTAP	10	192	7
NMTAP	10	288	6
NMTAP	11	0	4
NMTAP	11	0	5
NMTAP	11	96	3
NMTAP	11	96	4
NMTAP	11	192	2
NMTAP	11	240	2
NMTAP	11	288	3
NMTAP	12	0	2
NMTAP	12	0	4
NMTAP	12	96	3
NMTAP	12	96	5
NMTAP	12	192	7
NMTAP	12	288	6
NMTAP	13	0	3
NMTAP	13	0	5
NMTAP	13	96	2
NMTAP	13	96	4
NMTAP	13	192	0
NMTAP	13	288	1
NMHLD	14	0	2	192
NMTAP	14	96	3
NMTAP	14	192	3
NMTAP	14	288	1
NMTAP	14	288	4
NMTAP	14	336	1
NMTAP	14	336	4
NMTAP	15	48	2
NMTAP	15	48	5
NMTAP	15	144	3
NMTAP	15	144	6
BXTAP	15	192	3
BXTAP	15	192	6
NMTAP	16	0	5
NMTAP	16	96	4
NMTAP	16	96	6
NMTAP	16	192	7
NMTAP	16	288	1
NMTAP	17	0	2
NMTAP	17	96	1
NMTAP	17	96	3
NMTAP	17	192	0
NMTAP	17	288	6
NMTAP	18	0	5
NMTAP	18	96	4
NMTAP	18	96	6
NMTAP	18	192	7
NMTAP	18	288	0
NMTAP	19	0	1
NMTAP	19	0	7
NMTAP	19	96	0
NMTAP	19	96	6
NMTAP	19	192	1
NMTAP	19	192	5
NMTAP	19	288	1
NMTAP	19	288	5
NMTAP	20	0	2
NMTAP	20	96	2
NMTAP	20	192	2
NMTAP	20	192	3
NMTAP	20	288	3
NMTAP	20	288	4
NMTAP	21	0	5
NMTAP	21	96	4
NMTAP	21	96	5
NMTAP	21	192	3
NMTAP	21	192	6
NMTAP	21	288	3
NMHLD	21	288	6	288
NMTAP	22	0	2
NMTAP	22	96	2
NMTAP	22	192	0
NMTAP	22	288	1
NMTAP	22	288	7
NMTAP	22	336	1
NMTAP	22	336	7
NMTAP	23	48	3
NMTAP	23	48	5
NMTAP	23	144	2
NMTAP	23	144	6
BXTAP	23	192	2
BXTAP	23	192	6
EXTAP	24	0	3
EXHLD	24	0	5	576
NMTAP	24	192	4
NMTAP	25	0	4
NMTAP	25	192	3
NMHLD	26	0	2	576
NMTAP	26	0	4
NMTAP	26	192	3
NMTAP	27	0	3
NMTAP	27	192	4
NMTAP	28	0	3
NMHLD	28	0	5	288
NMTAP	28	192	3
NMHLD	29	0	2	288
NMTAP	29	0	4
NMTAP	29	192	4
NMSTR	30	0	2
NMSCR	30	0	2	96	240	5
NMTAP	30	0	4
EXTAP	30	288	6
EXHLD	30	336	6	240
BRTAP	31	192	7
NMTAP	32	0	5
NMTAP	32	96	5
NMTAP	32	192	4
NMTAP	32	192	6
NMTAP	32	288	3
NMTAP	32	288	5
NMTAP	33	0	2
NMTAP	33	96	2
NMTAP	33	192	1
NMTAP	33	192	3
NMTAP	33	288	2
NMTAP	33	288	4
NMTAP	34	0	5
NMTAP	34	96	6
NMTAP	34	192	1
NMTAP	34	192	7
NMTAP	34	288	2
NMTAP	35	0	3
NMTAP	35	0	6
NMTAP	35	96	3
NMTAP	35	96	6
NMTAP	35	192	4
NMTAP	35	192	5
NMTAP	35	288	3
NMTAP	35	288	4
NMHLD	36	0	2	96
NMHLD	36	96	3	96
NMHLD	36	192	4	96
NMHLD	36	288	5	96
NMHLD	37	0	4	96
NMHLD	37	96	3	96
NMTAP	37	192	2
NMSTR	37	288	2
NMSCR	37	288	2	96	144	5
NMTAP	37	288	3
EXTAP	38	288	7
EXTAP	38	336	7
NMTAP	39	48	0
NMTAP	39	48	6
NMTAP	39	144	1
NMTAP	39	144	5
NMTAP	39	240	4
EXTAP	39	288	4
NMSTR	40	0	3
NMSI_	40	0	3	96	96	0
NMTAP	40	0	4
NMSTR	40	192	4
NMSI_	40	192	4	96	96	7
NMSTR	41	0	3
NMSI_	41	0	3	96	96	0
NMSTR	41	192	4
NMSCR	41	192	4	96	96	7
NMSTR	42	0	3
NMSCL	42	0	3	96	96	0
NMSTR	42	192	4
NMSCR	42	192	4	96	96	7
NMTAP	43	0	3
NMTAP	43	96	3
NMTAP	43	192	2
NMTAP	43	192	4
NMTAP	43	288	3
NMTAP	43	288	5
NMSTR	44	0	5
NMSCR	44	0	5	96	96	0
NMSTR	44	192	1
NMSCR	44	192	1	96	96	4
NMSTR	45	0	5
BRSCR	45	0	5	96	96	0
NMSTR	45	192	1
BRSCR	45	192	1	96	96	4
NMTAP	46	0	5
NMTAP	46	96	5
NMTAP	46	192	4
NMHLD	46	288	3	1248
NMSTR	46	288	6
NMSCR	46	288	6	96	192	2
NMTTP	48	0	0	C	0	M1
NMTTP	48	192	4	E	0	M1
NMTTP	49	0	0	C	0	M1
NMTTP	49	192	0	E	0	M1
NMTHO	50	0	0	384	C	0	M1
EXTAP	51	288	0
EXTAP	51	288	7
NMHLD	52	0	6	96
NMTAP	52	96	7
NMHLD	52	192	1	96
NMTAP	52	288	0
NMHLD	53	0	5	96
NMTAP	53	96	4
NMTAP	53	192	3
NMSTR	53	288	3
NMSXR	53	288	3	96	384	0
NMSTR	53	288	4
NMSXL	53	288	4	96	384	7
EXTAP	55	192	1
EXHLD	55	192	6	192
BRTAP	56	0	0
NMTAP	56	96	2
NMTAP	56	96	3
NMTAP	56	192	5
NMTAP	56	240	5
NMTAP	56	288	4
NMHLD	56	336	6	96
NMTAP	57	48	7
NMTAP	57	96	7
NMTAP	57	192	0
NMTAP	57	192	5
NMTAP	57	288	2
NMTAP	57	288	3
NMTAP	58	0	4
NMTAP	58	0	5
NMTAP	58	96	6
NMTAP	58	96	7
NMTAP	58	192	0
NMTAP	58	192	5
NMTAP	58	288	2
NMTAP	58	288	3
NMTAP	58	336	2
NMTAP	58	336	3
NMTAP	59	48	3
NMTAP	59	48	4
NMTAP	59	96	3
NMTAP	59	96	4
NMTAP	59	192	4
NMTAP	59	192	5
NMTAP	59	288	3
NMHLD	59	288	5	96
NMTAP	60	0	7
NMHLD	60	96	2	96
NMTAP	60	96	4
NMTAP	60	192	0
NMTAP	60	288	3
NMHLD	60	288	5	96
NMTAP	61	0	7
EXTAP	61	96	0
EXTAP	61	96	6
NMTAP	61	192	2
NMTAP	61	192	7
NMTAP	61	240	2
NMTAP	61	240	7
NMTAP	61	288	2
NMTAP	61	288	7
NMHLD	62	0	1	96
NMTAP	62	96	3
NMTAP	62	192	5
NMTAP	62	240	5
NMTAP	62	288	4
EXHLD	62	336	6	96
NMTAP	63	48	0
NMTAP	63	96	0
BRTAP	63	192	1
BRTAP	63	192	7
NMTAP	64	0	2
NMTAP	64	48	2
NMTAP	64	96	3
NMTAP	64	144	1
NMTAP	64	192	5
NMTAP	64	240	5
NMTAP	64	288	4
NMHLD	64	336	6	96
NMTAP	65	48	7
NMTAP	65	96	7
NMTAP	65	192	0
NMTAP	65	192	5
NMTAP	65	288	2
NMTAP	65	288	3
NMTAP	66	0	0
NMTAP	66	0	1
NMTAP	66	96	6
NMTAP	66	96	7
NMTAP	66	192	0
NMTAP	66	192	5
NMTAP	66	288	2
NMTAP	66	288	7
NMTAP	66	336	2
NMTAP	66	336	7
NMTAP	67	48	3
NMTAP	67	48	4
NMTAP	67	96	3
NMTAP	67	96	4
EXTAP	67	192	2
EXTAP	67	240	3
EXTAP	67	288	4
EXTAP	67	336	5
EXHLD	68	0	6	96
NMTAP	68	96	7
NMTAP	68	192	0
NMTAP	68	240	0
NMTAP	68	336	1
NMTAP	68	336	7
NMTAP	69	48	3
NMTAP	69	96	3
NMTAP	69	192	2
NMTAP	69	192	4
NMTAP	69	288	3
NMSTR	69	288	5
NMSCR	69	288	5	96	192	2
NMTHO	70	336	0	240	C	0	M1
EXHLD	72	0	0	96
NMHLD	72	96	1	96
NMHLD	72	192	2	96
NMTAP	72	288	3
NMSTR	73	0	4
NMSI_	73	0	4	96	96	7
NMSTR	73	192	0
NMSI_	73	192	0	96	96	3
NMHLD	74	0	4	96
NMHLD	74	96	5	96
NMHLD	74	192	6	96
NMTAP	74	288	7
NMSTR	75	0	0
NMSI_	75	0	0	96	96	4
NMSTR	75	192	7
NMSI_	75	192	7	96	96	3
NMHLD	76	0	2	96
NMHLD	76	96	0	96
NMHLD	76	192	7	96
NMTAP	76	288	5
NMHLD	77	0	5	96
NMHLD	77	96	7	96
NMHLD	77	192	0	96
NMTAP	77	288	2
NMSTR	78	0	2
NMSCL	78	0	2	96	96	7
NMSTR	78	192	6
NMSCL	78	192	6	96	96	3
NMTAP	79	0	0
NMTAP	79	96	0
NMTAP	79	192	7
NMTAP	79	288	0
NMTAP	79	288	6
NMSTR	80	0	5
NMSI_	80	0	5	96	48	3
NMTAP	80	192	2
NMTAP	80	240	2
NMTAP	80	288	3
NMTAP	80	336	3
NMSTR	81	0	1
NMSI_	81	0	1	96	48	7
NMTAP	81	192	6
NMTAP	81	240	6
NMTAP	81	288	7
NMTAP	81	336	7
NMSTR	82	0	5
NMSI_	82	0	5	96	48	3
NMHLD	82	192	1	96
NMTAP	82	288	3
NMTAP	82	336	3
NMTAP	83	48	2
NMTAP	83	48	4
NMTAP	83	144	3
NMTAP	83	144	5
NMTAP	83	240	2
NMTAP	83	240	6
NMTAP	83	288	2
NMTAP	83	288	6
EXTAP	84	0	1
NMTAP	84	48	1
NMTAP	84	96	3
NMTAP	84	144	2
EXTAP	84	192	6
NMTAP	84	240	6
NMTAP	84	288	4
NMTAP	84	336	5
EXTAP	85	0	3
NMTAP	85	48	3
EXTAP	85	96	4
NMTAP	85	144	4
EXTAP	85	192	3
BRTAP	85	288	2
BRSTR	85	288	5
NMSF_	85	288	5	96	384	1
EXHLD	87	192	7	192
BRTAP	88	0	0
BRTAP	88	96	1
BRTAP	88	96	6
BRTAP	88	192	2
BRTAP	88	192	5
BRTAP	88	288	3
BRSTR	88	288	4
NMSCR	88	288	4	96	192	2
EXTAP	89	288	3
EXTAP	89	288	4
BRTAP	90	0	6
BRTAP	90	0	7
NMTAP	90	96	4
NMTAP	90	96	5
NMTAP	90	192	2
NMTAP	90	240	2
NMTAP	90	288	3
NMHLD	90	336	1	96
NMTAP	91	48	7
NMTAP	91	96	7
NMTAP	91	144	0
NMTAP	91	192	0
NMTAP	91	288	1
NMTAP	91	288	7
NMTAP	92	0	2
NMTAP	92	0	6
NMTAP	92	96	5
NMTAP	92	144	5
NMTAP	92	192	4
NMHLD	92	240	6	96
NMTAP	92	336	0
NMTAP	93	48	1
NMTAP	93	48	3
NMHLD	93	96	1	96
NMTAP	93	96	3
NMTAP	93	192	0
NMSTR	93	288	0
NMSI_	93	288	0	96	48	4
NMSTR	93	288	1
NMSI_	93	288	1	96	48	4
NMSTR	94	96	6
NMSI_	94	96	6	96	48	3
NMSTR	94	96	7
NMSI_	94	96	7	96	48	3
NMSTR	94	288	0
NMSI_	94	288	0	96	48	4
NMSTR	94	288	1
NMSI_	94	288	1	96	48	4
EXTAP	95	96	6
EXTAP	95	96	7
NMTAP	95	192	0
NMTAP	95	192	5
NMTAP	95	240	0
NMTAP	95	240	5
NMTAP	95	288	0
NMTAP	95	288	5
NMHLD	96	0	1	96
NMTAP	96	96	3
NMTAP	96	192	5
NMTAP	96	240	5
NMTAP	96	288	4
EXHLD	96	336	6	96
NMTAP	97	48	0
NMTAP	97	96	0
BRTAP	97	192	1
BRTAP	97	192	7
NMTAP	97	288	1
NMTAP	97	288	7
NMTAP	98	0	2
NMTAP	98	48	2
NMTAP	98	96	3
NMTAP	98	144	1
NMTAP	98	192	5
NMTAP	98	240	5
NMTAP	98	288	4
NMHLD	98	336	6	96
NMTAP	99	48	7
NMTAP	99	96	7
NMTAP	99	192	0
NMTAP	99	192	5
NMTAP	99	288	2
NMTAP	99	288	3
BRTAP	100	0	0
BRTAP	100	0	1
NMTAP	100	96	6
NMTAP	100	144	7
NMTAP	100	192	6
NMTAP	100	288	0
NMTAP	100	288	5
NMTAP	100	336	0
NMTAP	100	336	5
NMTAP	101	48	3
NMTAP	101	48	4
NMTAP	101	96	3
NMTAP	101	96	4
EXTAP	101	192	5
EXTAP	101	240	4
EXTAP	101	288	3
EXTAP	101	336	2
EXHLD	102	0	0	96
EXHLD	102	0	1	96
NMTAP	102	192	7
NMTAP	102	240	7
NMTAP	102	336	0
NMTAP	102	336	6
NMTAP	103	48	4
NMTAP	103	96	4
NMTAP	103	192	3
NMTAP	103	192	5
NMSTR	103	288	2
NMSV_	103	288	2	96	192	7
NMSTR	103	288	4
NMSV_	103	288	4	96	192	7
EXTAP	104	336	0
EXTAP	104	336	6
BXHLD	105	0	0	192
EXHLD	105	0	6	192
BRTAP	106	0	4
BRTAP	106	0	5
NMTAP	106	96	0
NMTAP	106	96	7
NMTAP	106	192	2
NMTAP	106	192	3
NMTAP	106	288	0
NMTAP	106	288	7
NMTAP	107	0	4
NMTAP	107	0	5
NMTAP	107	96	3
NMTAP	107	96	6
NMTAP	107	192	2
NMTAP	107	192	3
NMTAP	107	288	1
NMTAP	107	288	4
NMHLD	108	0	6	96
NMTAP	108	96	4
NMHLD	108	144	4	96
NMTAP	108	240	5
NMTAP	108	288	5
NMTAP	109	0	4
NMTAP	109	0	6
NMTAP	109	96	3
NMTAP	109	96	4
NMTAP	109	192	1
NMTAP	109	192	3
NMSTR	109	288	0
NMSI_	109	288	0	96	48	4
NMSTR	109	288	1
NMSI_	109	288	1	96	48	4
NMSTR	110	96	6
NMSI_	110	96	6	96	48	3
NMSTR	110	96	7
NMSI_	110	96	7	96	48	3
NMSTR	110	288	0
NMSI_	110	288	0	96	48	4
NMSTR	110	288	1
NMSI_	110	288	1	96	48	4
NMSTR	111	96	6
NMSI_	111	96	6	96	48	3
NMSTR	111	96	7
NMSI_	111	96	7	96	48	3
NMTAP	111	288	0
NMSTR	111	288	1
NMSCR	111	288	1	96	192	7
EXTAP	112	288	0
EXHLD	112	336	0	144
EXTAP	113	48	7
EXTAP	113	96	7
NMTAP	113	192	1
NMTAP	113	192	6
NMTAP	113	288	3
NMTAP	113	288	4
NMTAP	114	0	5
NMTAP	114	48	5
NMTAP	114	96	4
NMHLD	114	96	6	96
NMTAP	114	192	7
NMTAP	114	288	0
NMTAP	114	288	1
NMTAP	115	0	2
NMTAP	115	48	2
NMHLD	115	96	1	96
NMTAP	115	96	3
NMTAP	115	192	0
NMTAP	115	288	6
NMTAP	115	288	7
NMTAP	116	0	5
NMTAP	116	48	5
NMTAP	116	96	3
NMTAP	116	144	3
NMTAP	116	192	4
NMTAP	116	240	4
NMTAP	116	288	2
NMHLD	116	336	2	96
NMTAP	117	48	0
NMTAP	117	144	1
NMTAP	117	144	7
NMTAP	117	240	2
NMTAP	117	240	6
NMTAP	117	288	2
NMTAP	117	288	6
NMTAP	118	0	4
NMSTR	118	0	5
NMSI_	118	0	5	96	48	0
NMSTR	118	192	2
NMSI_	118	192	2	96	48	7
NMTAP	118	192	3
NMTAP	119	0	0
NMSTR	119	0	6
NMSI_	119	0	6	96	48	3
NMSTR	119	192	1
NMSI_	119	192	1	96	48	4
NMTAP	119	192	7
NMHLD	120	0	5	96
NMHLD	120	96	7	96
NMHLD	120	192	0	96
NMTAP	120	288	2
BXTAP	120	336	2
BXTAP	121	48	1
BXTAP	121	48	3
BXTAP	121	144	4
BXTAP	121	144	6
BXTAP	121	240	0
BXTAP	121	240	7
BXTAP	121	288	0
BXSTR	121	288	7
BRSI_	121	288	7	96	48	3
BXHLD	122	0	1	576
NMHLD	124	0	0	384
NMHLD	125	0	6	384
NMHLD	126	0	7	384
NMSTR	127	0	0
NMSI_	127	0	0	96	144	4
NMTAP	128	0	3
NMTAP	128	96	3
NMTAP	128	192	3
NMTAP	128	192	4
NMTAP	128	288	2
NMTAP	128	288	5
NMTAP	128	336	2
NMTAP	128	336	5
NMTAP	129	48	1
NMTAP	129	48	6
NMHLD	129	144	0	96
NMHLD	129	144	7	144

T_REC_TAP	408
T_REC_BRK	19
T_REC_XTP	35
T_REC_BXX	12
T_REC_HLD	56
T_REC_XHO	12
T_REC_BHO	0
T_REC_BXH	2
T_REC_STR	48
T_REC_BST	2
T_REC_XST	0
T_REC_XBS	1
T_REC_TTP	4
T_REC_THO	2
T_REC_SLD	48
T_REC_BSL	3
T_REC_ALL	652
T_NUM_TAP	495
T_NUM_BRK	39
T_NUM_HLD	70
T_NUM_SLD	48
T_NUM_ALL	652
T_JUDGE_TAP	529
T_JUDGE_HLD	271
T_JUDGE_SLD	51
T_JUDGE_ALL	851
TTM_EACHPAIRS	167
TTM_SCR_TAP	247500
TTM_SCR_BRK	101400
TTM_SCR_HLD	70000
TTM_SCR_SLD	72000
TTM_SCR_ALL	490900
TTM_SCR_S	472400
TTM_SCR_SS	487000
TTM_RAT_ACV	10080

