VERSION	0.00.00	1.04.00
FES_MODE	0
BPM_DEF	206.000	206.000	206.000	206.000
MET_DEF	4	4
RESOLUTION	384
CLK_DEF	384
COMPATIBLE_CODE	MA2

BPM	0	0	206.000
MET	0	0	4	4

NMTAP	2	0	3
NMTAP	3	0	4
NMTAP	4	0	5
NMTAP	5	0	6
EXTAP	6	0	7
BXTAP	6	336	0
BXTAP	6	336	7
BXTAP	7	48	0
BXTAP	7	48	7
BXTAP	7	144	0
BXTAP	7	144	7
NMTAP	8	0	1
NMTAP	8	192	1
NMTAP	9	0	1
NMTAP	9	96	1
NMTAP	9	192	0
NMTAP	9	192	1
NMTAP	10	0	2
NMTAP	10	192	2
NMTAP	11	0	2
NMTAP	11	96	2
NMTAP	11	192	2
NMTAP	11	192	3
NMTAP	12	0	5
NMTAP	12	192	5
NMTAP	13	0	5
NMTAP	13	96	5
NMTAP	13	192	4
NMTAP	13	192	5
NMTAP	14	0	6
NMTAP	14	192	6
NMTAP	15	0	6
NMTAP	15	96	6
NMTAP	15	192	6
NMTAP	15	192	7
NMTAP	16	0	1
NMTAP	16	96	1
NMTAP	16	192	1
NMTAP	17	0	0
NMTAP	17	0	1
NMTAP	17	192	0
NMTAP	17	192	1
NMTAP	18	0	6
NMTAP	18	96	6
NMTAP	18	192	6
NMTAP	19	0	6
NMTAP	19	0	7
NMTAP	19	192	6
NMTAP	19	192	7
NMTAP	20	0	5
NMTAP	20	96	5
NMTAP	20	192	5
NMTAP	21	0	4
NMTAP	21	0	5
NMTAP	21	192	4
NMTAP	21	192	5
NMTAP	22	0	2
NMTAP	22	96	2
NMTAP	22	192	2
NMTAP	23	0	2
NMTAP	23	0	3
NMTAP	23	192	2
NMTAP	23	192	3
NMHLD	24	0	2	192
NMTAP	24	192	3
NMTAP	25	0	4
NMTAP	25	96	4
NMTAP	25	192	4
NMHLD	26	0	5	192
NMTAP	26	192	4
NMTAP	27	0	3
NMTAP	27	96	3
NMTAP	27	192	3
NMHLD	28	0	2	192
NMTAP	28	192	3
NMTAP	29	0	4
NMTAP	29	96	4
NMTAP	29	192	4
NMHLD	30	0	5	192
NMTAP	30	192	4
NMTAP	31	0	3
NMTAP	31	96	3
NMTAP	31	192	3
NMTAP	32	0	1
NMTAP	32	96	1
NMTAP	32	192	2
NMTAP	32	288	2
NMTAP	33	0	3
NMTAP	33	192	4
NMTAP	33	192	5
NMTAP	34	0	6
NMTAP	34	96	6
NMTAP	34	192	5
NMTAP	34	288	5
NMTAP	35	0	4
NMTAP	35	192	2
NMTAP	35	192	3
NMTAP	36	0	1
NMTAP	36	96	1
NMTAP	36	192	2
NMTAP	36	288	2
NMTAP	37	0	3
NMTAP	37	192	4
NMTAP	37	192	5
NMTAP	38	0	6
NMTAP	38	96	6
NMTAP	38	192	5
NMTAP	38	288	5
NMTAP	39	0	4
NMTAP	39	192	3
NMTAP	39	192	4
NMSTR	40	0	3
NMSI_	40	0	3	96	192	0
NMTAP	41	0	6
NMTAP	41	0	7
NMTAP	41	192	5
NMSTR	42	0	4
NMSI_	42	0	4	96	192	7
NMTAP	43	0	0
NMTAP	43	0	1
NMTAP	43	192	2
NMSTR	44	0	3
NMSI_	44	0	3	96	192	0
NMTAP	45	0	6
NMTAP	45	0	7
NMTAP	45	192	5
NMSTR	46	0	4
NMSI_	46	0	4	96	192	7
NMTAP	47	0	0
NMTAP	47	0	1
EXTAP	47	192	2
NMHLD	48	0	2	192
NMHLD	48	192	3	192
NMHLD	49	0	4	192
NMTAP	49	192	5
NMHLD	50	0	5	192
NMHLD	50	192	4	192
NMHLD	51	0	3	192
NMTAP	51	192	2
NMHLD	52	0	2	192
NMHLD	52	192	3	192
NMHLD	53	0	4	192
NMTAP	53	192	5
EXTAP	54	0	6
EXTAP	54	0	7
BXTAP	54	336	0
BXTAP	54	336	7
BXTAP	55	48	0
BXTAP	55	48	7
BXTAP	55	144	0
BXTAP	55	144	7
NMTAP	56	0	1
NMTAP	56	96	1
NMTAP	56	192	2
NMTAP	56	288	2
NMTAP	57	0	3
NMTAP	57	96	3
NMTAP	57	192	4
NMTAP	57	192	5
NMTAP	58	0	6
NMTAP	58	96	6
NMTAP	58	192	5
NMTAP	58	288	5
NMTAP	59	0	4
NMTAP	59	96	4
NMTAP	59	192	2
NMTAP	59	192	3
NMTAP	60	0	1
NMTAP	60	96	1
NMTAP	60	192	2
NMTAP	60	288	2
NMTAP	61	0	3
NMTAP	61	96	3
NMTAP	61	192	4
NMTAP	61	288	4
NMTAP	62	0	5
NMTAP	62	96	5
NMTAP	62	192	6
NMTAP	62	288	6
EXTAP	63	0	7
EXTAP	63	96	7
EXTAP	63	192	0
EXTAP	63	192	1
NMTAP	64	0	2
NMTAP	64	96	2
NMTAP	64	192	1
NMTAP	64	288	1
NMTAP	65	0	0
NMTAP	65	96	0
NMTAP	65	192	6
NMTAP	65	192	7
NMTAP	66	0	5
NMTAP	66	96	5
NMTAP	66	192	6
NMTAP	66	288	6
NMTAP	67	0	7
NMTAP	67	96	7
NMTAP	67	192	0
NMTAP	67	192	1
NMTAP	68	0	2
NMTAP	68	96	2
NMTAP	68	192	3
NMTAP	68	288	3
NMTAP	69	0	4
NMTAP	69	96	4
NMTAP	69	192	5
NMTAP	69	288	5
NMTAP	70	0	6
NMTAP	70	96	6
NMTAP	70	192	7
NMTAP	70	288	7
EXTAP	71	0	6
EXTAP	71	0	7
EXTAP	71	96	6
EXTAP	71	96	7
EXTAP	71	192	0
EXTAP	71	192	5
NMTTP	72	0	6	B	0	L1
NMTTP	72	96	5	B	0	L1
NMTTP	72	192	4	B	0	L1
NMTTP	73	0	1	B	0	L1
NMTTP	73	96	2	B	0	L1
NMTTP	73	192	3	B	0	L1
NMTTP	74	0	7	B	0	L1
NMTTP	74	96	6	B	0	L1
NMTTP	74	192	4	B	0	L1
NMTTP	74	192	5	B	0	L1
NMTTP	75	0	0	B	0	L1
NMTTP	75	96	1	B	0	L1
NMTTP	75	192	2	B	0	L1
NMTTP	75	192	3	B	0	L1
NMTTP	76	0	6	E	0	L1
NMTTP	76	96	5	E	0	L1
NMTTP	76	192	4	E	0	L1
NMTTP	76	288	3	E	0	L1
NMTTP	77	0	2	E	0	L1
NMTTP	77	192	0	C	0	L1
NMTTP	78	0	2	E	0	L1
NMTTP	78	96	3	E	0	L1
NMTTP	78	192	4	E	0	L1
NMTTP	78	288	5	E	0	L1
NMTTP	79	0	6	E	0	L1
NMTTP	79	192	0	C	0	L1
NMTAP	80	0	6
NMTAP	80	96	6
NMTAP	80	192	6
NMTAP	80	192	7
NMTAP	81	0	1
NMTAP	81	96	1
NMTAP	81	192	0
NMTAP	81	192	1
NMTAP	82	0	2
NMTAP	82	96	2
NMTAP	82	192	2
NMTAP	82	192	3
NMTAP	83	0	5
NMTAP	83	96	5
NMTAP	83	192	4
NMTAP	83	192	5
NMTAP	84	0	2
NMTAP	84	96	2
NMTAP	84	192	1
NMTAP	84	192	3
NMTAP	85	0	5
NMTAP	85	96	5
NMTAP	85	192	4
NMTAP	85	192	6
NMTHO	86	0	0	384	C	0	L1
EXTAP	88	0	0
EXTAP	88	96	0
EXTAP	88	192	0
BRTAP	88	288	0
BRTAP	88	288	7
NMTAP	90	0	1
NMTAP	90	96	1
NMTAP	90	192	0
NMTAP	90	192	7
NMTAP	90	288	0
NMTAP	90	288	7
NMTAP	91	0	6
NMTAP	91	96	6
NMTAP	91	192	4
NMTAP	91	192	5
NMTAP	91	288	4
NMTAP	91	288	5
NMTAP	92	0	6
NMTAP	92	96	6
NMTAP	92	192	0
NMTAP	92	192	7
NMTAP	92	288	0
NMTAP	92	288	7
NMTAP	93	0	1
NMTAP	93	96	1
NMTAP	93	192	0
NMTAP	93	192	1
NMTAP	94	0	2
NMTAP	94	96	2
NMTAP	94	192	3
NMTAP	94	288	3
NMTAP	95	0	4
NMTAP	95	96	4
NMTAP	95	192	5
NMTAP	95	288	5
NMTAP	96	0	6
NMTAP	96	96	6
NMTAP	96	192	7
NMTAP	96	288	7
EXTAP	97	0	0
EXTAP	97	96	0
EXTAP	97	192	0
EXTAP	97	192	7
NMTAP	98	0	6
NMTAP	98	96	6
NMTAP	98	192	0
NMTAP	98	192	7
NMTAP	98	288	0
NMTAP	98	288	7
NMTAP	99	0	1
NMTAP	99	96	1
NMTAP	99	192	2
NMTAP	99	192	3
NMTAP	99	288	2
NMTAP	99	288	3
NMTAP	100	0	1
NMTAP	100	96	1
NMTAP	100	192	0
NMTAP	100	192	7
NMTAP	100	288	0
NMTAP	100	288	7
NMTAP	101	0	6
NMTAP	101	96	6
NMTAP	101	192	6
NMTAP	101	192	7
NMHLD	102	0	5	192
NMTAP	102	192	4
NMHLD	103	0	2	192
NMTAP	103	192	3
NMSTR	104	0	3
NMSI_	104	0	3	96	192	0
NMSTR	104	0	4
NMSI_	104	0	4	96	192	7
NMTAP	106	0	1
NMTAP	106	96	1
NMTAP	106	192	2
NMTAP	106	288	2
NMTAP	107	0	3
NMTAP	107	96	3
NMTAP	107	192	4
NMTAP	107	192	5
NMTAP	108	0	6
NMTAP	108	96	6
NMTAP	108	192	5
NMTAP	108	288	5
NMTAP	109	0	4
NMTAP	109	96	4
NMTAP	109	192	2
NMTAP	109	192	3
EXTAP	110	0	2
EXTAP	110	96	2
EXTAP	110	96	3
EXTAP	110	192	5
EXTAP	110	288	4
EXTAP	110	288	5
EXTAP	111	0	2
EXTAP	111	96	2
EXTAP	111	96	3
EXTAP	111	192	5
EXTAP	111	288	4
EXTAP	111	288	5
EXHLD	112	0	3	192
EXHLD	112	0	4	192
NMTAP	113	0	3
NMTAP	113	0	4
NMTAP	113	96	3
NMTAP	113	96	4
NMTAP	113	192	2
NMTAP	113	192	5
NMTAP	114	0	1
NMTAP	114	96	1
NMTAP	114	192	1
NMTAP	114	288	0
NMTAP	114	288	1
NMTAP	115	0	2
NMTAP	115	96	2
NMTAP	115	192	2
NMTAP	115	288	2
NMTAP	115	288	3
NMTAP	116	0	5
NMTAP	116	96	5
NMTAP	116	192	5
NMTAP	116	288	4
NMTAP	116	288	5
NMTAP	117	0	6
NMTAP	117	96	6
NMTAP	117	192	0
NMTAP	117	192	7
NMTAP	118	0	6
NMTAP	118	96	6
NMTAP	118	192	6
NMTAP	118	288	6
NMTAP	118	288	7
NMTAP	119	0	5
NMTAP	119	96	5
NMTAP	119	192	5
NMTAP	119	288	4
NMTAP	119	288	5
NMTAP	120	0	2
NMTAP	120	96	2
NMTAP	120	192	2
NMTAP	120	288	2
NMTAP	120	288	3
NMTAP	121	0	1
NMTAP	121	96	1
NMTAP	121	192	0
NMTAP	121	192	7
NMSTR	122	0	0
NMSI_	122	0	0	96	192	5
NMSTR	122	0	1
NMSI_	122	0	1	96	192	4
NMSTR	123	0	6
NMSI_	123	0	6	96	192	3
NMSTR	123	0	7
NMSI_	123	0	7	96	192	2
NMTAP	124	0	1
NMTAP	124	96	1
NMTAP	124	192	1
NMTAP	125	0	0
NMTAP	125	96	0
NMTAP	125	192	0
NMTAP	126	0	7
NMTAP	126	96	7
NMTAP	126	192	7
NMTAP	127	0	6
NMTAP	127	96	6
NMTAP	127	192	6
EXTAP	128	0	0
EXTAP	128	0	7
BXTAP	128	336	1
BXTAP	128	336	6
BXTAP	129	48	1
BXTAP	129	48	6
BXTAP	129	144	1
BXTAP	129	144	6

T_REC_TAP	324
T_REC_BRK	2
T_REC_XTP	35
T_REC_BXX	18
T_REC_HLD	15
T_REC_XHO	2
T_REC_BHO	0
T_REC_BXH	0
T_REC_STR	10
T_REC_BST	0
T_REC_XST	0
T_REC_XBS	0
T_REC_TTP	26
T_REC_THO	1
T_REC_SLD	10
T_REC_BSL	0
T_REC_ALL	443
T_NUM_TAP	395
T_NUM_BRK	20
T_NUM_HLD	18
T_NUM_SLD	10
T_NUM_ALL	443
T_JUDGE_TAP	415
T_JUDGE_HLD	76
T_JUDGE_SLD	10
T_JUDGE_ALL	501
TTM_EACHPAIRS	82
TTM_SCR_TAP	197500
TTM_SCR_BRK	52000
TTM_SCR_HLD	18000
TTM_SCR_SLD	15000
TTM_SCR_ALL	282500
TTM_SCR_S	272100
TTM_SCR_SS	280500
TTM_RAT_ACV	10071

