VERSION	0.00.00	1.04.00
FES_MODE	0
BPM_DEF	206.000	206.000	206.000	206.000
MET_DEF	4	4
RESOLUTION	384
CLK_DEF	384
COMPATIBLE_CODE	MA2

BPM	0	0	206.000
MET	0	0	4	4

NMTAP	2	0	3
NMTAP	3	0	3
NMTAP	4	0	4
NMTAP	5	0	4
NMHLD	6	0	3	336
NMHLD	6	0	4	336
EXTAP	8	0	4
NMTAP	8	192	4
NMTAP	9	0	4
NMTAP	10	0	5
NMTAP	10	192	5
NMTAP	11	0	5
NMTAP	12	0	6
NMTAP	12	192	6
NMTAP	13	0	6
NMTAP	14	0	7
NMTAP	14	192	7
EXTAP	15	0	0
EXTAP	15	0	7
NMTAP	16	0	0
NMTAP	16	192	0
NMTAP	17	0	0
NMTAP	18	0	1
NMTAP	18	192	1
NMTAP	19	0	1
NMTAP	20	0	2
NMTAP	20	192	2
NMTAP	21	0	2
NMTAP	22	0	3
NMTAP	22	192	3
EXTAP	23	0	3
EXTAP	23	0	4
NMHLD	24	0	2	384
NMHLD	24	0	3	384
NMHLD	26	0	0	384
NMHLD	26	0	1	384
NMHLD	28	0	6	384
NMHLD	28	0	7	384
NMHLD	30	0	4	384
NMHLD	30	0	5	384
NMTAP	32	0	5
NMTAP	32	192	5
NMTAP	33	0	4
NMTAP	33	0	5
NMTAP	34	0	2
NMTAP	34	192	2
NMTAP	35	0	2
NMTAP	35	0	3
NMTAP	36	0	4
NMTAP	36	192	4
NMTAP	37	0	3
NMTAP	37	0	4
NMHLD	38	0	3	384
NMHLD	38	0	4	384
NMSTR	40	0	3
NMSI_	40	0	3	96	288	0
NMSTR	42	0	7
NMSI_	42	0	7	96	288	4
NMSTR	44	0	3
NMSI_	44	0	3	96	288	0
NMSTR	46	0	7
NMSI_	46	0	7	96	288	4
NMTTP	48	0	3	B	0	L1
NMTTP	49	0	4	B	0	L1
NMTTP	50	0	2	B	0	L1
NMTTP	51	0	5	B	0	L1
NMTTP	52	0	1	B	0	L1
NMTTP	53	0	6	B	0	L1
NMTTP	54	0	0	C	1	L1
BRTAP	56	0	0
NMTAP	56	96	0
NMTAP	56	192	0
NMTAP	57	0	1
NMTAP	57	192	1
NMTAP	58	0	2
NMTAP	58	96	2
NMTAP	58	192	2
NMTAP	59	0	2
NMTAP	59	0	3
NMTAP	60	0	4
NMTAP	60	96	4
NMTAP	60	192	4
NMTAP	61	0	5
NMTAP	61	192	5
NMTAP	62	0	6
NMTAP	62	96	6
NMTAP	62	192	6
NMTAP	63	0	6
NMTAP	63	0	7
NMTAP	64	0	7
NMTAP	64	96	7
NMTAP	64	192	7
NMTAP	65	0	6
NMTAP	65	192	6
NMTAP	66	0	5
NMTAP	66	96	5
NMTAP	66	192	5
EXTAP	67	0	4
EXTAP	67	0	5
NMTAP	68	0	3
NMTAP	68	96	3
NMTAP	68	192	3
NMTAP	69	0	2
NMTAP	69	192	2
NMTAP	70	0	1
NMTAP	70	96	1
NMTAP	70	192	1
EXTAP	71	0	0
EXTAP	71	0	7
NMSTR	72	0	0
NMSI_	72	0	0	96	288	4
NMSTR	74	0	6
NMSI_	74	0	6	96	288	2
NMSTR	76	0	1
NMSI_	76	0	1	96	288	5
NMSTR	78	0	7
NMSI_	78	0	7	96	288	2
NMSTR	80	0	1
NMSI_	80	0	1	96	288	4
NMTAP	82	0	5
NMTAP	82	192	5
NMTAP	83	0	6
NMTAP	83	192	6
NMHLD	84	0	0	384
NMHLD	84	0	7	384
NMTTP	86	0	0	B	0	L1
NMTTP	86	0	7	B	0	L1
NMTTP	87	0	1	B	0	L1
NMTTP	87	0	6	B	0	L1
NMTTP	88	0	2	B	0	L1
NMTTP	88	0	5	B	0	L1
NMTTP	89	0	0	C	1	L1
BRTAP	90	0	7
NMTAP	90	96	7
NMTAP	90	192	7
NMTAP	91	0	6
NMTAP	91	96	6
NMTAP	91	192	6
NMTAP	92	0	5
NMTAP	92	96	5
NMTAP	92	192	5
NMTAP	93	0	4
NMTAP	93	96	4
NMTAP	93	192	3
NMTAP	93	192	4
NMTAP	94	0	3
NMTAP	94	96	3
NMTAP	94	192	3
NMTAP	95	0	2
NMTAP	95	96	2
NMTAP	95	192	2
NMTAP	96	0	1
NMTAP	96	96	1
NMTAP	96	192	1
EXTAP	97	0	0
EXTAP	97	0	7
NMTAP	98	0	0
NMTAP	98	96	0
NMTAP	98	192	0
NMTAP	99	0	1
NMTAP	99	96	1
NMTAP	99	192	0
NMTAP	99	192	1
NMTAP	100	0	2
NMTAP	100	96	2
NMTAP	100	192	2
NMTAP	101	0	3
NMTAP	101	96	3
NMTAP	101	192	3
NMTAP	101	192	4
NMTAP	102	0	4
NMTAP	102	96	4
NMTAP	102	192	4
NMTAP	103	0	5
NMTAP	103	96	5
NMTAP	103	192	4
NMTAP	103	192	5
NMTAP	104	0	6
NMTAP	104	96	6
NMTAP	104	192	6
BXTAP	105	0	0
BXTAP	105	0	7
NMTAP	106	0	7
NMTAP	106	192	7
NMTAP	107	0	6
NMTAP	107	192	6
NMTAP	108	0	4
NMTAP	108	0	5
NMTAP	108	192	4
NMTAP	108	192	5
NMTAP	109	0	4
NMTAP	109	0	5
NMTAP	110	0	3
NMTAP	110	192	3
NMTAP	111	0	2
NMTAP	111	192	2
NMTAP	112	0	0
NMTAP	112	0	1
NMTAP	112	192	0
NMTAP	112	192	1
NMTAP	113	0	0
NMTAP	113	0	1
NMTAP	114	0	0
NMTAP	114	96	0
NMTAP	114	192	0
NMTAP	115	0	0
NMTAP	115	0	1
NMTAP	115	192	0
NMTAP	115	192	1
NMTAP	116	0	2
NMTAP	116	96	2
NMTAP	116	192	2
NMTAP	117	0	2
NMTAP	117	0	3
NMTAP	117	192	2
NMTAP	117	192	3
NMTAP	118	0	4
NMTAP	118	96	4
NMTAP	118	192	4
NMTAP	119	0	4
NMTAP	119	0	5
NMTAP	119	192	4
NMTAP	119	192	5
NMTAP	120	0	6
NMTAP	120	96	6
NMTAP	120	192	6
NMTAP	121	0	7
NMTAP	121	96	7
NMTAP	121	192	7
NMHLD	122	0	0	384
NMHLD	122	0	7	384
NMHLD	124	0	1	384
NMHLD	124	0	6	384
NMHLD	126	0	2	384
NMHLD	126	0	5	384
NMTHO	128	0	0	672	C	0	L1

T_REC_TAP	168
T_REC_BRK	2
T_REC_XTP	11
T_REC_BXX	2
T_REC_HLD	20
T_REC_XHO	0
T_REC_BHO	0
T_REC_BXH	0
T_REC_STR	9
T_REC_BST	0
T_REC_XST	0
T_REC_XBS	0
T_REC_TTP	14
T_REC_THO	1
T_REC_SLD	9
T_REC_BSL	0
T_REC_ALL	236
T_NUM_TAP	202
T_NUM_BRK	4
T_NUM_HLD	21
T_NUM_SLD	9
T_NUM_ALL	236
T_JUDGE_TAP	206
T_JUDGE_HLD	172
T_JUDGE_SLD	9
T_JUDGE_ALL	387
TTM_EACHPAIRS	37
TTM_SCR_TAP	101000
TTM_SCR_BRK	10400
TTM_SCR_HLD	21000
TTM_SCR_SLD	13500
TTM_SCR_ALL	145900
TTM_SCR_S	141150
TTM_SCR_SS	145500
TTM_RAT_ACV	10027

