VERSION	0.00.00	1.04.00
FES_MODE	0
BPM_DEF	195.000	195.000	195.000	195.000
MET_DEF	4	4
RESOLUTION	384
CLK_DEF	384
COMPATIBLE_CODE	MA2

BPM	0	0	195.000
MET	0	0	4	4
MET	13	0	4	2
MET	13	192	4	4
MET	103	192	4	2
MET	104	0	4	4

BXHLD	2	0	3	2016
BXSTR	2	0	4
NMSCR	2	0	4	96	1056	2
NMTAP	6	0	4
NMTAP	6	96	4
NMTAP	6	192	4
NMTAP	6	288	4
NMTAP	7	0	4
NMTAP	7	96	4
NMTAP	7	192	3
NMTAP	7	192	4
NMTAP	7	240	3
NMTAP	7	240	4
NMTAP	7	288	2
NMTAP	7	288	5
EXTAP	8	0	0
EXTAP	8	0	7
NMTAP	8	96	2
NMHLD	8	144	1	96
NMTAP	8	144	3
NMTAP	8	240	0
NMTAP	8	288	7
NMTAP	8	336	6
NMTAP	9	0	3
NMTAP	9	0	5
NMTAP	9	96	2
NMHLD	9	144	1	96
NMTAP	9	144	3
NMTAP	9	240	0
NMTAP	9	288	7
NMTAP	9	336	6
NMTAP	10	0	4
NMTAP	10	0	5
NMTAP	10	96	3
NMTAP	10	120	4
NMTAP	10	144	3
NMTAP	10	168	4
NMTAP	10	192	3
NMTAP	10	216	4
NMTAP	10	240	3
NMTAP	10	264	4
NMTAP	10	288	3
NMTAP	10	312	4
NMTAP	10	336	3
NMTAP	10	360	4
EXHLD	11	0	2	288
NMSTR	11	288	0
NMSCR	11	288	0	96	384	7
NMTTP	13	192	0	C	1	M1
NMTTP	13	192	2	B	0	M1
NMTTP	13	192	3	B	0	M1
NMTTP	13	192	4	B	0	M1
NMTTP	13	192	5	B	0	M1
EXHLD	14	288	1	96
EXHLD	14	288	6	96
EXHLD	15	48	2	96
EXHLD	15	48	5	96
EXTAP	15	192	3
EXTAP	15	192	4
NMHLD	15	336	6	144
NMTAP	16	96	4
NMTAP	16	192	3
NMTAP	16	192	5
NMTAP	16	288	2
NMTAP	16	288	4
NMTAP	16	336	2
NMTAP	16	336	4
NMTAP	17	48	1
NMSTR	17	96	1
NMSI_	17	96	1	96	48	5
BXHLD	17	192	7	288
NMTAP	18	96	4
NMTAP	18	192	1
NMTAP	18	224	3
NMTAP	18	256	2
NMTAP	18	288	6
NMTAP	18	320	4
NMTAP	18	352	5
NMTAP	19	0	2
NMTAP	19	32	4
NMTAP	19	64	3
NMTAP	19	96	5
NMTAP	19	128	2
NMTAP	19	160	4
NMSTR	19	192	2
NMSI_	19	192	2	96	48	0
NMSTR	20	0	5
NMSI_	20	0	5	96	48	7
NMSTR	20	0	7
NMSI_	20	0	7	96	48	3
NMSTR	20	192	0
NMSI_	20	192	0	96	48	3
NMSTR	20	192	2
NMSI_	20	192	2	96	48	0
NMTAP	21	0	4
NMSTR	21	0	7
NMSI_	21	0	7	96	48	4
BXTAP	21	192	5
NMTAP	21	288	5
NMTAP	22	0	5
NMTAP	22	96	5
NMHLD	22	144	3	240
NMTAP	22	192	5
NMTAP	22	288	5
NMTAP	23	0	5
NMTAP	23	96	5
NMHLD	23	144	4	240
NMTAP	23	192	5
NMTAP	23	288	5
NMTAP	24	0	5
NMTAP	24	96	5
NMHLD	24	144	3	240
NMTAP	24	192	5
NMTAP	24	288	5
NMTAP	25	0	5
NMSTR	25	96	5
NMSCL	25	96	5	96	96	3
NMTAP	25	144	3
NMTAP	25	192	2
NMTAP	25	288	2
NMTAP	26	0	2
NMSTR	26	96	2
NMSCR	26	96	2	96	96	4
NMTAP	26	144	4
NMTAP	26	192	5
NMTAP	26	288	5
NMTAP	27	0	5
NMTAP	27	96	3
NMTAP	27	96	5
NMTAP	27	192	4
NMTAP	27	240	4
NMTAP	27	288	3
NMTAP	27	336	3
NMTAP	28	0	4
NMTAP	28	48	5
EXTAP	28	96	2
EXTAP	28	96	6
NMTAP	28	192	0
NMTAP	28	192	1
NMTAP	28	240	2
NMTAP	28	240	7
NMTAP	29	0	6
NMTAP	29	0	7
NMTAP	29	48	0
NMTAP	29	48	5
NMSTR	29	192	2
NMSI_	29	192	2	96	48	5
NMTAP	29	288	7
NMSTR	30	0	6
NMSCL	30	0	6	96	144	1
NMTAP	30	96	2
NMHLD	30	144	2	144
NMTAP	30	288	0
NMTAP	31	0	1
NMTAP	31	0	7
NMTAP	31	48	1
NMHLD	31	48	7	96
NMTAP	31	144	2
EXTAP	31	192	1
EXTAP	31	192	3
NMTAP	31	288	5
EXTAP	31	336	4
EXTAP	31	336	6
NMTAP	32	48	0
NMTAP	32	48	7
EXTAP	32	96	1
EXHLD	32	96	6	96
NMTAP	32	192	3
NMTAP	32	240	3
NMTAP	32	288	4
NMTAP	32	336	2
NMTAP	33	0	7
NMTAP	33	48	6
NMSTR	33	96	5
NMSCR	33	96	5	96	96	0
NMTAP	33	192	3
NMTAP	33	288	1
NMSTR	33	336	1
NMSLL	33	336	1	96	144	3
NMTAP	34	48	3
NMTAP	34	96	4
NMHLD	34	144	5	336
NMTAP	34	336	3
NMTAP	35	0	3
NMSTR	35	96	4
NMSCL	35	96	4	96	96	2
NMTTP	35	192	5	A	0	M1
NMTTP	35	288	6	A	0	M1
NMTAP	36	0	4
NMSTR	36	96	4
NMSCL	36	96	4	96	96	2
NMTTP	36	192	5	A	0	M1
NMTTP	36	288	6	A	0	M1
NMTAP	37	0	4
NMSTR	37	96	4
NMSI_	37	96	4	96	96	0
NMTTP	37	192	5	B	0	M1
NMTTP	37	192	6	B	0	M1
CNSI_	37	288	0	0	96	2
EXTAP	38	0	7
NMTAP	38	96	3
NMTAP	38	144	3
NMTAP	38	144	5
NMTAP	38	240	2
NMTAP	38	288	2
NMTAP	38	288	4
NMHLD	39	0	1	96
NMSTR	39	96	3
NMSCR	39	96	3	96	96	5
NMTTP	39	192	2	A	0	M1
NMTTP	39	288	1	A	0	M1
NMTAP	40	0	3
NMSTR	40	96	3
NMSCR	40	96	3	96	96	5
NMTTP	40	192	2	A	0	M1
NMTTP	40	288	1	A	0	M1
NMTAP	41	0	4
NMTAP	41	96	0
NMHLD	41	96	4	96
NMTAP	41	192	1
NMTAP	41	240	1
NMTAP	41	288	2
NMTAP	41	336	3
NMTAP	41	336	5
NMTAP	42	0	6
NMTAP	42	48	6
NMTAP	42	96	0
NMTAP	42	96	7
NMSTR	42	144	1
NMSI_	42	144	1	96	48	4
NMTAP	42	240	5
NMTAP	42	288	5
NMTAP	43	0	4
NMHLD	43	0	6	96
NMTAP	43	96	7
EXTAP	43	192	0
EXTAP	43	192	6
NMTAP	43	288	4
NMTAP	43	288	5
NMTAP	43	336	4
NMTAP	44	0	4
NMTAP	44	0	6
NMTAP	44	48	4
NMTAP	44	96	4
NMSTR	44	96	7
NMSI_	44	96	7	96	48	4
EXTAP	44	192	0
NMTAP	44	288	0
NMTAP	44	288	3
NMTAP	44	336	3
NMTAP	45	0	1
NMTAP	45	0	3
NMTAP	45	48	3
NMHLD	45	96	2	96
NMTAP	45	96	3
EXTAP	45	192	7
NMTAP	45	288	6
NMTAP	45	336	4
NMHLD	45	336	6	96
NMTAP	46	48	1
NMTAP	46	96	0
NMHLD	46	96	1	96
NMTAP	46	192	6
NMHLD	46	240	6	96
NMTAP	46	240	7
NMTAP	46	336	2
NMHLD	47	0	2	96
NMTAP	47	0	3
NMTAP	47	96	5
NMHLD	47	144	3	96
BXHLD	47	144	5	96
NMTAP	47	288	3
NMTAP	47	288	5
NMTAP	47	336	2
NMTAP	48	0	1
NMTAP	48	0	4
NMTAP	48	48	5
NMTAP	48	96	3
NMTAP	48	96	6
NMTAP	48	144	2
NMTAP	48	192	1
NMTAP	48	192	5
NMTAP	48	240	6
NMTAP	48	288	2
NMTAP	48	288	7
NMTAP	48	336	1
NMTAP	49	0	0
NMTAP	49	0	6
NMSTR	49	48	0
NMSI_	49	48	0	96	48	4
NMTAP	49	48	6
NMTAP	49	96	0
NMTAP	49	96	6
NMTAP	49	144	0
NMHLD	49	144	6	384
NMTAP	50	144	0
EXTAP	50	240	2
EXTAP	50	240	4
EXTAP	50	288	1
EXTAP	50	288	5
NMTAP	51	144	6
NMTAP	51	144	7
BRTAP	51	192	0
BRTAP	51	192	5
NMTAP	51	288	2
NMTAP	51	288	3
NMSTR	51	336	1
NMSLR	51	336	1	96	96	7
NMTAP	51	336	4
NMTAP	52	48	7
NMTAP	52	96	6
NMSTR	52	144	5
NMSI_	52	144	5	96	48	3
NMTAP	52	240	2
NMTAP	52	288	1
NMSTR	52	336	0
NMSCL	52	336	0	96	48	5
NMTAP	53	48	4
NMHLD	53	96	4	96
NMTAP	53	192	3
NMTAP	53	288	2
NMTAP	53	288	4
NMSTR	53	336	2
NMSLR	53	336	2	96	96	0
NMTAP	53	336	4
NMTAP	54	48	6
NMTAP	54	96	6
NMHLD	54	144	7	96
NMTAP	54	240	1
NMTAP	54	336	2
NMSTR	54	336	6
NMSI_	54	336	6	96	48	2
NMSTR	55	48	3
NMSI_	55	48	3	96	48	7
NMSTR	55	144	5
NMSCL	55	144	5	96	48	2
EXTAP	55	240	0
EXSTR	55	288	0
NMSV_	55	288	0	96	48	3
NMSV_	55	288	0	96	48	5
EXTAP	56	0	0
NMTAP	56	96	2
NMTAP	56	96	6
NMTAP	56	144	2
NMSTR	56	144	6
NMSI_	56	144	6	96	48	0
NMSTR	56	240	1
NMSLR	56	240	1	96	96	5
NMTAP	56	336	3
NMTAP	57	48	6
NMTAP	57	96	6
NMTAP	57	144	4
NMTAP	57	192	3
NMTAP	57	192	5
NMTAP	57	240	2
NMSTR	57	240	4
NMSCR	57	240	4	96	96	0
NMTAP	57	336	0
NMTAP	58	48	2
NMTAP	58	96	2
NMSTR	58	144	3
NMSI_	58	144	3	96	48	7
NMTAP	58	240	0
NMTAP	58	288	0
NMTAP	59	0	0
NMTAP	59	0	7
NMTAP	59	48	0
NMTAP	59	48	7
NMSTR	59	96	1
NMSI_	59	96	1	96	48	4
NMSTR	59	96	6
NMSI_	59	96	6	96	48	3
BRTAP	59	288	0
BRTAP	59	288	7
NMTAP	60	0	6
NMTAP	60	48	6
NMTAP	60	96	4
NMSTR	60	144	5
NMSI_	60	144	5	96	48	3
NMTAP	60	240	3
NMTAP	60	288	2
NMSTR	60	336	1
NMSI_	60	336	1	96	48	5
NMSTR	61	48	6
NMSLR	61	48	6	96	96	4
EXTAP	61	144	3
NMTAP	61	288	2
NMSTR	61	336	2
NMSCR	61	336	2	96	48	5
NMTAP	62	48	5
NMTAP	62	96	6
NMHLD	62	144	7	96
NMSTR	62	240	4
NMSI_	62	240	4	96	48	1
NMSI_	62	240	4	96	48	7
EXTAP	63	48	0
EXTAP	63	96	0
EXTAP	63	144	1
EXTAP	63	144	7
NMTAP	63	240	2
NMTAP	63	240	3
NMTAP	63	288	1
NMTAP	63	288	4
NMTAP	63	336	0
NMTAP	63	336	5
NMTAP	64	0	6
NMHLD	64	0	7	96
NMTAP	64	96	5
NMSTR	64	144	5
NMSCL	64	144	5	96	48	2
NMSTR	64	240	2
NMSCR	64	240	2	96	48	5
NMTAP	64	336	0
EXTAP	65	48	1
EXTAP	65	48	7
EXTAP	65	96	1
EXTAP	65	96	7
NMTAP	65	144	6
BRTAP	65	192	3
BRTAP	65	192	5
NMTAP	65	288	2
NMSTR	65	336	1
NMSI_	65	336	1	96	48	5
NMTAP	65	336	3
NMTAP	66	48	7
NMHLD	66	96	7	96
BRTAP	66	192	4
NMTAP	66	288	3
NMTAP	66	288	5
NMTAP	66	336	3
NMSTR	66	336	5
NMSLL	66	336	5	96	96	7
NMTAP	67	48	2
NMTAP	67	96	2
BRTAP	67	192	1
BRTAP	67	192	6
NMTAP	67	288	0
NMTAP	67	312	7
NMTAP	67	336	0
NMTAP	67	360	7
NMTAP	68	0	0
NMTAP	68	24	7
NMTAP	68	48	0
NMTAP	68	72	7
NMTAP	68	96	0
NMTAP	68	120	7
NMTAP	68	144	0
NMTAP	68	168	7
NMTHO	68	192	0	192	C	0	M1
NMTAP	69	192	0
NMTAP	69	192	7
NMTAP	69	288	2
NMTAP	69	312	3
NMHLD	69	336	1	96
NMTAP	70	48	7
NMTAP	70	72	0
NMHLD	70	96	6	96
NMTAP	70	192	4
NMTAP	70	216	5
NMHLD	70	240	3	96
NMTAP	70	336	4
NMTAP	71	0	2
NMTAP	71	0	5
NMTAP	71	96	4
NMTAP	71	120	3
NMTAP	71	144	4
NMHLD	71	192	2	96
NMTAP	71	192	5
NMTAP	71	288	5
NMTAP	71	312	4
NMHLD	71	336	6	96
NMTAP	72	48	0
NMTAP	72	72	7
NMHLD	72	96	1	96
NMTAP	72	192	3
NMTAP	72	216	2
NMTAP	72	240	3
NMTAP	72	336	2
NMTAP	72	336	4
NMTAP	73	0	2
NMSTR	73	0	4
NMSF_	73	0	4	96	48	0
BXTAP	73	192	2
BXTAP	73	192	6
NMTAP	73	288	5
NMTAP	73	312	4
NMHLD	73	336	6	96
NMTAP	74	48	0
NMTAP	74	72	7
NMHLD	74	96	1	96
NMTAP	74	192	3
NMTAP	74	216	2
NMHLD	74	240	4	96
NMTAP	74	336	3
NMTAP	75	0	2
NMTAP	75	0	5
NMTAP	75	96	4
NMTAP	75	120	3
NMTAP	75	144	4
NMHLD	75	192	2	96
NMTAP	75	192	6
NMTAP	75	288	5
NMTAP	75	312	4
NMHLD	75	336	6	96
NMTAP	76	48	1
NMTAP	76	72	0
NMHLD	76	96	2	96
NMTAP	76	192	5
NMTAP	76	216	4
NMTAP	76	240	6
EXTAP	76	288	3
EXSTR	76	288	7
NMSCL	76	288	7	96	120	1
EXTAP	77	0	0
EXTAP	77	192	0
EXTAP	77	192	6
NMHLD	77	288	5	72
NMTAP	77	360	4
NMTAP	78	0	4
NMTAP	78	48	3
NMSTR	78	48	6
NMSCL	78	48	6	96	48	3
EXTAP	78	144	0
NMTAP	78	240	2
NMHLD	78	288	2	72
NMTAP	78	360	3
NMTAP	79	0	3
NMSTR	79	48	1
NMSUR	79	48	1	96	48	5
NMTAP	79	48	4
EXTAP	79	144	7
NMTAP	79	240	6
NMTAP	79	288	6
NMTAP	79	336	3
NMTAP	80	0	2
NMSTR	80	48	1
NMSXR	80	48	1	96	432	4
NMTAP	80	48	4
NMTTP	80	144	0	C	1	M1
NMTAP	85	0	3
NMTAP	85	48	3
NMHLD	85	96	3	672
NMTTP	85	192	3	B	0	M1
NMTTP	85	288	4	B	0	M1
NMTTP	86	0	2	B	0	M1
NMTTP	86	96	5	B	0	M1
NMTTP	86	192	1	B	0	M1
NMTTP	86	288	6	B	0	M1
NMTAP	87	0	7
NMTAP	87	48	7
NMSTR	87	96	7
NMSI_	87	96	7	96	48	3
NMHLD	87	192	1	336
NMTTP	88	144	0	C	1	M1
NMTTP	88	144	3	B	0	M1
NMTTP	88	144	4	B	0	M1
EXTAP	88	240	0
EXTAP	88	240	7
EXTAP	88	288	0
EXTAP	88	288	7
BXTAP	89	0	0
EXTAP	89	16	1
EXTAP	89	32	2
EXTAP	89	48	3
EXTAP	89	64	4
EXTAP	89	80	5
EXTAP	89	96	6
EXTAP	89	112	7
EXTAP	89	128	0
EXTAP	89	144	1
EXTAP	89	160	2
EXTAP	89	176	3
EXSTR	89	192	4
BRSF_	89	192	4	96	48	0
BRTAP	89	288	4
NMTAP	90	0	2
NMTAP	90	0	6
NMTAP	90	48	2
NMTAP	90	48	6
NMSTR	90	144	5
NMSI_	90	144	5	96	48	3
NMTAP	90	240	3
NMTAP	90	288	2
NMSTR	90	336	1
NMSLR	90	336	1	96	96	7
NMTAP	91	48	4
NMTAP	91	96	4
EXTAP	91	192	0
EXTAP	91	192	6
NMTAP	91	288	2
NMTAP	91	288	4
NMSTR	91	336	2
NMSCL	91	336	2	96	48	7
NMTAP	91	336	4
NMTAP	92	48	3
NMTAP	92	96	4
NMHLD	92	144	5	96
NMSTR	92	240	4
NMSI_	92	240	4	96	48	2
NMSTR	92	336	6
NMSI_	92	336	6	96	48	2
NMTAP	93	48	1
EXTAP	93	96	1
NMHLD	93	144	0	96
NMTAP	93	144	1
NMTAP	93	240	2
NMTAP	93	288	3
NMTAP	93	336	4
NMSTR	94	0	5
NMSI_	94	0	5	96	48	3
NMTAP	94	0	7
NMTAP	94	96	0
NMSTR	94	144	0
NMSCL	94	144	0	96	48	5
NMSCR	94	144	0	96	48	3
NMSTR	94	240	0
NMSF_	94	240	0	96	48	4
NMTAP	94	336	0
NMTAP	95	48	2
NMTAP	95	48	6
NMTAP	95	96	2
NMTAP	95	96	6
NMTAP	95	144	2
NMTAP	95	144	6
NMSTR	95	192	5
NMSI_	95	192	5	96	48	3
NMTAP	95	240	3
NMTAP	95	288	5
NMSTR	95	336	1
NMSI_	95	336	1	96	48	5
NMTAP	96	0	0
NMTAP	96	48	1
NMTAP	96	96	7
NMTAP	96	144	6
NMSTR	96	192	2
NMSI_	96	192	2	96	48	4
NMTAP	96	240	4
NMTAP	96	288	2
NMSTR	96	336	6
NMSI_	96	336	6	96	48	2
NMTAP	97	0	7
NMTAP	97	48	6
NMTAP	97	96	0
NMTAP	97	144	1
NMHLD	97	192	2	96
NMTAP	97	192	3
NMTAP	97	288	4
NMTAP	97	312	3
NMTAP	97	336	4
NMTAP	97	360	3
NMTAP	98	0	5
NMTAP	98	24	2
NMTAP	98	48	5
NMTAP	98	72	2
NMTAP	98	96	6
NMTAP	98	120	1
NMTAP	98	144	6
NMTAP	98	168	1
NMTAP	98	192	7
NMTAP	98	216	0
NMTAP	98	240	7
NMTAP	98	264	0
NMTAP	98	288	7
NMTAP	98	312	0
NMTAP	98	336	7
NMTAP	98	360	0
NMTAP	99	0	7
NMTAP	99	24	0
NMTAP	99	48	7
NMTAP	99	72	0
NMSTR	99	96	7
NMSI_	99	96	7	96	48	3
NMTAP	99	120	0
NMTAP	99	144	7
NMTAP	99	168	0
NMTAP	101	48	4
NMTAP	101	72	3
BRTAP	101	96	2
BRTAP	101	96	5
NMTAP	101	192	0
NMTAP	101	192	1
NMTAP	101	240	0
NMTAP	101	240	1
NMTAP	101	288	2
NMTAP	101	288	3
NMTAP	101	336	2
NMTAP	101	336	3
NMTAP	102	0	4
NMTAP	102	0	5
NMTAP	102	48	4
NMTAP	102	48	5
NMTAP	102	96	6
NMTAP	102	96	7
NMTAP	102	144	6
NMTAP	102	144	7
BRTAP	102	192	0
NMTAP	102	208	1
NMTAP	102	224	2
NMTAP	102	240	3
NMTAP	102	256	4
NMTAP	102	272	5
NMTAP	102	288	6
NMTAP	102	304	7
NMTAP	102	320	0
NMTAP	102	336	1
NMTAP	102	352	2
NMTAP	102	368	3
NMHLD	103	0	4	192
NMTHO	103	192	0	192	C	0	M1
NMSTR	108	0	0
NMSCR	108	0	0	96	960	7
NMTAP	111	96	0
NMTAP	111	120	7
NMTAP	111	144	0
NMTAP	111	168	7
BRTAP	111	192	1
BRTAP	111	192	6
BRSTR	111	240	3
BRSI_	111	240	3	96	48	0
BRSTR	111	240	4
NMSI_	111	240	4	96	48	7
BRTAP	111	288	2
BRTAP	111	288	5
BRTAP	111	336	3
BRTAP	111	336	4

T_REC_TAP	425
T_REC_BRK	19
T_REC_XTP	55
T_REC_BXX	4
T_REC_HLD	44
T_REC_XHO	6
T_REC_BHO	0
T_REC_BXH	3
T_REC_STR	63
T_REC_BST	2
T_REC_XST	3
T_REC_XBS	1
T_REC_TTP	25
T_REC_THO	2
T_REC_SLD	70
T_REC_BSL	2
T_REC_ALL	724
T_NUM_TAP	571
T_NUM_BRK	31
T_NUM_HLD	52
T_NUM_SLD	70
T_NUM_ALL	724
T_JUDGE_TAP	597
T_JUDGE_HLD	203
T_JUDGE_SLD	72
T_JUDGE_ALL	872
TTM_EACHPAIRS	125
TTM_SCR_TAP	285500
TTM_SCR_BRK	80600
TTM_SCR_HLD	52000
TTM_SCR_SLD	105000
TTM_SCR_ALL	523100
TTM_SCR_S	504400
TTM_SCR_SS	520000
TTM_RAT_ACV	10059

