VERSION	0.00.00	1.04.00
FES_MODE	0
BPM_DEF	195.000	195.000	195.000	195.000
MET_DEF	4	4
RESOLUTION	384
CLK_DEF	384
COMPATIBLE_CODE	MA2

BPM	0	0	195.000
MET	0	0	4	4
MET	13	0	4	2
MET	13	192	4	4
MET	103	192	4	2
MET	104	0	4	4

NMSTR	2	0	3
NMSCL	2	0	3	96	288	0
NMHLD	2	0	5	384
NMHLD	4	0	1	1440
NMSTR	4	0	7
NMSCL	4	0	7	96	288	4
NMTAP	6	0	3
NMTAP	6	96	3
NMTAP	6	192	3
NMTAP	6	288	3
NMTAP	7	0	3
NMTAP	7	96	3
NMTAP	7	192	3
BXTAP	7	288	7
NMTAP	8	0	3
NMTAP	8	0	5
NMTAP	8	48	3
NMTAP	8	48	5
NMTAP	8	144	2
NMTAP	8	144	4
NMTAP	8	192	2
NMTAP	8	192	4
NMTAP	8	288	1
NMTAP	8	288	5
NMTAP	9	0	0
NMTAP	9	0	6
NMTAP	9	48	0
NMTAP	9	48	6
NMTAP	9	144	1
NMTAP	9	144	7
NMTAP	9	192	1
NMTAP	9	192	7
NMTAP	9	288	2
NMTAP	9	288	6
NMSTR	10	0	3
NMSCL	10	0	3	96	288	4
NMTAP	10	0	5
NMTHO	11	0	0	960	C	1	M1
EXHLD	12	0	0	576
NMHLD	15	192	6	144
NMHLD	15	336	5	144
NMTAP	16	96	4
NMHLD	16	192	2	144
NMTAP	16	336	3
NMHLD	17	48	3	144
NMTTP	17	192	0	C	1	M1
NMHLD	18	192	6	144
NMHLD	18	336	5	144
NMTAP	19	96	4
NMHLD	19	192	2	192
NMHLD	20	0	0	192
NMHLD	20	192	7	192
NMHLD	21	0	5	192
NMTAP	21	192	4
NMTAP	21	288	4
NMTAP	22	0	4
NMTAP	22	96	4
NMTAP	22	192	4
NMTAP	22	288	4
NMTAP	23	0	4
NMTAP	23	96	4
NMTTP	23	192	4	E	0	M1
NMTTP	23	288	3	E	0	M1
NMTTP	24	0	2	E	0	M1
NMTTP	24	96	1	E	0	M1
NMTTP	24	192	0	E	0	M1
NMTTP	24	288	7	E	0	M1
NMTTP	25	0	6	E	0	M1
NMTTP	25	96	5	E	0	M1
NMTAP	25	192	3
NMTAP	25	288	3
NMTAP	26	0	3
NMTAP	26	96	3
NMTAP	26	192	3
NMTAP	26	288	3
NMTAP	27	0	3
NMTAP	27	96	3
NMTAP	27	192	4
NMTAP	27	240	4
NMTAP	27	288	2
NMTAP	27	336	2
NMTAP	28	0	5
NMTAP	28	48	5
NMTAP	28	96	3
NMTAP	28	192	2
NMTAP	28	192	3
NMTAP	28	240	2
NMTAP	28	240	3
NMTAP	29	0	4
NMTAP	29	0	5
NMTAP	29	48	4
NMTAP	29	48	5
NMHLD	29	192	6	96
NMTAP	29	288	4
NMHLD	30	0	1	96
NMTAP	30	96	3
NMHLD	30	192	5	96
NMTAP	30	288	7
NMHLD	31	0	2	96
NMTAP	31	96	0
NMHLD	31	192	7	96
NMTAP	31	288	0
NMSTR	31	336	0
NMSCR	31	336	0	96	240	7
NMHLD	33	192	4	96
NMHLD	33	192	6	96
NMHLD	33	336	1	96
NMHLD	33	336	3	96
EXTAP	34	96	0
EXTAP	34	96	7
EXTAP	34	144	0
EXTAP	34	144	7
NMTAP	34	240	1
NMTAP	34	240	6
NMTAP	34	288	1
NMTAP	34	288	6
NMTAP	35	0	3
NMTAP	35	0	4
NMTAP	35	96	2
NMTAP	35	96	5
NMSTR	35	192	1
NMSUR	35	192	1	96	96	5
NMHLD	36	0	6	144
NMHLD	36	144	5	144
NMTAP	36	288	4
NMTAP	37	0	4
NMTAP	37	0	5
NMSTR	37	192	6
NMSUL	37	192	6	96	96	2
NMHLD	38	0	1	144
NMHLD	38	144	2	144
NMTAP	38	288	3
NMTAP	39	0	2
NMTAP	39	0	3
NMSTR	39	192	2
NMSI_	39	192	2	96	96	7
NMHLD	40	0	6	144
NMHLD	40	144	5	144
NMTAP	40	288	4
NMTAP	41	0	4
NMTAP	41	0	5
NMTAP	41	192	6
NMTAP	41	288	7
NMTAP	42	0	0
NMTAP	42	96	1
NMHLD	42	144	1	96
NMTAP	42	240	3
NMTAP	42	288	3
NMTAP	43	0	4
NMTAP	43	0	5
BRTAP	43	96	3
BRTAP	43	96	6
NMHLD	43	192	7	96
NMHLD	43	288	6	96
NMHLD	44	0	5	96
NMHLD	44	96	4	96
NMHLD	44	192	3	96
NMHLD	44	288	2	96
NMHLD	45	0	1	96
NMHLD	45	96	0	96
NMTAP	45	192	7
NMTAP	45	288	4
NMTAP	45	288	5
NMTAP	45	336	4
NMTAP	45	336	5
NMTAP	46	48	2
NMTAP	46	48	3
NMTAP	46	96	2
NMTAP	46	96	3
NMTAP	46	192	1
NMTAP	46	192	4
NMTAP	46	240	1
NMTAP	46	240	4
NMTAP	46	336	3
NMTAP	46	336	6
NMTAP	47	0	3
NMTAP	47	0	6
EXTAP	47	96	2
EXTAP	47	96	5
EXTAP	47	144	2
EXTAP	47	144	5
EXTAP	47	240	3
EXTAP	47	240	4
EXTAP	47	288	3
EXTAP	47	288	4
NMTAP	48	0	2
NMTAP	48	0	3
NMTAP	48	96	4
NMTAP	48	96	5
NMTAP	48	192	1
NMTAP	48	192	3
NMTAP	48	288	4
NMTAP	48	288	6
NMTAP	49	0	3
NMTAP	49	0	4
NMTAP	49	48	3
NMTAP	49	48	4
BRTAP	49	144	1
BRTAP	49	144	6
BXTAP	50	144	2
BXTAP	50	144	5
BXTAP	50	240	0
BXTAP	50	240	7
BXHLD	50	288	0	192
BXHLD	50	288	7	192
NMTAP	51	192	0
NMTAP	51	192	1
NMTAP	51	288	2
NMTAP	51	288	3
NMTAP	51	336	2
NMTAP	51	336	3
NMSTR	52	48	1
NMSCL	52	48	1	96	96	6
NMHLD	52	48	4	192
NMTAP	52	336	6
NMTAP	52	336	7
NMTAP	53	0	6
NMTAP	53	0	7
NMHLD	53	96	5	96
NMTAP	53	192	4
NMTAP	53	288	2
NMTAP	53	336	2
NMTAP	54	0	4
NMTAP	54	96	1
NMTAP	54	96	5
NMHLD	54	144	1	96
NMHLD	54	144	5	96
NMHLD	54	336	6	96
NMTAP	55	48	4
NMTAP	55	96	4
NMTAP	55	144	3
NMTAP	55	144	5
NMTAP	55	240	1
NMHLD	55	288	1	96
NMTAP	56	0	3
NMTAP	56	96	0
NMTAP	56	96	6
NMSTR	56	144	0
NMSI_	56	144	0	96	96	4
NMSTR	56	144	6
NMSI_	56	144	6	96	96	2
NMTAP	57	48	7
NMTAP	57	96	7
NMTAP	57	192	2
NMHLD	57	240	2	96
NMSTR	57	336	3
NMSXL	57	336	3	96	288	6
NMSXR	57	336	3	96	288	0
EXTAP	59	192	0
EXTAP	59	192	7
BRHLD	59	288	1	96
BRHLD	59	288	6	96
NMTAP	60	48	0
NMTAP	60	96	0
NMTAP	60	144	7
NMTAP	60	192	7
NMTAP	60	288	6
NMTAP	60	288	7
NMTAP	61	0	4
NMTAP	61	0	5
NMTAP	61	96	2
NMTAP	61	96	3
NMTAP	61	192	0
NMTAP	61	192	1
NMTAP	61	288	7
NMSTR	62	0	4
NMSCL	62	0	4	96	96	0
NMHLD	62	0	6	336
EXTAP	62	336	0
NMTAP	63	48	1
NMTAP	63	48	7
NMTAP	63	144	2
NMHLD	63	144	6	96
NMTAP	63	240	4
NMTAP	63	288	4
NMTAP	64	0	1
NMTAP	64	0	3
NMTAP	64	96	4
NMTAP	64	96	6
NMSTR	64	144	4
NMSV_	64	144	4	96	96	2
NMHLD	64	144	6	96
CNSI_	64	336	2	0	96	0
EXTAP	65	48	7
EXTAP	65	96	7
NMTAP	65	192	0
NMTAP	65	192	6
NMTAP	65	240	0
NMTAP	65	240	6
NMTAP	65	336	1
NMTAP	65	336	7
NMTAP	66	0	1
NMTAP	66	0	7
NMTAP	66	96	0
NMTAP	66	96	6
NMTAP	66	192	4
NMTAP	66	192	5
NMTAP	66	240	4
NMTAP	66	240	5
NMTAP	66	336	2
NMTAP	66	336	3
NMTAP	67	0	2
NMTAP	67	0	3
NMTAP	67	96	4
NMTAP	67	96	5
NMHLD	67	192	6	96
NMHLD	67	288	4	96
NMHLD	68	0	3	96
NMHLD	68	96	1	96
BRTAP	68	192	7
EXSTR	69	192	6
NMSI_	69	192	6	96	48	4
EXSTR	69	336	0
NMSI_	69	336	0	96	48	2
EXSTR	70	96	7
NMSI_	70	96	7	96	48	3
EXSTR	70	240	0
NMSI_	70	240	0	96	48	4
EXTAP	71	0	7
EXSTR	71	192	1
NMSI_	71	192	1	96	48	3
EXSTR	71	336	7
NMSI_	71	336	7	96	48	5
EXSTR	72	96	0
NMSI_	72	96	0	96	48	4
EXSTR	72	240	7
NMSI_	72	240	7	96	48	3
EXTAP	73	0	0
EXSTR	73	192	7
NMSI_	73	192	7	96	48	3
EXSTR	73	336	0
NMSI_	73	336	0	96	48	2
EXSTR	74	96	6
NMSI_	74	96	6	96	48	4
EXSTR	74	240	2
NMSI_	74	240	2	96	48	0
EXTAP	75	0	7
EXSTR	75	192	0
NMSI_	75	192	0	96	48	4
EXSTR	75	336	7
NMSI_	75	336	7	96	48	5
EXSTR	76	96	1
NMSI_	76	96	1	96	48	3
EXSTR	76	240	5
NMSI_	76	240	5	96	48	7
EXTAP	77	0	0
EXTAP	77	96	0
EXTAP	77	96	7
NMHLD	77	192	6	96
NMTAP	77	288	4
NMTAP	78	0	2
NMTAP	78	96	1
NMHLD	78	144	1	96
NMTAP	78	240	3
NMTAP	78	288	3
NMTAP	79	0	0
NMTAP	79	0	4
NMTAP	79	48	0
NMTAP	79	48	4
NMTAP	79	144	2
NMTAP	79	144	6
NMTAP	79	240	7
NMHLD	79	288	7	96
NMSTR	80	0	4
NMSCL	80	0	4	96	288	5
NMSTR	81	192	4
NMSI_	81	192	4	96	480	7
NMSTR	83	192	3
NMSI_	83	192	3	96	480	0
NMTAP	85	192	6
NMTAP	85	288	6
NMTAP	86	0	5
NMTAP	86	96	5
NMTAP	86	192	4
NMTAP	86	288	4
NMTAP	87	0	3
NMTAP	87	48	3
NMTAP	87	48	4
NMSTR	87	96	3
BRSI_	87	96	3	96	48	0
NMSTR	87	96	4
BRSI_	87	96	4	96	48	7
NMTTP	88	144	0	C	1	M1
NMTTP	88	144	2	B	0	M1
NMTTP	88	144	3	B	0	M1
NMTTP	88	144	4	B	0	M1
NMTTP	88	144	5	B	0	M1
NMSTR	89	0	0
NMSCR	89	0	0	96	96	3
NMSTR	89	0	7
NMSCL	89	0	7	96	96	4
BXHLD	89	288	1	96
BXHLD	89	288	6	96
NMTAP	90	48	7
NMTAP	90	96	7
NMTAP	90	144	0
NMTAP	90	192	0
NMTAP	90	288	0
NMTAP	90	288	1
NMTAP	91	0	2
NMTAP	91	0	3
NMTAP	91	96	4
NMTAP	91	96	5
NMTAP	91	192	6
NMTAP	91	192	7
NMTAP	91	288	0
NMHLD	92	0	1	336
NMSTR	92	0	3
NMSCR	92	0	3	96	96	7
EXTAP	92	336	7
NMTAP	93	48	0
NMTAP	93	48	6
NMTAP	93	96	0
NMTAP	93	96	6
NMHLD	93	144	1	96
NMTAP	93	144	5
NMTAP	93	240	3
NMTAP	93	288	3
NMTAP	94	0	2
NMTAP	94	0	4
NMTAP	94	96	1
NMTAP	94	96	5
NMSTR	94	144	1
BRSCL	94	144	1	96	96	6
NMSTR	94	144	5
BRSCL	94	144	5	96	96	2
EXTAP	95	48	0
EXTAP	95	96	0
NMTAP	95	192	1
NMTAP	95	192	7
NMTAP	95	240	1
NMTAP	95	240	7
NMTAP	95	336	0
NMTAP	95	336	6
NMTAP	96	0	0
NMTAP	96	0	6
NMTAP	96	96	1
NMTAP	96	96	7
NMTAP	96	192	2
NMTAP	96	192	3
NMTAP	96	240	2
NMTAP	96	240	3
NMTAP	96	336	4
NMTAP	96	336	5
NMTAP	97	0	4
NMTAP	97	0	5
NMTAP	97	96	2
NMTAP	97	96	3
NMSTR	97	192	5
NMSCR	97	192	5	96	96	0
NMSTR	98	0	1
NMSCR	98	0	1	96	96	4
NMSTR	98	192	5
NMSXL	98	192	5	96	288	2
BXHLD	99	192	0	576
NMHLD	100	192	7	192
EXTAP	101	96	1
EXTAP	101	96	6
EXTAP	101	192	2
EXTAP	101	192	5
NMTAP	101	288	3
NMTAP	101	336	3
NMTAP	102	0	4
NMTAP	102	48	4
NMTAP	102	96	2
NMTAP	102	96	5
NMTAP	102	144	2
NMTAP	102	144	5
NMTAP	102	192	1
NMTAP	102	192	6
NMTAP	102	240	1
NMTAP	102	240	6
NMTAP	102	288	0
NMTAP	102	288	7
NMTAP	102	336	0
NMTAP	102	336	7
NMTAP	103	0	0
NMTAP	103	0	7
NMSTR	103	192	1
NMSCR	103	192	1	96	48	3
NMSTR	103	192	6
NMSCL	103	192	6	96	48	4
NMTHO	104	0	0	2688	C	0	M1
NMTTP	104	0	3	B	0	M1
NMTTP	104	0	4	B	0	M1
NMTTP	108	0	0	B	0	M1
NMTTP	108	0	0	A	0	M1
NMTTP	109	0	2	B	0	M1
NMTTP	109	0	2	A	0	M1
NMTTP	110	0	4	B	0	M1
NMTTP	110	0	4	A	0	M1
NMTTP	111	0	6	B	0	M1
NMTTP	111	0	6	A	0	M1
EXTAP	111	192	0
EXTAP	111	192	7
EXTAP	111	240	0
EXTAP	111	240	7
EXTAP	111	288	1
EXTAP	111	288	6
EXTAP	111	336	1
EXTAP	111	336	6

T_REC_TAP	273
T_REC_BRK	5
T_REC_XTP	38
T_REC_BXX	5
T_REC_HLD	56
T_REC_XHO	1
T_REC_BHO	2
T_REC_BXH	5
T_REC_STR	28
T_REC_BST	0
T_REC_XST	16
T_REC_XBS	0
T_REC_TTP	24
T_REC_THO	2
T_REC_SLD	41
T_REC_BSL	4
T_REC_ALL	500
T_NUM_TAP	379
T_NUM_BRK	21
T_NUM_HLD	59
T_NUM_SLD	41
T_NUM_ALL	500
T_JUDGE_TAP	389
T_JUDGE_HLD	296
T_JUDGE_SLD	45
T_JUDGE_ALL	730
TTM_EACHPAIRS	128
TTM_SCR_TAP	189500
TTM_SCR_BRK	54600
TTM_SCR_HLD	59000
TTM_SCR_SLD	61500
TTM_SCR_ALL	364600
TTM_SCR_S	351650
TTM_SCR_SS	362500
TTM_RAT_ACV	10057

