VERSION	0.00.00	1.04.00
FES_MODE	0
BPM_DEF	195.000	195.000	195.000	195.000
MET_DEF	4	4
RESOLUTION	384
CLK_DEF	384
COMPATIBLE_CODE	MA2

BPM	0	0	195.000
MET	0	0	4	4
MET	13	0	4	2
MET	13	192	4	4
MET	103	192	4	2
MET	104	0	4	4

NMHLD	2	0	2	384
NMHLD	3	0	3	384
NMHLD	4	0	4	384
NMTAP	5	0	5
NMTAP	6	0	5
NMTAP	6	96	5
NMTAP	6	192	4
NMTAP	6	192	5
NMTAP	7	0	2
NMTAP	7	96	2
NMTAP	7	192	2
NMTAP	7	192	3
EXTAP	8	0	2
EXTAP	8	0	3
EXTAP	8	144	2
EXTAP	8	144	3
EXTAP	9	0	3
EXTAP	9	0	4
EXTAP	9	144	3
EXTAP	9	144	4
EXTAP	10	0	4
EXTAP	10	0	5
EXTAP	10	144	4
EXTAP	10	144	5
NMTHO	11	0	0	384	C	0	L1
NMSTR	13	192	0
NMSI_	13	192	0	96	288	5
NMSTR	13	192	1
NMSI_	13	192	1	96	288	4
NMTAP	15	0	6
NMTAP	15	0	7
NMSTR	15	192	6
NMSI_	15	192	6	96	288	3
NMSTR	15	192	7
NMSI_	15	192	7	96	288	2
NMTAP	17	0	0
NMTAP	17	0	1
NMSTR	17	192	0
NMSI_	17	192	0	96	288	5
NMSTR	17	192	1
NMSI_	17	192	1	96	288	4
NMTAP	19	0	6
NMTAP	19	0	7
NMSTR	19	192	6
NMSI_	19	192	6	96	288	3
NMSTR	19	192	7
NMSI_	19	192	7	96	288	2
NMTAP	21	0	0
NMTAP	21	0	1
NMTAP	21	192	1
NMTAP	22	0	1
NMTAP	22	192	2
NMTAP	23	0	2
NMTAP	23	192	3
NMTAP	24	0	3
NMTAP	24	192	4
NMTAP	24	192	5
NMTAP	25	0	4
NMTAP	25	0	5
NMTAP	25	192	6
NMTAP	26	0	6
NMTAP	26	192	5
NMTAP	27	0	5
NMTAP	27	192	4
NMTAP	28	0	4
BRTAP	28	192	2
BRTAP	28	192	3
BRTAP	29	0	2
BRTAP	29	0	3
NMTAP	29	192	5
NMTAP	29	288	5
NMTAP	30	0	4
NMTAP	30	0	5
NMTAP	30	192	2
NMTAP	30	288	2
NMTAP	31	0	2
NMTAP	31	0	3
NMTAP	31	192	5
NMTAP	31	288	5
NMTAP	32	0	4
NMTAP	32	0	5
NMTAP	32	192	2
NMTAP	32	288	2
NMTAP	33	0	2
NMTAP	33	0	3
NMTAP	33	192	1
NMTAP	33	288	1
NMTAP	34	0	0
NMTAP	34	0	1
NMTAP	34	192	6
NMTAP	34	288	6
NMTAP	35	0	6
NMTAP	35	0	7
NMHLD	35	192	5	192
NMTAP	36	0	4
NMHLD	36	192	2	192
NMTAP	37	0	3
NMHLD	37	192	5	192
NMTAP	38	0	4
NMHLD	38	192	2	192
NMTAP	39	0	3
NMHLD	39	192	1	192
NMTAP	40	0	0
NMHLD	40	192	6	192
NMTAP	41	0	7
NMHLD	41	192	1	192
NMTAP	42	0	0
NMHLD	42	192	6	192
NMTAP	43	0	7
NMTTP	43	192	6	B	0	L1
NMTTP	43	288	5	B	0	L1
NMTTP	44	0	4	B	0	L1
NMTTP	44	192	1	B	0	L1
NMTTP	44	288	2	B	0	L1
NMTTP	45	0	3	B	0	L1
NMTTP	45	192	7	B	0	L1
NMTTP	45	288	6	B	0	L1
NMTTP	46	0	4	B	0	L1
NMTTP	46	0	5	B	0	L1
NMTTP	46	192	0	B	0	L1
NMTTP	46	288	1	B	0	L1
NMTTP	47	0	2	B	0	L1
NMTTP	47	0	3	B	0	L1
NMTTP	47	192	7	E	0	L1
NMTTP	47	288	6	E	0	L1
NMTTP	48	0	5	E	0	L1
NMTTP	48	96	4	E	0	L1
NMTTP	48	192	3	E	0	L1
NMTTP	48	288	2	E	0	L1
NMTTP	49	0	1	E	0	L1
NMTHO	49	192	0	336	C	1	L1
NMTAP	51	192	1
NMTAP	51	288	1
NMTAP	52	0	2
NMTAP	52	0	3
NMTAP	52	96	2
NMTAP	52	96	3
NMTAP	52	192	4
NMTAP	52	288	4
NMTAP	53	0	4
NMTAP	53	0	5
NMTAP	53	96	4
NMTAP	53	96	5
NMTAP	53	192	6
NMTAP	53	288	6
NMTAP	54	0	4
NMTAP	54	0	5
NMTAP	54	96	4
NMTAP	54	96	5
NMTAP	54	192	3
NMTAP	54	288	3
NMTAP	55	0	2
NMTAP	55	0	3
NMTAP	55	192	1
NMTAP	55	288	1
NMTAP	56	0	0
NMTAP	56	96	0
NMTAP	56	192	6
NMTAP	56	192	7
NMTAP	56	288	6
NMTAP	56	288	7
NMTAP	57	0	6
NMTAP	57	0	7
EXTAP	57	192	0
EXTAP	57	192	7
EXTAP	57	336	0
EXTAP	57	336	7
EXHLD	58	96	0	288
EXHLD	58	96	7	288
NMTAP	59	192	6
NMTAP	59	288	6
NMTAP	60	0	4
NMTAP	60	0	5
NMTAP	60	96	4
NMTAP	60	96	5
NMTAP	60	192	3
NMTAP	60	288	3
NMTAP	61	0	2
NMTAP	61	0	3
NMTAP	61	96	2
NMTAP	61	96	3
NMTAP	61	192	1
NMTAP	61	288	1
NMTAP	62	0	2
NMTAP	62	0	3
NMTAP	62	96	2
NMTAP	62	96	3
NMTAP	62	192	4
NMTAP	62	288	4
NMTAP	63	0	4
NMTAP	63	0	5
NMTAP	63	192	6
NMTAP	63	288	6
NMTAP	64	0	7
NMTAP	64	96	7
NMTAP	64	192	0
NMTAP	64	192	1
NMTAP	64	288	0
NMTAP	64	288	1
NMTAP	65	0	0
NMTAP	65	0	1
NMHLD	65	192	2	144
NMHLD	65	192	3	144
NMHLD	66	192	3	144
NMHLD	66	192	4	144
NMHLD	67	192	4	144
NMHLD	67	192	5	144
NMTTP	68	192	0	C	1	L1
NMSTR	69	192	0
NMSI_	69	192	0	96	288	5
NMSTR	69	192	1
NMSI_	69	192	1	96	288	4
EXTAP	71	0	6
EXTAP	71	0	7
NMSTR	71	192	6
NMSI_	71	192	6	96	288	3
NMSTR	71	192	7
NMSI_	71	192	7	96	288	2
EXTAP	73	0	0
EXTAP	73	0	1
NMSTR	73	192	0
NMSI_	73	192	0	96	288	5
NMSTR	73	192	1
NMSI_	73	192	1	96	288	4
EXTAP	75	0	6
EXTAP	75	0	7
NMSTR	75	192	6
NMSI_	75	192	6	96	288	3
NMSTR	75	192	7
NMSI_	75	192	7	96	288	2
EXTAP	77	0	0
EXTAP	77	0	1
NMTAP	77	192	6
NMTAP	77	192	7
NMTAP	77	288	6
NMTAP	77	288	7
NMTAP	78	0	6
NMTAP	78	0	7
NMTAP	78	192	0
NMTAP	78	192	1
NMTAP	78	288	0
NMTAP	78	288	1
NMTAP	79	0	0
NMTAP	79	0	1
NMTAP	79	192	2
NMTAP	79	288	2
NMTAP	80	0	3
NMTAP	80	0	4
NMHLD	80	96	3	288
NMHLD	80	96	4	288
NMHLD	81	192	5	384
NMHLD	82	192	4	384
NMHLD	83	192	3	384
NMTAP	84	192	2
NMTAP	85	192	1
NMTAP	85	288	1
NMTAP	86	0	0
NMTAP	86	0	1
NMTAP	86	96	0
NMTAP	86	96	1
NMTAP	86	192	6
NMTAP	86	288	6
NMTAP	87	0	6
NMTAP	87	0	7
BRTAP	87	192	0
BRTAP	87	192	7
BXTAP	88	144	1
BXTAP	88	144	6
EXTAP	88	288	0
EXTAP	88	288	7
EXTAP	89	0	0
EXTAP	89	0	7
NMTAP	89	192	1
NMTAP	89	288	1
NMTAP	90	0	2
NMTAP	90	0	3
NMTAP	90	96	2
NMTAP	90	96	3
NMTAP	90	192	1
NMTAP	90	288	1
NMTAP	91	0	0
NMTAP	91	0	7
NMTAP	91	96	0
NMTAP	91	96	7
NMTAP	91	192	6
NMTAP	91	288	6
NMTAP	92	0	4
NMTAP	92	0	5
NMTAP	92	96	4
NMTAP	92	96	5
NMTAP	92	192	6
NMTAP	92	288	6
NMTAP	93	0	0
NMTAP	93	0	7
NMTAP	93	96	0
NMTAP	93	96	7
NMTAP	93	192	1
NMTAP	93	288	1
NMTAP	94	0	2
NMTAP	94	0	3
NMTAP	94	96	2
NMTAP	94	96	3
NMTAP	94	192	3
NMTAP	94	192	4
NMTAP	94	288	3
NMTAP	94	288	4
BXTAP	95	0	3
BXTAP	95	0	4
EXTAP	95	192	2
EXTAP	95	192	3
EXTAP	95	336	2
EXTAP	95	336	3
EXTAP	96	192	3
EXTAP	96	192	4
EXTAP	96	336	3
EXTAP	96	336	4
NMSTR	97	192	4
NMSI_	97	192	4	96	288	1
NMSTR	97	192	5
NMSI_	97	192	5	96	288	0
NMTAP	99	192	6
NMTAP	99	192	7
NMTAP	100	192	4
NMTAP	100	192	5
NMSTR	101	192	2
NMSI_	101	192	2	96	288	7
NMSTR	101	192	3
NMSI_	101	192	3	96	288	6
EXTAP	103	192	0
EXTAP	103	192	7
EXHLD	103	336	0	1200
EXHLD	103	336	7	1200
NMTHO	108	0	0	960	C	0	L1
BXTAP	111	192	0
BXTAP	111	192	7
BXTAP	111	288	0
BXTAP	111	288	7

T_REC_TAP	194
T_REC_BRK	6
T_REC_XTP	38
T_REC_BXX	8
T_REC_HLD	22
T_REC_XHO	4
T_REC_BHO	0
T_REC_BXH	0
T_REC_STR	20
T_REC_BST	0
T_REC_XST	0
T_REC_XBS	0
T_REC_TTP	22
T_REC_THO	3
T_REC_SLD	20
T_REC_BSL	0
T_REC_ALL	337
T_NUM_TAP	274
T_NUM_BRK	14
T_NUM_HLD	29
T_NUM_SLD	20
T_NUM_ALL	337
T_JUDGE_TAP	288
T_JUDGE_HLD	207
T_JUDGE_SLD	20
T_JUDGE_ALL	515
TTM_EACHPAIRS	100
TTM_SCR_TAP	137000
TTM_SCR_BRK	36400
TTM_SCR_HLD	29000
TTM_SCR_SLD	30000
TTM_SCR_ALL	232400
TTM_SCR_S	224100
TTM_SCR_SS	231000
TTM_RAT_ACV	10060

